osu file format v14

[General]
AudioFilename: Teminite & Panda Eyes - Highscore.mp3
AudioLeadIn: 0
PreviewTime: 95292
Countdown: 0
SampleSet: Soft
StackLeniency: 0.7
Mode: 0
LetterboxInBreaks: 0
WidescreenStoryboard: 0

[Editor]
Bookmarks: 4747,9110,26565,44019,61474,78928,96383,113837,133474,150928,168383,185837,205474,222928,240383
DistanceSpacing: 1.1
BeatDivisor: 4
GridSize: 4
TimelineZoom: 2.3

[Metadata]
Title:Highscore
TitleUnicode:Highscore
Artist:Panda Eyes & Teminite
ArtistUnicode:Panda Eyes & Teminite
Creator:Fort
Version:Another
Source:
Tags:LGV894 glitch hop 110 style Fxtra over 9000!!!
BeatmapID:736213
BeatmapSetID:332532

[Difficulty]
HPDrainRate:6
CircleSize:4
OverallDifficulty:7
ApproachRate:9
SliderMultiplier:1.5
SliderTickRate:1

[Events]
//Background and Video events
0,0,"BG.png",0,0
//Break Periods
2,96582,104510
2,186037,193965
//Storyboard Layer 0 (Background)
//Storyboard Layer 1 (Fail)
//Storyboard Layer 2 (Pass)
//Storyboard Layer 3 (Foreground)
//Storyboard Sound Samples

[TimingPoints]
4747,545.454545454546,4,2,2,100,1,0
9110,-200,4,2,2,70,0,0
9656,-200,4,2,2,25,0,0
11292,-200,4,2,2,70,0,0
11837,-200,4,2,2,40,0,0
13474,-200,4,2,2,70,0,0
14019,-200,4,2,2,50,0,0
15656,-200,4,2,2,80,0,0
17837,-200,4,2,2,80,0,0
26565,-100,4,2,3,100,0,0
28747,-100,4,2,2,100,0,0
35292,-100,4,2,3,100,0,0
35360,-100,4,2,2,100,0,0
43474,-66.6666666666667,4,2,1,100,0,0
44019,-66.6666666666667,4,2,30,100,0,1
44087,-66.6666666666667,4,2,1,100,0,1
44565,-66.6666666666667,4,2,1,100,0,0
52201,-66.6666666666667,4,2,20,100,0,0
52235,-66.6666666666667,4,2,1,100,0,0
60860,-66.6666666666667,4,2,2,100,0,0
60997,-66.6666666666667,4,2,1,100,0,0
61474,-66.6666666666667,4,2,1,100,0,0
78315,-66.6666666666667,4,2,20,100,0,0
78451,-66.6666666666667,4,2,1,100,0,0
78928,-66.6666666666667,4,2,1,100,0,0
96383,-100,4,2,30,50,0,0
96451,-100,4,2,1,100,0,0
113837,-66.6666666666667,4,2,30,100,0,1
113906,-66.6666666666667,4,2,1,100,0,1
121951,-66.6666666666667,4,2,20,100,0,1
122087,-66.6666666666667,4,2,1,100,0,1
122292,-66.6666666666667,4,2,4,100,0,1
122326,-66.6666666666667,4,2,1,100,0,1
122565,-66.6666666666667,4,2,30,100,0,1
122633,-66.6666666666667,4,2,1,100,0,1
129110,-100,4,2,2,100,0,0
133474,-66.6666666666667,4,2,30,100,0,1
133542,-66.6666666666667,4,2,1,100,0,1
137837,-66.6666666666667,4,2,30,100,0,1
137872,-66.6666666666667,4,2,1,100,0,1
142201,-66.6666666666667,4,2,30,100,0,1
142235,-66.6666666666667,4,2,1,100,0,1
146565,-66.6666666666667,4,2,30,100,0,1
146599,-66.6666666666667,4,2,1,100,0,1
149837,-200,4,2,1,100,0,1
150383,-100,4,2,1,100,0,1
150928,-66.6666666666667,4,2,1,100,0,0
153383,-66.6666666666667,4,2,4,100,0,1
153417,-66.6666666666667,4,2,1,100,0,1
155019,-66.6666666666667,4,2,1,100,0,0
157747,-66.6666666666667,4,2,4,100,0,1
157781,-66.6666666666667,4,2,1,100,0,1
159110,-66.6666666666667,4,2,20,100,0,1
159144,-66.6666666666667,4,2,1,100,0,1
159383,-66.6666666666667,4,2,1,100,0,0
159928,-66.6666666666667,4,2,4,70,0,0
159962,-66.6666666666667,4,2,1,100,0,0
160474,-66.6666666666667,4,2,4,70,0,0
160508,-66.6666666666667,4,2,1,100,0,0
161019,-66.6666666666667,4,2,4,70,0,0
161053,-66.6666666666667,4,2,1,100,0,0
161565,-66.6666666666667,4,2,4,70,0,0
161599,-66.6666666666667,4,2,1,100,0,0
162110,-66.6666666666667,4,2,4,70,0,1
162144,-66.6666666666667,4,2,1,100,0,1
162656,-66.6666666666667,4,2,4,70,0,1
162690,-66.6666666666667,4,2,1,100,0,1
163201,-66.6666666666667,4,2,4,70,0,1
163235,-66.6666666666667,4,2,1,100,0,1
163747,-66.6666666666667,4,2,4,70,0,0
163781,-66.6666666666667,4,2,1,100,0,0
164292,-66.6666666666667,4,2,4,70,0,0
164326,-66.6666666666667,4,2,1,100,0,0
164837,-66.6666666666667,4,2,4,70,0,0
164872,-66.6666666666667,4,2,1,100,0,0
165383,-66.6666666666667,4,2,4,70,0,0
165417,-66.6666666666667,4,2,1,100,0,0
165928,-66.6666666666667,4,2,4,70,0,0
165962,-66.6666666666667,4,2,1,100,0,0
166474,-66.6666666666667,4,2,4,70,0,1
166508,-66.6666666666667,4,2,1,100,0,1
167019,-66.6666666666667,4,2,4,70,0,1
167053,-66.6666666666667,4,2,1,100,0,1
167565,-66.6666666666667,4,2,4,70,0,1
167599,-66.6666666666667,4,2,1,100,0,1
167837,-66.6666666666667,4,2,20,100,0,1
167872,-66.6666666666667,4,2,1,100,0,1
168110,-66.6666666666667,4,2,4,70,0,0
168144,-66.6666666666667,4,2,1,100,0,0
168383,-66.6666666666667,4,2,1,100,0,1
176565,-66.6666666666667,4,2,20,100,0,1
176599,-66.6666666666667,4,2,1,100,0,1
177383,-66.6666666666667,4,2,4,70,0,1
177417,-66.6666666666667,4,2,1,100,0,1
177928,-66.6666666666667,4,2,4,70,0,1
177962,-66.6666666666667,4,2,1,100,0,1
178474,-66.6666666666667,4,2,4,70,0,1
178508,-66.6666666666667,4,2,1,100,0,1
179019,-66.6666666666667,4,2,4,70,0,1
179053,-66.6666666666667,4,2,1,100,0,1
179565,-66.6666666666667,4,2,4,70,0,1
179599,-66.6666666666667,4,2,1,100,0,1
180110,-66.6666666666667,4,2,4,70,0,1
180144,-66.6666666666667,4,2,1,100,0,1
180656,-66.6666666666667,4,2,4,70,0,1
180690,-66.6666666666667,4,2,1,100,0,1
181201,-66.6666666666667,4,2,4,70,0,1
181235,-66.6666666666667,4,2,1,100,0,1
181747,-66.6666666666667,4,2,4,70,0,1
181781,-66.6666666666667,4,2,1,100,0,1
182292,-66.6666666666667,4,2,4,70,0,1
182326,-66.6666666666667,4,2,1,100,0,1
182837,-66.6666666666667,4,2,4,70,0,1
182872,-66.6666666666667,4,2,1,100,0,1
183383,-66.6666666666667,4,2,4,70,0,1
183417,-66.6666666666667,4,2,1,100,0,1
183928,-66.6666666666667,4,2,4,70,0,1
183962,-66.6666666666667,4,2,1,100,0,1
184474,-66.6666666666667,4,2,4,70,0,1
184508,-66.6666666666667,4,2,1,100,0,1
185019,-66.6666666666667,4,2,4,70,0,1
185053,-66.6666666666667,4,2,1,100,0,1
185565,-66.6666666666667,4,2,4,70,0,1
185599,-66.6666666666667,4,2,1,100,0,1
185837,-76.9230769230769,4,2,2,100,0,0
185872,-76.9230769230769,4,2,1,100,0,0
203292,-100,4,2,1,100,0,0
205474,-71.4285714285714,4,2,1,100,0,0
222928,-66.6666666666667,4,2,1,100,0,0
240383,-100,4,2,1,100,0,0

[Colours]
Combo1 : 241,79,10
Combo2 : 153,203,253
Combo3 : 54,115,228
Combo4 : 98,46,207
Combo5 : 227,149,43
Combo6 : 37,203,33
Combo7 : 16,190,182
Combo8 : 255,0,0

[HitObjects]
120,304,9110,5,4,0:0:0:0:
128,216,9656,6,0,L|88:208,2,37.5,0|0|0,0:0|0:0|0:0,0:0:0:0:
196,268,10474,2,0,L|236:260,2,37.5,0|0|0,0:0|0:0|0:0,0:0:0:0:
200,160,11292,5,4,0:0:0:0:
176,72,11837,6,0,L|152:76,4,18.75,0|0|0|0|0,0:0|0:0|0:0|0:0|0:0,0:0:0:0:
256,104,12656,2,0,L|296:96,2,37.5,0|0|0,0:0|0:0|0:0,0:0:0:0:
376,160,13474,5,4,0:0:0:0:
396,248,14019,6,0,L|400:272,4,18.75,0|0|0|0|0,0:0|0:0|0:0|0:0|0:0,0:0:0:0:
308,256,14837,2,0,L|308:212,2,37.5,0|0|0,0:0|0:0|0:0,0:0:0:0:
288,344,15656,5,4,0:0:0:0:
200,360,16201,6,0,L|180:356,4,18.75
220,280,17019,2,0,L|216:236,2,37.5,0|0|0,0:0|0:0|0:0,0:0:0:0:
128,276,17837,5,4,0:0:0:0:
112,288,18519,6,0,L|108:268,1,18.75,0|0,0:0|0:0,0:0:0:0:
136,192,18792,2,0,L|132:172,1,18.75,0|0,0:0|0:0,0:0:0:0:
112,144,19474,6,0,L|192:136,1,75,0|4,0:0|0:0,0:0:0:0:
200,116,20701,6,0,L|224:116,1,18.75,0|0,0:0|0:0,0:0:0:0:
308,184,20974,2,0,L|332:184,1,18.75,0|0,0:0|0:0,0:0:0:0:
340,176,21656,6,0,L|348:256,1,75,0|4,0:0|0:0,0:0:0:0:
368,272,22883,6,0,L|344:276,1,18.75,0|0,0:0|0:0,0:0:0:0:
196,320,23156,2,0,L|172:316,1,18.75,0|0,0:0|0:0,0:0:0:0:
160,320,23837,6,0,L|168:240,1,75,0|4,0:0|0:0,0:0:0:0:
188,232,25065,6,0,L|184:208,1,18.75,0|0,0:0|0:0,0:0:0:0:
236,28,25337,2,0,L|240:52,1,18.75,0|0,0:0|0:0,0:0:0:0:
268,344,26019,5,0,0:0:0:0:
256,352,26565,6,0,L|340:352,1,75,4|0,0:0|0:0,0:0:0:0:
408,304,27110,1,0,0:0:0:0:
428,216,27383,2,0,P|428:180|416:136,1,75,0|0,0:0|0:0,0:0:0:0:
356,80,27928,1,0,0:0:0:0:
268,104,28201,1,0,0:0:0:0:
192,52,28474,1,0,0:0:0:0:
104,72,28747,6,0,P|88:108|88:156,1,75,4|0,0:0|0:0,0:0:0:0:
40,220,29292,2,0,L|48:256,3,37.5,0|0|0|0,0:0|0:0|0:0|0:0,0:0:0:0:
64,300,29837,1,0,0:0:0:0:
144,256,30110,1,0,0:0:0:0:
220,308,30383,1,0,0:0:0:0:
308,284,30656,1,0,0:0:0:0:
396,288,30928,6,0,P|416:316|428:360,1,75,4|0,0:0|0:0,0:0:0:0:
456,220,31474,2,0,P|432:208|424:200,3,37.5,0|0|0|0,0:0|0:0|0:0|0:0,0:0:0:0:
396,164,32019,1,0,0:0:0:0:
312,196,32292,1,0,0:0:0:0:
232,156,32565,1,0,0:0:0:0:
148,188,32837,1,0,0:0:0:0:
68,232,33110,6,0,B|60:196|60:196|68:144,1,75,4|0,0:0|0:0,0:0:0:0:
64,328,33656,2,0,P|88:320|108:320,3,37.5,0|0|0|0,0:0|0:0|0:0|0:0,0:0:0:0:
144,332,34201,2,0,P|176:344|228:344,1,75,0|0,0:0|0:0,0:0:0:0:
304,328,34747,2,0,P|340:316|392:320,1,75,4|0,0:0|0:0,0:0:0:0:
200,268,35292,6,0,P|192:236|200:112,1,150,6|0,0:0|0:0,0:0:0:0:
220,80,35974,2,0,L|268:68,2,37.5,0|0|0,0:0|0:0|0:0,0:0:0:0:
180,56,36383,1,0,0:0:0:0:
276,208,36928,1,0,0:0:0:0:
416,92,37474,6,0,P|432:136|428:248,1,150,4|0,0:0|0:0,0:0:0:0:
408,276,38156,2,0,L|440:300,2,37.5,0|0|0,0:0|0:0|0:0,0:0:0:0:
368,296,38565,1,0,0:0:0:0:
192,336,39110,1,0,0:0:0:0:
52,220,39656,6,0,P|44:180|60:56,1,150,4|0,0:0|0:0,0:0:0:0:
92,44,40337,2,0,L|84:0,2,37.5,0|0|0,0:0|0:0|0:0,0:0:0:0:
128,76,40747,1,0,0:0:0:0:
308,52,41292,1,0,0:0:0:0:
364,224,41837,6,0,L|204:212,1,150,4|0,0:0|0:0,0:0:0:0:
184,180,42519,2,0,L|180:136,2,37.5,0|0|0,0:0|0:0|0:0,0:0:0:0:
140,196,42928,1,0,0:0:0:0:
200,316,43337,1,0,0:0:0:0:
200,316,43474,6,0,L|328:304,1,112.500004291535,4|2,0:0|0:0,0:0:0:0:
476,200,44019,6,0,P|476:164|444:84,1,112.500004291535,6|0,0:0|0:0,0:0:0:0:
336,20,44565,5,8,0:0:0:0:
288,76,44701,1,0,0:0:0:0:
224,112,44837,2,0,L|160:104,1,56.2500021457673,0|0,0:0|0:0,0:0:0:0:
60,200,45110,5,2,0:0:0:0:
96,320,45247,1,0,0:0:0:0:
84,180,45383,2,0,L|20:172,1,56.2500021457673,0|0,0:0|0:0,0:0:0:0:
80,340,45656,2,0,L|135:333,1,56.2500021457673,8|0,0:0|0:0,0:0:0:0:
304,308,45928,2,0,L|296:376,1,56.2500021457673,0|0,0:0|0:0,0:0:0:0:
216,252,46201,6,0,B|228:168|228:168|224:136,1,112.500004291535,6|0,0:0|0:0,0:0:0:0:
372,136,46747,5,8,0:0:0:0:
404,268,46883,1,0,0:0:0:0:
304,212,47019,1,0,0:0:0:0:
456,204,47156,1,0,0:0:0:0:
352,128,47292,6,0,L|360:64,1,56.2500021457673,2|0,0:0|0:0,0:0:0:0:
420,284,47565,2,0,L|412:348,1,56.2500021457673,0|0,0:0|0:0,0:0:0:0:
316,232,47837,2,0,L|184:220,1,112.500004291535,8|0,0:0|0:0,0:0:0:0:
140,260,48247,1,0,0:0:0:0:
100,320,48383,6,0,L|84:200,1,112.500004291535,6|0,0:0|0:0,0:0:0:0:
24,76,48928,5,8,0:0:0:0:
84,116,49065,1,0,0:0:0:0:
156,124,49201,2,0,L|224:112,1,56.2500021457673,0|0,0:0|0:0,0:0:0:0:
400,76,49474,6,0,L|408:136,1,56.2500021457673,2|0,0:0|0:0,0:0:0:0:
336,264,49747,1,0,0:0:0:0:
456,232,49883,1,0,0:0:0:0:
336,264,50019,2,0,L|272:256,1,56.2500021457673,8|0,0:0|0:0,0:0:0:0:
440,328,50292,2,0,L|504:320,1,56.2500021457673,0|0,0:0|0:0,0:0:0:0:
296,196,50565,6,0,P|268:224|276:316,1,112.500004291535,6|0,0:0|0:0,0:0:0:0:
384,184,51110,5,8,0:0:0:0:
288,104,51247,1,0,0:0:0:0:
432,116,51383,1,0,0:0:0:0:
220,152,51519,1,0,0:0:0:0:
324,64,51656,2,0,L|332:124,1,56.2500021457673,2|0,0:0|0:0,0:0:0:0:
176,172,51928,2,0,L|184:112,1,56.2500021457673,0|0,0:0|0:0,0:0:0:0:
48,32,52201,2,0,L|56:160,1,112.500004291535,4|0,0:0|0:0,0:0:0:0:
68,216,52610,1,0,0:0:0:0:
36,284,52747,6,0,P|64:268|160:296,1,112.500004291535,6|0,0:0|0:0,0:0:0:0:
276,336,53292,5,8,0:0:0:0:
344,360,53428,1,0,0:0:0:0:
416,344,53565,2,0,P|424:316|420:288,1,56.2500021457673,0|0,0:0|0:0,0:0:0:0:
392,196,53837,5,2,0:0:0:0:
444,108,53974,1,0,0:0:0:0:
332,104,54110,2,0,L|324:44,1,56.2500021457673
224,100,54383,2,0,L|240:224,1,112.500004291535,8|0,0:0|0:0,0:0:0:0:
200,292,54792,1,0,0:0:0:0:
128,344,54928,6,0,L|16:328,1,112.500004291535,6|0,0:0|0:0,0:0:0:0:
32,180,55474,5,8,0:0:0:0:
152,224,55610,1,0,0:0:0:0:
104,104,55747,1,0,0:0:0:0:
56,260,55883,1,0,0:0:0:0:
124,80,56019,2,0,L|60:72,1,56.2500021457673,2|0,0:0|0:0,0:0:0:0:
208,148,56292,2,0,L|272:156,1,56.2500021457673,0|0,0:0|0:0,0:0:0:0:
201,71,56565,2,0,L|209:7,1,56.2500021457673,8|0,0:0|0:0,0:0:0:0:
133,155,56837,2,0,L|125:219,1,56.2500021457673,0|0,0:0|0:0,0:0:0:0:
284,80,57110,6,0,L|400:92,1,112.500004291535,6|0,0:0|0:0,0:0:0:0:
468,220,57656,5,8,0:0:0:0:
332,180,57792,1,0,0:0:0:0:
492,204,57928,2,0,L|480:272,1,56.2500021457673,0|0,0:0|0:0,0:0:0:0:
391,292,58201,5,2,0:0:0:0:
249,238,58337,1,0,0:0:0:0:
332,332,58474,1,0,0:0:0:0:
296,185,58610,1,0,0:0:0:0:
266,307,58747,2,0,P|240:309|176:240,1,112.500004291535,8|0,0:0|0:0,0:0:0:0:
180,188,59156,1,0,0:0:0:0:
196,116,59292,6,0,P|200:84|160:16,1,112.500004291535,6|0,0:0|0:0,0:0:0:0:
88,20,59701,1,0,0:0:0:0:
68,92,59837,2,0,P|100:96|132:80,1,56.2500021457673,8|0,0:0|0:0,0:0:0:0:
286,46,60110,2,0,P|318:42|350:58,1,56.2500021457673
496,208,61474,6,0,P|500:260|476:324,1,112.500004291535,6|0,0:0|0:0,0:0:0:0:
336,344,62019,5,8,0:0:0:0:
232,308,62156,1,0,0:0:0:0:
332,248,62292,2,0,L|400:244,1,56.2500021457673,0|0,0:0|0:0,0:0:0:0:
220,328,62565,1,2,0:0:0:0:
232,220,62701,1,0,0:0:0:0:
228,348,62837,2,0,L|160:336,1,56.2500021457673,0|0,0:0|0:0,0:0:0:0:
44,336,63110,6,0,P|40:312|44:276,1,56.2500021457673,8|0,0:0|0:0,0:0:0:0:
72,136,63383,2,0,P|76:160|72:196,1,56.2500021457673,0|0,0:0|0:0,0:0:0:0:
32,96,63656,6,0,L|168:104,1,112.500004291535,6|0,0:0|0:0,0:0:0:0:
264,88,64201,5,8,0:0:0:0:
236,176,64337,1,0,0:0:0:0:
196,32,64474,1,0,0:0:0:0:
296,108,64610,1,0,0:0:0:0:
208,192,64747,6,0,L|144:184,1,56.2500021457673,2|0,0:0|0:0,0:0:0:0:
324,124,65019,2,0,L|388:132,1,56.2500021457673,0|0,0:0|0:0,0:0:0:0:
324,220,65292,6,0,P|328:264|320:336,1,112.500004291535,8|0,0:0|0:0,0:0:0:0:
256,364,65701,1,0,0:0:0:0:
184,344,65837,6,0,L|64:332,1,112.500004291535,6|0,0:0|0:0,0:0:0:0:
56,352,66383,5,8,0:0:0:0:
44,280,66519,1,0,0:0:0:0:
24,208,66656,2,0,L|28:144,1,56.2500021457673,0|0,0:0|0:0,0:0:0:0:
104,36,66928,2,0,P|140:76|152:144,1,112.500004291535,2|0,0:0|0:0,0:0:0:0:
132,232,67337,1,0,0:0:0:0:
232,276,67474,2,0,L|304:272,1,56.2500021457673,8|0,0:0|0:0,0:0:0:0:
344,156,67747,2,0,L|272:160,1,56.2500021457673,0|0,0:0|0:0,0:0:0:0:
312,304,68019,6,0,P|324:264|396:232,1,112.500004291535,6|0,0:0|0:0,0:0:0:0:
456,244,68428,1,0,0:0:0:0:
488,180,68565,2,0,L|480:64,1,112.500004291535,8|0,0:0|0:0,0:0:0:0:
336,43,69110,2,0,L|344:159,1,112.500004291535,2|0,0:0|0:0,0:0:0:0:
380,296,69656,1,8,0:0:0:0:
240,336,69928,1,0,0:0:0:0:
96,300,70201,6,0,P|80:252|88:172,1,112.500004291535,6|0,0:0|0:0,0:0:0:0:
160,68,70747,5,8,0:0:0:0:
192,164,70883,1,0,0:0:0:0:
224,260,71019,2,0,L|216:324,1,56.2500021457673,0|0,0:0|0:0,0:0:0:0:
192,164,71292,2,0,L|256:160,1,56.2500021457673,2|0,0:0|0:0,0:0:0:0:
468,140,71837,5,8,0:0:0:0:
448,232,71974,1,0,0:0:0:0:
416,320,72110,2,0,L|424:376,1,56.2500021457673,0|0,0:0|0:0,0:0:0:0:
448,232,72383,6,0,B|400:248|352:224|352:224|276:236|276:236|220:228,1,225.000008583069,6|8,0:0|0:0,0:0:0:0:
116,324,73201,5,0,0:0:0:0:
120,252,73337,1,0,0:0:0:0:
92,184,73474,1,2,0:0:0:0:
32,140,73610,1,0,0:0:0:0:
208,8,74019,6,0,P|196:56|192:88,1,56.2500021457673,8|0,0:0|0:0,0:0:0:0:
236,164,74292,2,0,P|248:212|252:244,1,56.2500021457673,0|0,0:0|0:0,0:0:0:0:
224,352,74565,6,0,B|256:304|312:324|312:324|352:308|352:308|392:320|436:308,1,225.000008583069,6|8,0:0|0:0,0:0:0:0:
484,136,75383,5,0,0:0:0:0:
396,200,75519,1,0,0:0:0:0:
320,120,75656,1,2,0:0:0:0:
400,48,75792,1,0,0:0:0:0:
180,56,76201,6,0,L|188:128,1,56.2500021457673,8|0,0:0|0:0,0:0:0:0:
260,224,76474,2,0,L|252:296,1,56.2500021457673
148,204,76747,6,0,L|32:188,1,112.500004291535,6|0,0:0|0:0,0:0:0:0:
32,260,77156,1,0,0:0:0:0:
68,324,77292,2,0,L|184:316,1,112.500004291535,8|0,0:0|0:0,0:0:0:0:
244,356,77701,1,0,0:0:0:0:
316,360,77837,1,2,0:0:0:0:
344,120,78110,1,0,0:0:0:0:
452,220,78383,6,0,L|440:332,1,112.500004291535,4|0,0:0|0:0,0:0:0:0:
360,256,78792,1,0,0:0:0:0:
360,256,78928,6,0,L|372:144,1,112.500004291535,6|0,0:0|0:0,0:0:0:0:
416,88,79337,1,0,0:0:0:0:
352,48,79474,2,0,P|304:64|232:48,1,112.500004291535,8|0,0:0|0:0,0:0:0:0:
92,140,79883,2,0,P|140:124|212:140,1,112.500004291535,0|0,0:0|0:0,0:0:0:0:
272,204,80292,2,0,L|260:264,1,56.2500021457673,0|0,0:0|0:0,0:0:0:0:
232,356,80565,1,8,0:0:0:0:
152,212,80701,2,0,L|128:324,1,112.500004291535,0|0,0:0|0:0,0:0:0:0:
48,208,81110,6,0,P|16:172|24:92,1,112.500004291535,6|0,0:0|0:0,0:0:0:0:
56,52,81519,1,0,0:0:0:0:
124,24,81656,2,0,L|244:36,1,112.500004291535,8|0,0:0|0:0,0:0:0:0:
396,108,82065,2,0,L|276:120,1,112.500004291535,0|0,0:0|0:0,0:0:0:0:
128,192,82474,2,0,L|248:204,1,112.500004291535,0|8,0:0|0:0,0:0:0:0:
280,264,82883,2,0,P|306:238|310:213,1,56.2500021457673
468,144,83156,1,0,0:0:0:0:
468,144,83292,6,0,P|476:104|428:36,1,112.500004291535,6|0,0:0|0:0,0:0:0:0:
412,192,83701,1,0,0:0:0:0:
412,192,83837,2,0,L|424:308,1,112.500004291535,8|0,0:0|0:0,0:0:0:0:
316,180,84247,2,0,L|328:64,1,112.500004291535,0|0,0:0|0:0,0:0:0:0:
228,204,84656,2,0,L|240:272,1,56.2500021457673,0|0,0:0|0:0,0:0:0:0:
228,108,84928,1,8,0:0:0:0:
228,108,85065,2,0,P|176:116|104:96,1,112.500004291535,0|0,0:0|0:0,0:0:0:0:
68,48,85474,6,0,P|80:100|48:156,1,112.500004291535,6|0,0:0|0:0,0:0:0:0:
44,224,85883,1,0,0:0:0:0:
60,296,86019,2,0,L|136:288,1,56.2500021457673,8|0,0:0|0:0,0:0:0:0:
240,216,86292,2,0,L|164:208,1,56.2500021457673,0|0,0:0|0:0,0:0:0:0:
272,352,86565,6,0,P|284:324|364:304,1,112.500004291535,2|0,0:0|0:0,0:0:0:0:
444,344,86974,1,0,0:0:0:0:
500,268,87110,2,0,P|504:236|496:196,1,56.2500021457673,8|0,0:0|0:0,0:0:0:0:
424,64,87383,2,0,P|420:96|428:136,1,56.2500021457673,0|0,0:0|0:0,0:0:0:0:
488,24,87656,6,0,P|420:36|320:16,1,168.750006437302,6|0,0:0|0:0,0:0:0:0:
280,92,88201,2,0,P|248:80|208:76,1,56.2500021457673,8|0,0:0|0:0,0:0:0:0:
76,120,88474,1,0,0:0:0:0:
76,120,88610,2,0,P|88:160|100:184,1,56.2500021457673,0|2,0:0|0:0,0:0:0:0:
68,308,88883,1,0,0:0:0:0:
68,308,89019,2,0,P|100:296|128:296,1,56.2500021457673,0|0,0:0|0:0,0:0:0:0:
208,200,89292,2,0,P|244:220|320:208,1,112.500004291535,8|0,0:0|0:0,0:0:0:0:
400,148,89701,1,0,0:0:0:0:
480,256,89837,6,0,L|464:392,1,112.500004291535,6|0,0:0|0:0,0:0:0:0:
392,360,90247,1,0,0:0:0:0:
408,172,90383,2,0,L|484:160,1,56.2500021457673,8|0,0:0|0:0,0:0:0:0:
380,340,90656,1,0,0:0:0:0:
380,340,90792,2,0,L|308:332,1,56.2500021457673,0|2,0:0|0:0,0:0:0:0:
148,348,91065,1,0,0:0:0:0:
148,348,91201,2,0,L|152:272,1,56.2500021457673,0|0,0:0|0:0,0:0:0:0:
144,88,91474,2,0,P|176:112|212:116,1,56.2500021457673,8|0,0:0|0:0,0:0:0:0:
296,116,91747,5,0,0:0:0:0:
148,196,91883,1,0,0:0:0:0:
304,96,92019,6,0,B|316:164|292:216|292:216|304:280,1,168.750006437302,6|0,0:0|0:0,0:0:0:0:
344,320,92565,2,0,P|364:296|368:248,1,56.2500021457673,8|0,0:0|0:0,0:0:0:0:
200,276,92837,1,0,0:0:0:0:
200,276,92974,2,0,L|208:344,1,56.2500021457673,0|2,0:0|0:0,0:0:0:0:
168,184,93247,1,0,0:0:0:0:
168,184,93383,2,0,L|104:176,1,56.2500021457673,0|0,0:0|0:0,0:0:0:0:
48,236,93656,5,8,0:0:0:0:
172,156,93792,1,0,0:0:0:0:
160,264,93928,5,0,0:0:0:0:
116,100,94065,1,0,0:0:0:0:
252,112,94201,6,0,P|264:144|248:236,1,112.500004291535,6|0,0:0|0:0,0:0:0:0:
272,292,94610,1,0,0:0:0:0:
332,336,94747,2,0,L|448:320,1,112.500004291535,8|0,0:0|0:0,0:0:0:0:
443,320,95156,1,0,0:0:0:0:
484,208,95292,6,0,P|488:152|468:96,1,112.500004291535,2|0,0:0|0:0,0:0:0:0:
360,108,95837,2,0,P|356:164|376:220,2,112.500004291535,0|0|4,0:0|0:0|0:0,0:0:0:0:
148,344,105110,6,0,P|136:296|144:264,1,75,6|0,0:0|0:0,0:0:0:0:
180,192,105656,2,0,B|196:160|196:160|180:40,1,150,8|2,0:0|0:0,0:0:0:0:
260,4,106474,1,0,0:0:0:0:
260,4,106747,1,8,0:0:0:0:
404,112,107292,6,0,L|396:192,1,75,6|0,0:0|0:0,0:0:0:0:
316,152,107837,2,0,L|308:232,1,75,8|0,0:0|0:0,0:0:0:0:
356,304,108383,1,2,0:0:0:0:
292,364,108656,1,0,0:0:0:0:
204,356,108928,2,0,L|124:340,1,75,8|0,0:0|0:0,0:0:0:0:
44,368,109474,6,0,P|40:332|112:256,1,150,6|8,0:0|0:0,0:0:0:0:
40,92,110565,1,2,0:0:0:0:
108,148,110837,1,0,0:0:0:0:
192,180,111110,2,0,P|232:184|272:172,1,75,8|0,0:0|0:0,0:0:0:0:
348,140,111656,5,6,0:0:0:0:
432,172,111928,2,0,L|424:248,2,75,0|8|0,0:0|0:0|0:0,0:0:0:0:
440,84,112747,2,0,L|432:4,1,75,2|0,0:0|0:0,0:0:0:0:
488,300,113292,1,8,0:0:0:0:
320,340,113565,1,0,0:0:0:0:
320,340,113701,1,0,0:0:0:0:
320,340,113837,6,0,L|264:332,1,56.2500021457673,6|0,0:0|0:0,0:0:0:0:
100,292,114110,1,0,0:0:0:0:
268,192,114247,2,0,L|289:244,1,56.2500021457673,0|8,0:0|0:0,0:0:0:0:
176,356,114519,1,0,0:0:0:0:
160,212,114656,2,0,L|176:148,1,56.2500021457673,0|0,0:0|0:0,0:0:0:0:
216,272,114928,1,2,0:0:0:0:
76,156,115065,2,0,L|8:164,2,56.2500021457673,0|0|0,0:0|0:0|0:0,0:0:0:0:
136,36,115474,2,0,L|272:44,1,112.500004291535,8|0,0:0|0:0,0:0:0:0:
344,52,115883,1,0,0:0:0:0:
440,184,116019,6,0,P|444:216|444:248,1,56.2500021457673,6|0,0:0|0:0,0:0:0:0:
296,184,116292,2,0,P|292:152|292:120,1,56.2500021457673,0|0,0:0|0:0,0:0:0:0:
360,308,116565,2,0,L|224:296,1,112.500004291535,8|0,0:0|0:0,0:0:0:0:
247,298,116974,1,0,0:0:0:0:
144,348,117110,2,0,L|136:228,1,112.500004291535,2|0,0:0|0:0,0:0:0:0:
136,235,117519,1,0,0:0:0:0:
120,132,117656,2,0,L|56:128,2,56.2500021457673,8|0|0,0:0|0:0|0:0,0:0:0:0:
304,80,118201,6,0,L|376:84,1,56.2500021457673,6|0,0:0|0:0,0:0:0:0:
228,148,118474,1,0,0:0:0:0:
172,64,118610,2,0,L|184:4,1,56.2500021457673,0|8,0:0|0:0,0:0:0:0:
228,148,118883,1,0,0:0:0:0:
304,224,119019,2,0,L|288:340,1,112.500004291535,0|2,0:0|0:0,0:0:0:0:
360,168,119428,2,0,P|380:196|384:220,2,56.2500021457673,0|0|0,0:0|0:0|0:0,0:0:0:0:
204,240,119837,2,0,L|184:356,1,112.500004291535,8|0,0:0|0:0,0:0:0:0:
44,176,120383,6,0,P|80:196|112:200,2,56.2500021457673,6|0|0,0:0|0:0|0:0,0:0:0:0:
108,120,120792,2,0,L|180:112,2,56.2500021457673,0|8|0,0:0|0:0|0:0,0:0:0:0:
64,32,121201,2,0,L|140:24,1,56.2500021457673,0|0,0:0|0:0,0:0:0:0:
252,52,121474,2,0,P|272:100|264:176,1,112.500004291535,2|0,0:0|0:0,0:0:0:0:
224,244,121883,1,0,0:0:0:0:
296,320,122019,2,0,L|424:312,1,112.500004291535,4|2,0:0|0:0,0:0:0:0:
468,192,122565,6,0,L|344:200,1,112.500004291535,6|0,0:0|0:0,0:0:0:0:
264,156,122974,1,0,0:0:0:0:
188,256,123110,2,0,L|196:320,1,56.2500021457673,8|0,0:0|0:0,0:0:0:0:
264,132,123383,1,0,0:0:0:0:
172,168,123519,1,0,0:0:0:0:
344,140,123656,2,0,P|336:88|276:56,1,112.500004291535,2|0,0:0|0:0,0:0:0:0:
176,64,124065,1,0,0:0:0:0:
88,128,124201,2,0,P|80:172|112:244,1,112.500004291535,8|0,0:0|0:0,0:0:0:0:
104,344,124610,1,0,0:0:0:0:
204,312,124747,6,0,L|336:296,1,112.500004291535,6|0,0:0|0:0,0:0:0:0:
440,348,125156,1,0,0:0:0:0:
440,348,125292,2,0,P|448:304|444:272,1,56.2500021457673,8|0,0:0|0:0,0:0:0:0:
444,192,125565,2,0,P|432:164|424:116,1,56.2500021457673,0|0,0:0|0:0,0:0:0:0:
432,48,125837,2,0,P|416:92|344:84,1,112.500004291535,2|0,0:0|0:0,0:0:0:0:
268,44,126247,1,0,0:0:0:0:
184,104,126383,2,0,L|72:96,1,112.500004291535,8|0,0:0|0:0,0:0:0:0:
76,344,126928,6,0,L|196:328,1,112.500004291535,6|0,0:0|0:0,0:0:0:0:
288,356,127337,1,0,0:0:0:0:
372,296,127474,2,0,P|372:256|364:232,1,56.2500021457673,8|0,0:0|0:0,0:0:0:0:
232,188,127747,2,0,P|266:208|291:213,1,56.2500021457673,0|0,0:0|0:0,0:0:0:0:
464,200,128019,2,0,P|480:156|468:72,1,112.500004291535,2|0,0:0|0:0,0:0:0:0:
392,32,128428,1,0,0:0:0:0:
292,40,128565,2,0,L|164:64,1,112.500004291535,8|0,0:0|0:0,0:0:0:0:
340,144,129110,6,0,L|332:224,1,75,6|0,0:0|0:0,0:0:0:0:
252,164,129656,2,0,L|244:244,1,75,2|0,0:0|0:0,0:0:0:0:
164,188,130201,2,0,L|156:268,1,75,2|0,0:0|0:0,0:0:0:0:
76,208,130747,2,0,L|68:288,1,75,2|0,0:0|0:0,0:0:0:0:
136,80,131292,6,0,P|104:92|16:24,2,150,2|2|2,0:0|0:0|0:0,0:0:0:0:
148,72,132928,5,4,0:0:0:0:
396,44,133201,2,0,L|400:96,1,37.5,0|0,0:0|0:0,0:0:0:0:
448,148,133474,6,0,P|388:128|332:160,1,112.500004291535,6|0,0:0|0:0,0:0:0:0:
324,280,134019,5,8,0:0:0:0:
396,208,134156,1,0,0:0:0:0:
296,276,134292,2,0,L|312:344,1,56.2500021457673,0|0,0:0|0:0,0:0:0:0:
224,188,134565,1,2,0:0:0:0:
268,60,134701,1,0,0:0:0:0:
196,176,134837,2,0,L|208:248,1,56.2500021457673,0|0,0:0|0:0,0:0:0:0:
296,80,135110,2,0,L|172:76,1,112.500004291535,8|0,0:0|0:0,0:0:0:0:
76,132,135519,1,0,0:0:0:0:
160,276,135656,6,0,L|276:264,1,112.500004291535,6|0,0:0|0:0,0:0:0:0:
88,220,136201,5,8,0:0:0:0:
128,348,136337,1,0,0:0:0:0:
168,188,136474,1,0,0:0:0:0:
64,296,136610,1,0,0:0:0:0:
196,192,136747,2,0,L|184:56,1,112.500004291535,2|0,0:0|0:0,0:0:0:0:
186,79,137156,1,0,0:0:0:0:
272,20,137292,2,0,L|284:156,1,112.500004291535,8|0,0:0|0:0,0:0:0:0:
344,216,137701,1,0,0:0:0:0:
344,216,137837,6,0,L|468:208,1,112.500004291535,6|0,0:0|0:0,0:0:0:0:
272,296,138383,5,8,0:0:0:0:
404,264,138519,1,0,0:0:0:0:
304,196,138656,1,0,0:0:0:0:
348,336,138792,1,0,0:0:0:0:
392,140,138928,2,0,L|388:80,1,56.2500021457673,2|0,0:0|0:0,0:0:0:0:
244,304,139201,1,0,0:0:0:0:
420,288,139337,1,0,0:0:0:0:
224,224,139474,2,0,L|96:232,1,112.500004291535,8|0,0:0|0:0,0:0:0:0:
111,231,139883,1,0,0:0:0:0:
32,164,140019,6,0,P|52:136|52:56,1,112.500004291535,6|0,0:0|0:0,0:0:0:0:
36,280,140565,6,0,L|44:344,1,56.2500021457673,8|0,0:0|0:0,0:0:0:0:
148,144,140837,2,0,L|216:140,1,56.2500021457673,0|0,0:0|0:0,0:0:0:0:
216,320,141110,2,0,L|148:324,1,56.2500021457673,2|0,0:0|0:0,0:0:0:0:
312,348,141383,1,0,0:0:0:0:
252,228,141519,1,0,0:0:0:0:
344,312,141656,2,0,L|352:372,1,56.2500021457673,8|0,0:0|0:0,0:0:0:0:
272,240,141928,2,0,L|280:176,1,56.2500021457673,0|0,0:0|0:0,0:0:0:0:
404,84,142201,6,0,P|356:92|292:56,1,112.500004291535,6|0,0:0|0:0,0:0:0:0:
164,48,142747,6,0,L|172:112,1,56.2500021457673,8|0,0:0|0:0,0:0:0:0:
148,172,143019,1,0,0:0:0:0:
80,292,143156,1,0,0:0:0:0:
80,292,143292,6,0,L|16:276,1,56.2500021457673,2|0,0:0|0:0,0:0:0:0:
140,200,143565,2,0,L|204:216,1,56.2500021457673,0|0,0:0|0:0,0:0:0:0:
212,352,143837,2,0,P|256:312|312:308,1,112.500004291535,8|0,0:0|0:0,0:0:0:0:
480,112,144383,6,0,P|436:152|380:156,1,112.500004291535,6|0,0:0|0:0,0:0:0:0:
272,80,144928,5,8,0:0:0:0:
396,68,145065,1,0,0:0:0:0:
252,96,145201,2,0,L|244:28,1,56.2500021457673,0|0,0:0|0:0,0:0:0:0:
284,224,145474,6,0,P|276:272|304:332,1,112.500004291535,2|0,0:0|0:0,0:0:0:0:
380,356,145883,1,0,0:0:0:0:
460,344,146019,2,0,P|480:312|484:288,1,56.2500021457673,8|0,0:0|0:0,0:0:0:0:
360,268,146292,2,0,P|397:269|420:260,1,56.2500021457673,0|0,0:0|0:0,0:0:0:0:
356,184,146565,6,0,P|328:152|248:152,1,112.500004291535,6|0,0:0|0:0,0:0:0:0:
100,336,147110,6,0,P|64:328|40:312,1,56.2500021457673,8|0,0:0|0:0,0:0:0:0:
184,296,147383,1,0,0:0:0:0:
92,252,147519,1,0,0:0:0:0:
92,252,147656,6,0,P|84:216|84:184,1,56.2500021457673,2|0,0:0|0:0,0:0:0:0:
180,148,147928,2,0,P|188:184|188:216,1,56.2500021457673,0|0,0:0|0:0,0:0:0:0:
104,96,148201,2,0,P|144:104|216:64,1,112.500004291535,8|0,0:0|0:0,0:0:0:0:
472,168,148747,6,0,P|432:160|360:200,1,112.500004291535,6|0,0:0|0:0,0:0:0:0:
312,288,149292,5,8,0:0:0:0:
424,364,149428,1,0,0:0:0:0:
432,248,149565,1,0,0:0:0:0:
280,308,149701,1,0,0:0:0:0:
500,316,149837,5,2,0:0:0:0:
72,352,150928,6,0,P|60:320|64:224,1,112.500004291535,6|0,0:0|0:0,0:0:0:0:
88,176,151337,1,0,0:0:0:0:
144,128,151474,2,0,P|152:88|144:12,1,112.500004291535,8|0,0:0|0:0,0:0:0:0:
184,204,151883,2,0,P|176:240|176:280,1,56.2500021457673,0|2,0:0|0:0,0:0:0:0:
260,164,152156,2,0,P|264:128|264:96,2,56.2500021457673,0|0|0,0:0|0:0|0:0,0:0:0:0:
260,252,152565,2,0,P|268:288|284:324,1,56.2500021457673,8|0,0:0|0:0,0:0:0:0:
384,356,152837,2,0,P|432:344|452:348,1,56.2500021457673,0|0,0:0|0:0,0:0:0:0:
488,216,153110,6,0,P|452:240|372:240,1,112.500004291535,6|0,0:0|0:0,0:0:0:0:
320,208,153519,1,0,0:0:0:0:
260,164,153656,2,0,P|256:128|256:104,1,56.2500021457673,8|0,0:0|0:0,0:0:0:0:
360,16,153928,2,0,P|364:52|364:76,1,56.2500021457673,0|0,0:0|0:0,0:0:0:0:
164,184,154201,2,0,L|48:172,1,112.500004291535,2|0,0:0|0:0,0:0:0:0:
52,172,154610,1,0,0:0:0:0:
164,76,154747,2,0,L|280:88,1,112.500004291535,8|0,0:0|0:0,0:0:0:0:
156,272,155292,6,0,L|276:288,1,112.500004291535,6|0,0:0|0:0,0:0:0:0:
324,332,155701,1,0,0:0:0:0:
396,320,155837,2,0,P|408:288|412:196,1,112.500004291535,8|0,0:0|0:0,0:0:0:0:
368,88,156247,2,0,P|400:104|424:104,1,56.2500021457673,0|2,0:0|0:0,0:0:0:0:
304,156,156519,2,0,P|260:144|240:144,2,56.2500021457673,0|0|0,0:0|0:0|0:0,0:0:0:0:
260,48,156928,2,0,P|204:56|144:40,1,112.500004291535,8|0,0:0|0:0,0:0:0:0:
48,152,157337,1,0,0:0:0:0:
48,152,157474,6,0,P|36:196|44:280,1,112.500004291535,6|0,0:0|0:0,0:0:0:0:
88,320,157883,1,0,0:0:0:0:
152,352,158019,2,0,L|212:340,1,56.2500021457673,8|0,0:0|0:0,0:0:0:0:
184,248,158292,2,0,L|256:256,1,56.2500021457673,0|0,0:0|0:0,0:0:0:0:
260,160,158565,2,0,P|328:188|384:192,1,112.500004291535,2|0,0:0|0:0,0:0:0:0:
436,172,158974,1,0,0:0:0:0:
276,56,159110,2,0,L|208:64,2,56.2500021457673,4|0|0,0:0|0:0|0:0,0:0:0:0:
56,100,159656,6,0,L|68:220,1,112.500004291535,6|8,0:0|0:0,0:0:0:0:
108,352,160201,2,0,P|140:320|224:320,1,112.500004291535,8|8,0:0|0:0,0:0:0:0:
264,272,160610,2,0,P|312:296|376:284,1,112.500004291535,0|0,0:0|0:0,0:0:0:0:
432,248,161019,2,0,P|432:208|420:176,1,56.2500021457673,8|0,0:0|0:0,0:0:0:0:
448,40,161292,1,8,0:0:0:0:
448,40,161428,1,0,0:0:0:0:
448,40,161565,1,8,0:0:0:0:
308,84,161837,6,0,L|176:76,1,112.500004291535,6|0,0:0|0:0,0:0:0:0:
132,116,162247,1,0,0:0:0:0:
88,172,162383,2,0,L|96:248,1,56.2500021457673,8|0,0:0|0:0,0:0:0:0:
48,84,162656,2,0,L|8:36,1,56.2500021457673,0|0,0:0|0:0,0:0:0:0:
200,164,162928,2,0,L|320:172,1,112.500004291535,2|0,0:0|0:0,0:0:0:0:
356,232,163337,1,0,0:0:0:0:
392,296,163474,2,0,P|420:272|420:196,1,112.500004291535,8|0,0:0|0:0,0:0:0:0:
380,60,164019,6,0,P|328:72|272:56,1,112.500004291535,6|8,0:0|0:0,0:0:0:0:
128,36,164565,2,0,P|92:76|88:144,1,112.500004291535,8|8,0:0|0:0,0:0:0:0:
48,196,164974,2,0,P|68:228|72:312,1,112.500004291535,0|0,0:0|0:0,0:0:0:0:
104,368,165383,2,0,L|164:376,1,56.2500021457673,8|0,0:0|0:0,0:0:0:0:
296,320,165656,1,8,0:0:0:0:
296,320,165792,1,0,0:0:0:0:
296,320,165928,1,8,0:0:0:0:
440,348,166201,6,0,P|444:312|436:224,1,112.500004291535,6|0,0:0|0:0,0:0:0:0:
404,172,166610,1,0,0:0:0:0:
404,172,166747,2,0,P|388:136|380:104,1,56.2500021457673,8|0,0:0|0:0,0:0:0:0:
500,52,167019,2,0,P|491:78|479:104,1,56.2500021457673,0|0,0:0|0:0,0:0:0:0:
292,180,167292,2,0,L|164:176,1,112.500004291535,2|0,0:0|0:0,0:0:0:0:
120,220,167701,1,0,0:0:0:0:
60,176,167837,2,0,P|52:116|60:60,1,112.500004291535,4|0,0:0|0:0,0:0:0:0:
48,304,168383,6,0,P|92:320|168:316,1,112.500004291535,4|0,0:0|0:0,0:0:0:0:
220,356,168792,1,0,0:0:0:0:
276,312,168928,2,0,P|320:296|400:304,1,112.500004291535,8|0,0:0|0:0,0:0:0:0:
256,232,169337,2,0,P|220:240|188:240,1,56.2500021457673,0|2,0:0|0:0,0:0:0:0:
344,196,169610,2,0,P|376:212|400:212,2,56.2500021457673,0|0|0,0:0|0:0|0:0,0:0:0:0:
204,160,170019,2,0,L|88:148,1,112.500004291535,8|0,0:0|0:0,0:0:0:0:
52,212,170428,1,0,0:0:0:0:
152,76,170565,6,0,L|268:88,1,112.500004291535,6|0,0:0|0:0,0:0:0:0:
384,68,170974,1,0,0:0:0:0:
436,172,171110,2,0,P|440:208|432:244,1,56.2500021457673,8|0,0:0|0:0,0:0:0:0:
288,320,171383,2,0,P|280:280|284:256,1,56.2500021457673,0|0,0:0|0:0,0:0:0:0:
332,164,171656,1,2,0:0:0:0:
364,280,171792,1,0,0:0:0:0:
304,160,171928,1,0,0:0:0:0:
392,296,172065,1,0,0:0:0:0:
272,168,172201,2,0,P|224:180|144:168,1,112.500004291535,8|0,0:0|0:0,0:0:0:0:
24,340,172747,6,0,P|36:312|24:224,1,112.500004291535,6|0,0:0|0:0,0:0:0:0:
20,160,173156,1,0,0:0:0:0:
20,88,173292,2,0,L|136:72,1,112.500004291535,8|0,0:0|0:0,0:0:0:0:
184,24,173701,2,0,P|200:52|200:92,1,56.2500021457673,0|2,0:0|0:0,0:0:0:0:
144,200,173974,2,0,P|160:172|194:152,2,56.2500021457673,0|0|0,0:0|0:0|0:0,0:0:0:0:
272,144,174383,2,0,P|304:152|384:124,1,112.500004291535,8|0,0:0|0:0,0:0:0:0:
224,232,174792,1,0,0:0:0:0:
224,232,174928,6,0,L|236:344,1,112.500004291535,6|0,0:0|0:0,0:0:0:0:
235,343,175337,1,0,0:0:0:0:
164,360,175474,2,0,L|108:352,1,56.2500021457673,8|0,0:0|0:0,0:0:0:0:
280,288,175747,2,0,L|336:296,1,56.2500021457673,0|0,0:0|0:0,0:0:0:0:
112,264,176019,2,0,P|96:224|100:136,1,112.500004291535,2|0,0:0|0:0,0:0:0:0:
128,92,176428,1,0,0:0:0:0:
184,44,176565,2,0,L|248:52,2,56.2500021457673,4|0|0,0:0|0:0|0:0,0:0:0:0:
392,28,176974,1,0,0:0:0:0:
392,28,177110,6,0,B|400:64|400:64|400:108|400:108|416:152,1,112.500004291535,6|8,0:0|0:0,0:0:0:0:
468,272,177656,2,0,P|416:256|360:280,1,112.500004291535,8|8,0:0|0:0,0:0:0:0:
312,332,178065,2,0,P|260:352|207:336,1,112.500004291535,0|0,0:0|0:0,0:0:0:0:
152,288,178474,2,0,P|144:248|148:208,1,56.2500021457673,8|0,0:0|0:0,0:0:0:0:
232,112,178747,2,0,P|204:136|160:136,1,56.2500021457673,8|0,0:0|0:0,0:0:0:0:
24,200,179019,2,0,P|52:180|88:180,1,56.2500021457673,8|0,0:0|0:0,0:0:0:0:
272,208,179292,6,0,P|300:180|328:100,1,112.500004291535,6|0,0:0|0:0,0:0:0:0:
312,40,179701,1,0,0:0:0:0:
416,88,179837,2,0,P|420:128|416:160,1,56.2500021457673,8|0,0:0|0:0,0:0:0:0:
364,256,180110,2,0,P|408:240|432:244,1,56.2500021457673,0|0,0:0|0:0,0:0:0:0:
424,328,180383,2,0,P|392:340|304:332,1,112.500004291535,2|0,0:0|0:0,0:0:0:0:
248,304,180792,1,0,0:0:0:0:
176,284,180928,2,0,L|160:156,1,112.500004291535,8|0,0:0|0:0,0:0:0:0:
40,32,181474,6,0,L|24:160,1,112.500004291535,6|8,0:0|0:0,0:0:0:0:
48,212,181883,1,0,0:0:0:0:
16,276,182019,2,0,P|48:284|72:280,1,56.2500021457673,8|0,0:0|0:0,0:0:0:0:
188,192,182292,1,8,0:0:0:0:
188,192,182428,2,0,P|192:144|183:117,1,56.2500021457673,0|2,0:0|0:0,0:0:0:0:
268,64,182701,2,0,P|256:32|256:4,2,56.2500021457673,0|8|0,0:0|0:0|0:0,0:0:0:0:
316,172,183110,2,0,L|440:156,1,112.500004291535,8|8,0:0|0:0,0:0:0:0:
316,288,183656,6,0,L|188:280,1,112.500004291535,6|0,0:0|0:0,0:0:0:0:
140,320,184065,1,0,0:0:0:0:
76,288,184201,2,0,P|72:256|76:224,1,56.2500021457673,8|0,0:0|0:0,0:0:0:0:
40,96,184474,2,0,P|72:120|108:128,1,56.2500021457673,0|0,0:0|0:0,0:0:0:0:
188,192,184747,2,0,P|220:164|292:152,1,112.500004291535,2|0,0:0|0:0,0:0:0:0:
360,168,185156,1,0,0:0:0:0:
308,48,185292,5,12,0:0:0:0:
384,144,185428,1,0,0:0:0:0:
292,16,185565,2,0,L|284:72,1,56.2500021457673,0|0,0:0|0:0,0:0:0:0:
440,212,185837,1,6,0:0:0:0:
168,316,194565,5,6,0:0:0:0:
272,244,194837,2,0,P|276:188|256:136,1,97.4999955368044,0|8,0:0|0:0,0:0:0:0:
100,184,195247,2,0,P|140:200|204:196,1,97.4999955368044,0|0,0:0|0:0,0:0:0:0:
312,76,195656,2,0,P|264:64|252:64,1,48.7499977684022,2|0,0:0|0:0,0:0:0:0:
132,104,195928,2,0,P|160:124|180:128,1,48.7499977684022,0|0,0:0|0:0,0:0:0:0:
352,208,196201,2,0,L|408:200,1,48.7499977684022,8|0,0:0|0:0,0:0:0:0:
288,328,196474,2,0,L|224:324,1,48.7499977684022,0|0,0:0|0:0,0:0:0:0:
392,368,196747,6,0,P|392:324|428:268,1,97.4999955368044,6|0,0:0|0:0,0:0:0:0:
480,208,197156,1,0,0:0:0:0:
444,120,197292,1,8,0:0:0:0:
352,96,197428,2,0,L|240:108,1,97.4999955368044,0|0,0:0|0:0,0:0:0:0:
296,236,197837,2,0,P|300:208|292:180,1,48.7499977684022,2|0,0:0|0:0,0:0:0:0:
184,84,198110,2,0,P|180:112|188:140,1,48.7499977684022,0|0,0:0|0:0,0:0:0:0:
256,24,198383,2,0,L|320:16,1,48.7499977684022,8|0,0:0|0:0,0:0:0:0:
220,216,198656,2,0,L|156:224,1,48.7499977684022
88,176,198928,5,6,0:0:0:0:
40,292,199065,1,0,0:0:0:0:
40,292,199201,2,0,B|60:320|60:320|96:332|96:332|128:360,1,97.4999955368044,0|8,0:0|0:0,0:0:0:0:
204,360,199610,2,0,P|204:332|188:300,1,48.7499977684022,0|0,0:0|0:0,0:0:0:0:
196,120,199883,1,0,0:0:0:0:
248,240,200019,2,0,B|328:244|328:244|360:232,1,97.4999955368044,2|0,0:0|0:0,0:0:0:0:
52,56,200428,1,0,0:0:0:0:
52,56,200565,2,0,P|44:88|48:120,1,48.7499977684022,8|0,0:0|0:0,0:0:0:0:
196,120,200837,2,0,P|204:88|200:56,1,48.7499977684022,0|0,0:0|0:0,0:0:0:0:
104,184,201110,6,0,P|112:224|120:240,1,48.7499977684022,6|0,0:0|0:0,0:0:0:0:
128,336,201383,2,0,P|164:320|232:336,1,97.4999955368044,0|8,0:0|0:0,0:0:0:0:
276,268,201792,2,0,P|312:280|380:276,1,97.4999955368044,0|0,0:0|0:0,0:0:0:0:
444,316,202201,2,0,P|448:276|424:216,1,97.4999955368044,2|0,0:0|0:0,0:0:0:0:
312,100,202747,2,0,P|308:136|332:200,1,97.4999955368044,8|0,0:0|0:0,0:0:0:0:
256,192,203292,12,0,205201,0:0:0:0:
432,68,205474,6,0,L|316:64,1,104.999996795654,6|0,0:0|0:0,0:0:0:0:
234,115,205883,1,0,0:0:0:0:
296,200,206019,2,0,L|412:196,1,104.999996795654,8|0,0:0|0:0,0:0:0:0:
457,282,206428,1,0,0:0:0:0:
384,355,206565,2,0,L|317:349,1,52.4999983978272,2|0,0:0|0:0,0:0:0:0:
192,292,206837,2,0,L|259:286,1,52.4999983978272,0|0,0:0|0:0,0:0:0:0:
125,360,207110,2,0,P|105:334|101:262,1,104.999996795654,8|0,0:0|0:0,0:0:0:0:
128,196,207519,1,0,0:0:0:0:
132,124,207656,6,0,L|8:116,1,104.999996795654,6|0,0:0|0:0,0:0:0:0:
240,44,208201,5,8,0:0:0:0:
212,188,208337,1,0,0:0:0:0:
160,48,208474,1,0,0:0:0:0:
240,172,208610,1,0,0:0:0:0:
276,68,208747,6,0,L|268:8,1,52.4999983978272,2|0,0:0|0:0,0:0:0:0:
264,248,209019,2,0,L|340:252,1,52.4999983978272,0|0,0:0|0:0,0:0:0:0:
440,148,209292,2,0,L|380:160,1,52.4999983978272,8|0,0:0|0:0,0:0:0:0:
392,344,209565,2,0,P|400:316|392:280,1,52.4999983978272,0|0,0:0|0:0,0:0:0:0:
120,340,209837,6,0,P|128:268|172:212,1,104.999996795654,6|0,0:0|0:0,0:0:0:0:
292,240,210383,2,0,L|364:248,1,52.4999983978272,8|0,0:0|0:0,0:0:0:0:
160,168,210656,2,0,L|96:148,1,52.4999983978272,0|0,0:0|0:0,0:0:0:0:
236,100,210928,2,0,P|248:140|248:164,1,52.4999983978272,2|0,0:0|0:0,0:0:0:0:
204,320,211201,2,0,P|205:288|216:259,1,52.4999983978272,0|0,0:0|0:0,0:0:0:0:
364,164,211474,2,0,L|440:176,1,52.4999983978272,8|0,0:0|0:0,0:0:0:0:
336,336,211747,2,0,L|260:324,1,52.4999983978272,0|0,0:0|0:0,0:0:0:0:
204,176,212019,6,0,B|160:188|160:188|84:172,1,104.999996795654,6|0,0:0|0:0,0:0:0:0:
76,260,212428,1,0,0:0:0:0:
288,140,212565,2,0,L|280:52,1,52.4999983978272,8|0,0:0|0:0,0:0:0:0:
88,280,212837,2,0,L|96:368,1,52.4999983978272,0|0,0:0|0:0,0:0:0:0:
152,104,213110,2,0,L|32:84,1,104.999996795654,2|0,0:0|0:0,0:0:0:0:
199,196,213519,1,0,0:0:0:0:
269,275,213656,2,0,L|332:265,1,52.4999983978272
196,364,213928,2,0,L|132:356,1,52.4999983978272,0|0,0:0|0:0,0:0:0:0:
300,360,214201,6,0,L|424:356,1,104.999996795654,6|0,0:0|0:0,0:0:0:0:
488,232,214747,2,0,P|504:176|492:144,1,52.4999983978272,8|0,0:0|0:0,0:0:0:0:
324,240,215019,2,0,P|352:276|372:288,1,52.4999983978272,0|0,0:0|0:0,0:0:0:0:
356,88,215292,2,0,L|228:108,1,104.999996795654,2|0,0:0|0:0,0:0:0:0:
196,152,215701,1,0,0:0:0:0:
128,120,215837,2,0,L|140:16,1,104.999996795654,8|0,0:0|0:0,0:0:0:0:
272,208,216383,6,0,L|296:360,1,104.999996795654,6|0,0:0|0:0,0:0:0:0:
208,336,216792,1,0,0:0:0:0:
184,268,216928,2,0,L|168:184,2,52.4999983978272,8|0|0,0:0|0:0|0:0,0:0:0:0:
220,124,217337,1,0,0:0:0:0:
220,124,217474,2,0,L|352:132,1,104.999996795654,2|0,0:0|0:0,0:0:0:0:
396,224,217883,1,0,0:0:0:0:
396,224,218019,2,0,P|404:252|356:332,1,104.999996795654,8|0,0:0|0:0,0:0:0:0:
272,264,218428,1,0,0:0:0:0:
184,244,218565,6,0,P|144:240|68:264,1,104.999996795654,6|0,0:0|0:0,0:0:0:0:
16,156,218974,1,0,0:0:0:0:
16,156,219110,2,0,P|48:172|92:168,1,52.4999983978272,8|0,0:0|0:0,0:0:0:0:
100,360,219383,2,0,P|144:325|172:320,1,52.4999983978272,0|0,0:0|0:0,0:0:0:0:
269,334,219656,2,0,P|312:352|400:332,1,104.999996795654,2|0,0:0|0:0,0:0:0:0:
416,292,220065,1,0,0:0:0:0:
436,220,220201,2,0,L|420:144,1,52.4999983978272,8|0,0:0|0:0,0:0:0:0:
312,216,220474,2,0,L|328:292,1,52.4999983978272,0|0,0:0|0:0,0:0:0:0:
332,108,220747,6,0,L|192:96,1,104.999996795654,6|0,0:0|0:0,0:0:0:0:
80,108,221292,2,0,L|92:200,1,52.4999983978272,8|0,0:0|0:0,0:0:0:0:
96,272,221565,1,0,0:0:0:0:
48,88,221701,1,0,0:0:0:0:
192,164,221837,5,2,0:0:0:0:
72,328,222383,2,0,L|212:316,1,104.999996795654,8|0,0:0|0:0,0:0:0:0:
332,344,222928,6,0,L|472:336,1,112.500004291535,6|0,0:0|0:0,0:0:0:0:
244,232,223474,5,8,0:0:0:0:
388,220,223610,1,0,0:0:0:0:
388,220,223747,2,0,P|392:172|388:144,1,56.2500021457673,0|0,0:0|0:0,0:0:0:0:
152,104,224019,2,0,L|80:108,1,56.2500021457673,2|0,0:0|0:0,0:0:0:0:
148,192,224292,1,0,0:0:0:0:
244,72,224428,1,0,0:0:0:0:
244,72,224565,2,0,P|208:28|184:16,1,56.2500021457673,8|0,0:0|0:0,0:0:0:0:
432,124,224837,2,0,P|460:104|476:80,1,56.2500021457673,0|0,0:0|0:0,0:0:0:0:
336,20,225110,6,0,L|352:224,1,168.750006437302,6|0,0:0|0:0,0:0:0:0:
380,296,225656,6,0,P|412:272|472:272,1,56.2500021457673,8|0,0:0|0:0,0:0:0:0:
256,276,225928,2,0,P|264:236|264:200,1,56.2500021457673,0|0,0:0|0:0,0:0:0:0:
176,236,226201,1,2,0:0:0:0:
304,356,226337,1,0,0:0:0:0:
200,344,226474,1,0,0:0:0:0:
312,344,226610,1,0,0:0:0:0:
116,316,226747,2,0,L|116:376,1,56.2500021457673,8|0,0:0|0:0,0:0:0:0:
84,232,227019,2,0,P|68:192|36:164,1,56.2500021457673,0|0,0:0|0:0,0:0:0:0:
132,100,227292,6,0,B|168:120|168:120|256:124|256:124|312:96,1,168.750006437302,6|0,0:0|0:0,0:0:0:0:
372,32,227837,6,0,L|388:92,1,56.2500021457673,8|0,0:0|0:0,0:0:0:0:
344,192,228110,2,0,L|360:264,1,56.2500021457673,0|0,0:0|0:0,0:0:0:0:
384,332,228383,1,2,0:0:0:0:
320,172,228519,1,0,0:0:0:0:
452,280,228656,1,0,0:0:0:0:
276,260,228792,1,0,0:0:0:0:
448,200,228928,2,0,P|460:244|452:284,1,56.2500021457673,8|0,0:0|0:0,0:0:0:0:
192,300,229201,2,0,P|180:256|188:216,1,56.2500021457673,0|0,0:0|0:0,0:0:0:0:
128,192,229474,6,0,P|192:200|244:172,1,112.500004291535,6|0,0:0|0:0,0:0:0:0:
268,108,229883,1,0,0:0:0:0:
244,32,230019,6,0,L|160:28,1,56.2500021457673,8|0,0:0|0:0,0:0:0:0:
384,80,230292,2,0,L|388:8,1,56.2500021457673,0|0,0:0|0:0,0:0:0:0:
328,196,230565,1,2,0:0:0:0:
468,124,230701,1,0,0:0:0:0:
312,108,230837,1,0,0:0:0:0:
404,236,230974,1,0,0:0:0:0:
248,228,231110,2,0,P|240:184|240:148,1,56.2500021457673,8|0,0:0|0:0,0:0:0:0:
320,304,231383,2,0,L|316:364,1,56.2500021457673,0|0,0:0|0:0,0:0:0:0:
384,252,231656,6,0,B|412:180|412:180|380:112|380:112|324:92,1,168.750006437302,6|0,0:0|0:0,0:0:0:0:
296,40,232201,5,8,0:0:0:0:
216,56,232337,1,0,0:0:0:0:
92,160,232474,1,0,0:0:0:0:
172,176,232610,1,0,0:0:0:0:
200,76,232747,2,0,L|192:20,1,56.2500021457673,2|0,0:0|0:0,0:0:0:0:
76,176,233019,2,0,L|84:232,1,56.2500021457673,0|0,0:0|0:0,0:0:0:0:
112,80,233292,2,0,L|-8:68,1,112.500004291535,8|0,0:0|0:0,0:0:0:0:
52,311,233701,1,0,0:0:0:0:
52,311,233837,6,0,B|173:302|173:302|222:309,1,168.750006437302,6|0,0:0|0:0,0:0:0:0:
304,356,234383,6,0,P|312:296|308:272,1,56.2500021457673,8|0,0:0|0:0,0:0:0:0:
224,176,234656,2,0,P|264:208|296:212,1,56.2500021457673,0|0,0:0|0:0,0:0:0:0:
408,296,234928,2,0,P|416:240|476:196,1,112.500004291535,2|0,0:0|0:0,0:0:0:0:
348,140,235337,1,0,0:0:0:0:
348,140,235474,2,0,L|260:120,1,56.2500021457673,8|0,0:0|0:0,0:0:0:0:
96,184,235747,2,0,L|184:204,1,56.2500021457673,0|0,0:0|0:0,0:0:0:0:
224,300,236019,6,0,B|76:276|76:276|8:288,1,168.750006437302,6|0,0:0|0:0,0:0:0:0:
20,208,236565,5,8,0:0:0:0:
72,356,236701,1,0,0:0:0:0:
140,184,236837,1,0,0:0:0:0:
4,184,236974,1,0,0:0:0:0:
176,204,237110,2,0,L|168:140,1,56.2500021457673,2|0,0:0|0:0,0:0:0:0:
36,56,237383,2,0,L|44:120,1,56.2500021457673,0|0,0:0|0:0,0:0:0:0:
148,36,237656,2,0,L|280:28,1,112.500004291535,8|0,0:0|0:0,0:0:0:0:
472,12,238065,1,0,0:0:0:0:
392,52,238201,6,0,B|384:188|384:188|408:264,1,168.750006437302,6|0,0:0|0:0,0:0:0:0:
332,284,238747,6,0,L|308:224,1,56.2500021457673,8|0,0:0|0:0,0:0:0:0:
468,188,239019,2,0,L|492:248,1,56.2500021457673,0|0,0:0|0:0,0:0:0:0:
300,152,239292,2,0,L|168:148,1,112.500004291535,2|0,0:0|0:0,0:0:0:0:
132,204,239701,1,0,0:0:0:0:
56,188,239837,2,0,P|52:132|56:64,1,112.500004291535,8|0,0:0|0:0,0:0:0:0:
112,20,240247,1,0,0:0:0:0:
112,20,240383,1,6,0:0:0:0:
256,192,240519,12,0,242565,0:0:0:0:
