osu file format v14

[General]
AudioFilename: Panda Eyes & Teminite - High Score.mp3
AudioLeadIn: 0
PreviewTime: -1
Countdown: 1
SampleSet: Normal
StackLeniency: 0.7
Mode: 0
LetterboxInBreaks: 1
WidescreenStoryboard: 0

[Editor]
Bookmarks: 50084
DistanceSpacing: 0.8
BeatDivisor: 4
GridSize: 32
TimelineZoom: 2.6

[Metadata]
Title:High Score
TitleUnicode:High Score
Artist:Panda Eyes & Teminite
ArtistUnicode:Panda Eyes & Teminite
Creator:Grundle
Version:High
Source:
Tags:
BeatmapID:689469
BeatmapSetID:308281

[Difficulty]
HPDrainRate:5
CircleSize:4
OverallDifficulty:6.9
ApproachRate:9
SliderMultiplier:2.4
SliderTickRate:1

[Events]
//Background and Video events
//Break Periods
2,96371,113297
2,186090,186926
2,188272,189108
2,190453,191290
2,194817,195653
//Storyboard Layer 0 (Background)
//Storyboard Layer 1 (Fail)
//Storyboard Layer 2 (Pass)
//Storyboard Layer 3 (Foreground)
//Storyboard Sound Samples

[TimingPoints]
0,545.404963185165,4,1,0,100,1,0
9180,545.404963185165,4,1,0,100,1,0
28702,-133.333333333333,4,1,0,100,0,0
43540,545.404963185165,4,1,0,100,1,0
43540,-80,4,1,0,100,0,0
46267,-100,4,1,0,100,0,0
46812,-80,4,1,0,100,0,0
48448,-100,4,1,0,100,0,0
48994,-80,4,1,0,100,0,0
50630,-100,4,1,0,100,0,0
51175,-80,4,1,0,100,0,0
52811,-100,4,1,0,100,0,0
53357,-71.4285714285714,4,1,0,100,0,0
54993,-100,4,1,0,100,0,0
55538,-57.1428571428571,4,1,0,100,0,0
57175,-100,4,1,0,100,0,0
57720,-50,4,1,0,100,0,0
59356,-100,4,1,0,100,0,0
59902,-80,4,1,0,100,0,0
61538,-100,4,1,0,100,0,0
62083,-66.6666666666667,4,1,0,100,0,0
63719,-100,4,1,0,100,0,0
64265,-57.1428571428571,4,1,0,100,0,0
65901,-100,4,1,0,100,0,0
66447,-50,4,1,0,100,0,0
68083,-100,4,1,0,100,0,0
68628,-80,4,1,0,100,0,0
69174,-71.4285714285714,4,1,0,100,0,0
69719,-57.1428571428571,4,1,0,100,0,0
70264,-66.6666666666667,4,1,0,100,0,0
71628,-62.5,4,1,0,100,0,0
72446,-60.6060606060606,4,1,0,100,0,0
72991,-57.1428571428571,4,1,0,100,0,0
74628,-54.054054054054,4,1,0,100,0,0
75037,-52.6315789473684,4,1,0,100,0,0
75173,-50,4,1,0,100,0,0
76809,-57.1428571428571,4,1,0,100,0,0
77355,-51.2820512820513,4,1,0,100,0,0
78991,-71.4285714285714,4,1,0,100,0,0
81718,-57.1428571428571,4,1,0,100,0,0
83354,-52.6315789473684,4,1,0,100,0,0
85536,-71.4285714285714,4,1,0,100,0,0
86081,-57.1428571428571,4,1,0,100,0,0
86626,-50,4,1,0,100,0,0
87717,-71.4285714285714,4,1,0,100,0,0
89899,-62.5,4,1,0,100,0,0
90717,-62.5,4,1,0,100,0,0
92081,-58.8235294117647,4,1,0,100,0,0
92626,-57.1428571428571,4,1,0,100,0,0
94262,-55.5555555555556,4,1,0,100,0,0
94808,-55.5555555555556,4,1,0,100,0,0
94808,-52.6315789473684,4,1,0,100,0,0
113897,-71.4285714285714,4,1,0,100,0,0
115533,-57.1428571428571,4,1,0,100,0,0
126441,-50,4,1,0,100,0,0
127396,-71.4285714285714,4,1,0,100,0,0
128623,-50,4,1,0,100,0,0
133531,-57.1428571428571,4,1,0,100,0,0
134077,-50,4,1,0,100,0,0
185890,-50,4,1,0,100,0,0
214797,-50,4,1,0,100,0,0
239885,545.404963185165,4,1,0,100,1,0

[HitObjects]
256,192,4908,12,0,9180,0:0:0:0:
420,296,11361,5,0,0:0:0:0:
36,52,13543,5,0,0:0:0:0:
428,272,15724,5,0,0:0:0:0:
92,280,17361,5,0,0:0:0:0:
188,216,17906,1,0,0:0:0:0:
172,112,20088,5,0,0:0:0:0:
356,232,22269,5,0,0:0:0:0:
160,124,24451,5,2,0:0:0:0:
388,136,26632,5,0,0:0:0:0:
256,192,26723,12,0,28814,0:0:0:0:
360,236,29359,6,0,L|336:288,1,43.1250016450883
288,192,29632,2,0,L|304:144,1,43.1250016450883
336,80,29905,1,0,0:0:0:0:
269,28,30178,1,0,0:0:0:0:
192,96,30450,2,0,B|152:112|112:176,1,90.0000034332277
216,256,30996,5,0,0:0:0:0:
315,214,31541,2,0,L|320:159,1,45.0000017166138
416,128,31814,2,0,L|415:202,1,45.0000017166138
384,288,32087,2,0,P|424:316|464:336,1,90.0000034332277
470,228,32632,1,0,0:0:0:0:
466,131,32905,1,0,0:0:0:0:
401,62,33177,1,0,0:0:0:0:
200,88,33723,5,0,0:0:0:0:
186,112,33859,1,0,0:0:0:0:
196,137,33995,1,0,0:0:0:0:
183,162,34132,1,0,0:0:0:0:
195,187,34268,2,0,P|211:217|208:304,1,90.0000034332277
308,310,34814,2,0,L|352:224,1,90.0000034332277
416,192,35359,2,0,P|400:55|130:163,1,540.000020599366
252,278,37541,1,0,0:0:0:0:
322,284,38222,5,0,0:0:0:0:
338,257,38358,1,0,0:0:0:0:
334,229,38495,1,0,0:0:0:0:
324,198,38631,2,0,P|289:109|201:66,1,180.000006866455
151,183,39722,1,0,0:0:0:0:
192,286,40404,5,0,0:0:0:0:
208,263,40540,1,0,0:0:0:0:
231,247,40677,1,0,0:0:0:0:
257,237,40813,2,0,P|332:274|432:240,2,180.000006866455
249,187,42586,5,0,0:0:0:0:
297,77,42722,1,0,0:0:0:0:
355,171,42858,1,0,0:0:0:0:
293,272,42995,2,0,P|207:316|150:289,1,135.000005149841
121,252,43540,6,0,P|125:165|301:85,1,300
416,272,44630,6,0,L|416:144,1,75
288,128,44903,2,0,L|288:224,1,75
150,112,45176,5,0,0:0:0:0:
297,175,45312,1,0,0:0:0:0:
235,322,45448,1,0,0:0:0:0:
88,259,45585,1,0,0:0:0:0:
180,83,45721,5,0,0:0:0:0:
301,188,45857,1,0,0:0:0:0:
196,309,45993,1,0,0:0:0:0:
75,204,46130,1,0,0:0:0:0:
192,112,46267,6,0,P|288:112|320:256,1,240
272,304,46948,5,0,0:0:0:0:
128,288,47085,2,0,L|32:208,1,75
0,128,47357,1,0,0:0:0:0:
320,288,47493,1,0,0:0:0:0:
53,301,47629,1,0,0:0:0:0:
320,144,47766,1,0,0:0:0:0:
317,308,47903,2,0,L|317:388,1,75
320,144,48175,2,0,L|320:64,1,75
160,32,48448,6,0,B|248:90|80:112|156:258,1,240
244,238,49130,6,0,L|308:158,1,75
456,155,49403,1,0,0:0:0:0:
431,277,49539,2,0,L|383:341,1,75
283,90,49812,2,0,L|315:10,1,75
212,314,50084,2,0,L|244:394,1,75
141,119,50357,2,0,L|92:29,1,75
320,96,50630,6,0,P|352:195|348:276,1,180
224,320,51175,1,0,0:0:0:0:
231,156,51312,1,0,0:0:0:0:
128,192,51448,2,0,L|64:288,1,75
240,336,51721,1,0,0:0:0:0:
304,192,51857,1,0,0:0:0:0:
128,192,51993,1,0,0:0:0:0:
256,48,52129,1,0,0:0:0:0:
304,192,52266,6,0,L|256:256,1,75
92,352,52539,2,0,L|137:292,1,75
215,193,52811,6,0,P|269:115|431:72,1,240
403,197,53493,5,0,0:0:0:0:
323,325,53629,1,0,0:0:0:0:
242,228,53766,1,0,0:0:0:0:
96,256,53902,6,0,L|32:336,1,90.0000034332277
372,263,54175,6,0,L|436:343,1,90.0000034332277
153,109,54448,6,0,L|89:29,1,90.0000034332277
352,106,54720,6,0,L|416:26,1,90.0000034332277
512,74,54993,6,0,P|512:202|416:218,1,240
299,225,55675,1,0,0:0:0:0:
203,177,55811,1,0,0:0:0:0:
171,65,55947,1,0,0:0:0:0:
283,46,56084,6,0,L|331:158,1,105.000001001358
58,356,56357,6,0,L|106:244,1,105.000001001358
468,89,56629,6,0,L|426:185,1,105.000001001358
190,88,56902,6,0,L|78:-24,1,105.000001001358
0,46,57175,6,0,P|0:142|128:174,1,240
288,240,57856,1,0,0:0:0:0:
304,128,57993,1,0,0:0:0:0:
208,64,58129,1,0,0:0:0:0:
109,91,58265,6,0,L|173:203,1,120
475,384,58538,6,0,L|411:272,1,120
479,0,58811,6,0,L|415:112,1,120
132,364,59084,6,0,L|72:259,1,120
160,144,59356,6,0,B|240:96|256:208|336:176|336:80,1,240
416,48,60038,1,0,0:0:0:0:
464,128,60174,2,0,L|448:224,1,75
368,232,60447,5,0,0:0:0:0:
380,252,60583,1,0,0:0:0:0:
360,272,60720,1,0,0:0:0:0:
368,296,60856,1,0,0:0:0:0:
344,319,60992,1,0,0:0:0:0:
307,338,61129,1,0,0:0:0:0:
267,334,61265,1,0,0:0:0:0:
226,318,61402,1,0,0:0:0:0:
147,269,61538,6,0,P|67:206|34:125,1,180
255,143,62083,6,0,L|255:47,1,90.0000034332277
432,240,62356,2,0,L|432:352,1,90.0000034332277
163,319,62629,2,0,L|19:351,1,90.0000034332277
372,142,62901,2,0,L|388:14,1,90.0000034332277
124,237,63174,5,0,0:0:0:0:
35,94,63310,1,0,0:0:0:0:
241,173,63447,1,0,0:0:0:0:
179,42,63583,1,0,0:0:0:0:
288,64,63719,6,0,P|368:80|400:208,1,180
361,279,64265,6,0,B|320:342|368:374,1,105.000001001358
492,149,64538,6,0,B|540:85|508:53,1,105.000001001358
234,26,64810,6,0,B|206:68|286:100|253:118,1,105.000001001358
90,178,65083,6,0,B|44:153|21:236|-1:205,1,105.000001001358
128,272,65356,5,0,0:0:0:0:
269,118,65492,1,0,0:0:0:0:
317,294,65628,1,0,0:0:0:0:
269,118,65765,1,0,0:0:0:0:
128,272,65901,2,0,P|80:176|160:112,1,180
221,68,66447,6,0,P|317:148|285:196,1,120
132,366,66719,6,0,P|36:286|68:238,1,120
167,29,66992,6,0,P|263:109|231:157,1,120
357,366,67265,6,0,P|453:286|421:238,1,120
336,176,67537,5,0,0:0:0:0:
155,357,67674,1,0,0:0:0:0:
175,65,67810,1,0,0:0:0:0:
352,336,67946,1,0,0:0:0:0:
426,167,68083,6,0,P|442:87|343:3,1,180
299,94,68628,6,0,P|189:245|150:227,1,225
132,198,69174,2,0,P|116:102|277:153,1,270.000010299683
399,147,69719,2,0,P|234:286|355:344,1,420.000004005432
384,160,70810,1,0,0:0:0:0:
281,232,70946,2,0,L|249:344,1,90.0000034332277
85,128,71219,2,0,L|117:16,1,90.0000034332277
239,40,71492,1,0,0:0:0:0:
448,128,71901,5,0,0:0:0:0:
192,288,72037,1,0,0:0:0:0:
320,48,72173,1,0,0:0:0:0:
98,141,72310,1,0,0:0:0:0:
184,261,72446,6,0,P|248:309|248:165,1,297.000002832413
304,96,72991,5,0,0:0:0:0:
144,160,73264,6,0,L|144:265,1,105.000001001358
432,320,73537,2,0,L|432:215,1,105.000001001358
176,240,74082,6,0,L|112:144,1,105.000001001358
304,64,74355,2,0,L|384:192,1,105.000001001358
415,256,74628,2,0,P|303:320|175:208,1,221.999999153137
140,232,75037,2,0,L|76:137,1,113.999996955872
362,193,75446,6,0,P|362:97|266:1,1,120
256,256,75718,1,0,0:0:0:0:
144,128,75855,1,0,0:0:0:0:
314,99,76264,6,0,L|202:179,1,120
95,171,76537,2,0,L|79:27,1,120
226,30,76809,2,0,P|278:53|159:210,1,315.000003004074
140,289,77355,6,0,P|129:168|401:216,1,468.000001785278
256,192,78445,5,0,0:0:0:0:
256,96,78718,1,0,0:0:0:0:
256,96,78854,1,0,0:0:0:0:
256,192,78991,5,0,0:0:0:0:
352,352,79264,2,0,L|416:256,1,83.9999974365235
384,160,79536,1,0,0:0:0:0:
192,64,79809,2,0,L|96:128,1,83.9999974365235
352,320,80218,6,0,L|416:192,1,83.9999974365235
128,192,80627,2,0,L|96:320,1,83.9999974365235
352,192,81172,1,0,0:0:0:0:
160,128,81445,6,0,L|192:-32,1,83.9999974365235
256,129,81718,1,0,0:0:0:0:
352,256,81991,2,0,P|256:320|224:320,1,105.000001001358
160,128,82400,2,0,P|256:64|288:64,1,105.000001001358
256,192,82809,2,0,L|256:320,1,105.000001001358
448,96,83218,2,0,L|320:32,1,105.000001001358
64,128,83627,6,0,L|96:256,1,113.999996955872
288,320,83899,2,0,P|416:224|416:160,1,227.999993911743
352,96,84309,2,0,P|224:192|96:192,1,227.999993911743
192,288,84718,2,0,P|320:288|384:160,1,227.999993911743
288,160,85127,2,0,L|32:192,1,227.999993911743
352,112,85536,6,0,P|368:272|213:319,1,270.000010299683
201,329,86081,6,0,P|93:127|181:54,1,315.000003004074
216,48,86626,6,0,P|336:240|190:302,1,360
211,313,87172,6,0,P|22:220|152:55,1,480
176,144,87990,5,0,0:0:0:0:
96,256,88126,1,0,0:0:0:0:
176,144,88263,2,0,P|304:176|320:224,1,180.000006866455
304,288,88672,1,0,0:0:0:0:
240,336,88808,2,0,P|128:304|128:288,1,90.0000034332277
112,288,89081,1,0,0:0:0:0:
160,224,89217,1,0,0:0:0:0:
224,176,89354,2,0,L|240:272,1,90.0000034332277
320,208,89626,2,0,L|334:119,1,90.0000034332277
256,80,89899,6,0,L|80:192|80:192,1,192
128,256,90308,5,0,0:0:0:0:
208,320,90444,1,0,0:0:0:0:
305,349,90581,1,0,0:0:0:0:
352,272,90717,6,0,L|352:144,1,96
272,176,90990,1,0,0:0:0:0:
192,176,91126,2,0,L|192:48,1,96
93,56,91399,1,0,0:0:0:0:
45,124,91535,6,0,P|16:208|32:272,2,96
131,191,91944,1,0,0:0:0:0:
224,256,92081,2,0,B|320:320|416:224|432:224|256:80|240:64,1,306.000005836487
224,96,92626,1,0,0:0:0:0:
125,99,92762,1,0,0:0:0:0:
69,186,92899,6,0,P|67:293|101:314,1,105.000001001358
164,320,93171,1,0,0:0:0:0:
243,320,93308,1,0,0:0:0:0:
336,320,93444,2,0,L|336:176,1,105.000001001358
272,144,93717,6,0,L|192:240,1,105.000001001358
64,208,93989,6,0,L|131:127,1,105.000001001358
224,96,94262,2,0,P|384:224|332:309,1,323.999990112305
257,279,94808,2,0,B|464:32|37:129,1,455.999987823487
68,211,95626,5,0,0:0:0:0:
144,304,95898,1,0,0:0:0:0:
240,335,96171,1,0,0:0:0:0:
176,144,113897,6,2,L|176:256,1,90.0000034332277
288,288,114169,6,2,L|288:262|288:198,1,90.0000034332277
256,96,114442,2,0,P|160:64|144:80,1,90.0000034332277
256,224,114715,2,0,P|228:258|184:266,1,90.0000034332277
96,160,114988,1,0,0:0:0:0:
184,53,115124,1,0,0:0:0:0:
256,224,115260,1,0,0:0:0:0:
348,89,115397,1,0,0:0:0:0:
447,205,115533,6,0,P|356:338|263:294,1,210.000002002716
259,282,115942,1,0,0:0:0:0:
178,224,116078,2,0,L|87:325,1,105.000001001358
331,216,116351,2,0,L|422:317,1,105.000001001358
442,168,116624,2,0,P|366:57|201:41,1,210.000002002716
288,117,117033,1,0,0:0:0:0:
222,198,117169,6,0,L|140:295,1,105.000001001358
90,198,117442,2,0,L|89:77,1,105.000001001358
177,59,117715,2,0,P|295:59|343:101,2,105.000001001358
164,99,118055,1,0,0:0:0:0:
147,138,118124,1,0,0:0:0:0:
137,178,118192,1,0,0:0:0:0:
141,219,118260,2,0,B|305:282|257:267,1,105.000001001358
323,261,118533,1,0,0:0:0:0:
386,205,118669,1,0,0:0:0:0:
423,130,118805,1,0,0:0:0:0:
351,85,118942,1,0,0:0:0:0:
268,72,119078,2,0,P|104:107|87:199,1,210.000002002716
130,204,119487,5,0,0:0:0:0:
200,248,119623,1,0,0:0:0:0:
282,264,119760,1,0,0:0:0:0:
365,262,119896,1,0,0:0:0:0:
432,211,120033,1,0,0:0:0:0:
459,131,120169,2,0,P|337:71|193:125,1,210.000002002716
198,128,120578,1,0,0:0:0:0:
163,204,120714,1,0,0:0:0:0:
187,284,120851,1,0,0:0:0:0:
263,319,120987,1,0,0:0:0:0:
344,301,121123,1,0,0:0:0:0:
395,234,121260,1,0,0:0:0:0:
414,152,121396,1,0,0:0:0:0:
351,96,121532,6,0,P|189:81|109:176,1,210.000002002716
143,142,121873,1,0,0:0:0:0:
135,183,121941,1,0,0:0:0:0:
127,224,122010,1,0,0:0:0:0:
140,263,122078,2,0,P|291:306|355:228,1,210.000002002716
445,169,122623,5,0,0:0:0:0:
384,288,123305,5,0,0:0:0:0:
384,288,123441,1,0,0:0:0:0:
384,288,123578,1,0,0:0:0:0:
384,288,123714,2,0,P|384:128|192:64,1,315.000003004074
193,123,124259,2,0,B|194:163|194:163|177:177|177:177|207:189|207:189|166:203|166:203|202:222|202:222|165:225|165:225|188:236|145:244|146:244|147:245|147:245|183:270|183:270|142:272|142:272|169:296|169:296|122:335|122:335,1,420.000004005432
268,285,125487,6,0,L|269:158,1,105.000001001358
326,82,125759,1,0,0:0:0:0:
452,100,125896,2,0,P|457:262|305:363,1,315.000003004074
254,328,126441,2,0,B|224:302|224:302|216:313|216:313|208:299|208:299|197:317|197:317|194:296|194:296|181:315|181:315|175:293|175:293|158:311|158:310|149:288|149:288|140:309|140:309|133:300|133:300|119:319|119:319|119:294|119:294|90:312|90:312|87:295|87:295|73:312|73:312|68:296|68:296|52:307|52:307|49:295|49:295|32:310|33:309|33:309|25:295|25:295|15:313|15:313|0:297|0:297|-4:312|-4:312|-14:298|-14:298,1,480
289,110,127668,6,0,L|222:246,1,90.0000034332277
188,289,127941,1,0,0:0:0:0:
62,250,128077,2,0,P|95:95|245:127,1,270.000010299683
247,141,128623,2,0,B|333:121|333:121|332:160|332:160|345:124|345:124|347:161|347:161|357:124|357:124|357:163|357:163|367:124|367:124|367:165|367:165|377:124|377:124|377:165|377:165|387:127|387:127|386:135,1,480
386,130,129713,5,0,0:0:0:0:
373,150,130259,1,0,0:0:0:0:
336,194,130532,1,0,0:0:0:0:
303,225,130804,1,0,0:0:0:0:
267,240,130941,1,0,0:0:0:0:
219,249,131077,1,0,0:0:0:0:
178,253,131213,1,0,0:0:0:0:
256,192,131350,12,0,132986,0:0:0:0:
320,160,133122,5,0,0:0:0:0:
176,96,133259,1,0,0:0:0:0:
49,127,133395,1,0,0:0:0:0:
49,225,133531,6,0,P|98:362|242:342,1,315.000003004074
309,276,134077,2,0,L|422:236,1,120
304,55,134349,2,0,L|185:67,1,120
123,317,134622,1,0,0:0:0:0:
102,115,134758,1,0,0:0:0:0:
299,299,134895,1,0,0:0:0:0:
307,94,135031,1,0,0:0:0:0:
97,121,135168,5,0,0:0:0:0:
299,100,135304,1,0,0:0:0:0:
115,297,135441,1,0,0:0:0:0:
320,305,135577,1,0,0:0:0:0:
442,239,135713,6,0,P|427:92|181:105,1,360
189,90,136258,5,0,0:0:0:0:
171,338,136395,1,0,0:0:0:0:
392,270,136531,1,0,0:0:0:0:
76,172,136667,1,0,0:0:0:0:
338,165,136804,2,0,L|306:29,1,120
156,237,137076,2,0,L|188:373,1,120
342,196,137349,2,0,L|361:57,1,120
146,198,137621,2,0,L|127:336,1,120
268,79,137895,6,0,P|398:113|254:278,1,360
226,231,138440,6,0,L|112:331,1,120
180,88,138713,2,0,L|47:43,1,120
417,346,138985,2,0,L|453:166,1,120
89,346,139258,2,0,L|53:166,1,120
417,38,139531,2,0,L|453:218,1,120
89,38,139804,2,0,L|53:218,1,120
255,191,140076,6,0,B|342:97|152:71|123:48|87:249|86:287,1,360
180,308,140622,5,0,0:0:0:0:
240,125,140758,1,0,0:0:0:0:
383,300,140894,1,0,0:0:0:0:
406,81,141031,1,0,0:0:0:0:
175,55,141167,2,0,L|40:180,1,120
272,178,141440,2,0,L|195:318,1,120
439,233,141712,2,0,L|455:365,1,120
327,92,141985,2,0,L|243:-6,1,120
129,55,142258,2,0,P|42:226|230:185,1,480
310,110,142940,5,0,0:0:0:0:
430,151,143076,2,0,L|423:291,1,120
301,322,143349,5,0,0:0:0:0:
84,132,143485,1,0,0:0:0:0:
435,159,143621,1,0,0:0:0:0:
100,319,143758,1,0,0:0:0:0:
243,30,143894,1,0,0:0:0:0:
427,345,144030,1,0,0:0:0:0:
61,189,144167,1,0,0:0:0:0:
434,84,144303,1,0,0:0:0:0:
408,226,144439,6,0,P|196:344|137:85,1,480
181,103,145121,1,0,0:0:0:0:
326,149,145258,1,0,0:0:0:0:
423,249,145394,1,0,0:0:0:0:
200,274,145530,2,0,L|28:329,1,120
361,45,145803,2,0,L|480:44,1,120
415,342,146076,2,0,L|264:347,1,120
111,65,146348,2,0,L|245:64,1,120
334,111,146621,6,0,P|477:239|224:260,1,480
214,281,147303,1,0,0:0:0:0:
126,226,147439,2,0,L|28:324,1,120
128,64,147712,1,0,0:0:0:0:
384,64,147848,1,0,0:0:0:0:
384,288,147985,1,0,0:0:0:0:
128,288,148121,1,0,0:0:0:0:
212,16,148257,1,0,0:0:0:0:
431,148,148393,1,0,0:0:0:0:
316,340,148530,1,0,0:0:0:0:
96,208,148666,1,0,0:0:0:0:
199,64,148803,6,0,B|337:65|327:227|316:295|268:327|116:307|48:238,1,480
123,154,149484,1,0,0:0:0:0:
375,100,149621,2,0,L|408:248,1,120
328,306,149893,1,0,0:0:0:0:
313,322,150030,1,0,0:0:0:0:
279,339,150166,1,0,0:0:0:0:
235,339,150303,1,0,0:0:0:0:
171,289,150439,1,0,0:0:0:0:
107,193,150575,1,0,0:0:0:0:
140,57,150712,1,0,0:0:0:0:
282,29,150848,1,0,0:0:0:0:
370,125,150984,6,0,B|495:114|356:67|266:121|296:226|478:122|503:231|402:272,1,240
419,243,151325,1,0,0:0:0:0:
383,275,151393,1,0,0:0:0:0:
352,312,151462,1,0,0:0:0:0:
305,322,151530,2,0,P|185:207|19:174,1,240
119,278,151939,2,0,P|243:165|385:154,1,240
217,121,152348,1,0,0:0:0:0:
147,186,152484,1,0,0:0:0:0:
211,256,152620,6,0,L|323:128,1,120
384,186,152893,2,0,L|429:347,1,120
305,220,153166,6,0,B|288:254|288:254|285:204|285:204|264:250|264:250|238:209|238:209|173:213|173:213,1,240
118,282,153575,1,0,0:0:0:0:
122,85,153711,1,0,0:0:0:0:
335,134,153848,1,0,0:0:0:0:
331,322,153984,1,0,0:0:0:0:
183,216,154120,1,0,0:0:0:0:
212,72,154257,6,0,B|358:40|400:172|360:268,1,240
285,318,154666,1,0,0:0:0:0:
78,318,154802,6,0,B|71:152|294:52|8:94|223:121,1,240
236,103,155348,6,0,B|376:54|407:252|368:308,1,240
355,277,155688,1,0,0:0:0:0:
309,293,155757,1,0,0:0:0:0:
262,304,155825,1,0,0:0:0:0:
214,310,155893,1,0,0:0:0:0:
144,244,156029,1,0,0:0:0:0:
104,155,156166,2,0,L|223:88,1,120
266,172,156438,1,0,0:0:0:0:
353,212,156575,2,0,L|419:67,1,120
307,97,156847,2,0,L|230:244,1,120
192,279,157120,1,0,0:0:0:0:
104,316,157256,1,0,0:0:0:0:
96,219,157393,1,0,0:0:0:0:
164,152,157529,6,0,P|297:64|384:198,1,240
334,209,157938,1,0,0:0:0:0:
152,233,158075,2,0,L|86:342,1,120
198,66,158347,2,0,L|364:62,1,120
367,187,158620,2,0,P|392:324|269:318,1,240
248,317,159029,1,0,0:0:0:0:
189,251,159165,2,0,L|60:310,1,120
146,166,159438,2,0,P|191:49|331:109,1,240
330,170,159983,2,0,L|314:255,4,60
257,93,160393,5,0,0:0:0:0:
197,166,160529,6,0,L|117:284,1,120
57,197,160802,1,0,0:0:0:0:
69,83,160938,2,0,L|212:145,1,120
237,238,161211,1,0,0:0:0:0:
342,292,161347,2,0,L|381:163,1,120
241,116,161620,2,0,L|150:216,1,120
63,209,161892,6,0,B|95:174|95:174|70:162|70:162|99:158|99:158|70:140|70:140|104:137|104:137|75:112|75:112|107:102|107:102,1,240
187,79,162301,1,0,0:0:0:0:
297,121,162438,2,0,P|367:99|404:194,1,120
333,235,162710,2,0,P|263:257|226:162,1,120
256,161,162983,6,0,P|209:38|80:81,1,240
86,114,163392,1,0,0:0:0:0:
138,211,163529,2,0,L|202:174,2,60
172,305,163801,2,0,L|108:342,2,60
327,277,164074,6,0,P|315:120|314:118,1,120
269,94,164347,5,0,0:0:0:0:
222,84,164415,1,0,0:0:0:0:
176,97,164483,1,0,0:0:0:0:
148,135,164551,1,0,0:0:0:0:
120,174,164619,1,0,0:0:0:0:
131,284,164756,1,0,0:0:0:0:
288,256,164892,6,0,P|352:96|352:64,1,120
192,96,165165,1,0,0:0:0:0:
224,224,165301,1,0,0:0:0:0:
64,256,165438,1,0,0:0:0:0:
192,352,165574,1,0,0:0:0:0:
384,320,165710,6,0,L|384:160,1,120
192,192,165983,2,0,L|192:64,1,120
70,33,166256,6,0,P|6:161|102:193,1,240
175,299,166665,1,0,0:0:0:0:
352,192,166801,2,0,L|480:320,1,120
224,160,167074,2,0,L|64:256,1,120
288,288,167346,2,0,P|448:224|384:128,1,240
384,128,167755,1,0,0:0:0:0:
256,64,167892,1,0,0:0:0:0:
96,160,168028,5,0,0:0:0:0:
96,160,168165,2,0,P|64:192|224:320,1,240
183,262,168574,1,0,0:0:0:0:
256,320,168710,1,0,0:0:0:0:
256,320,168778,1,0,0:0:0:0:
256,320,168846,1,0,0:0:0:0:
256,320,168914,1,0,0:0:0:0:
256,320,168983,1,0,0:0:0:0:
374,340,169119,1,0,0:0:0:0:
395,234,169255,6,0,L|395:106,1,120
271,106,169528,1,0,0:0:0:0:
160,128,169664,2,0,L|96:288,1,120
193,310,169937,1,0,0:0:0:0:
295,359,170073,1,0,0:0:0:0:
384,288,170210,2,0,L|384:128,1,120
435,68,170483,1,0,0:0:0:0:
304,45,170619,5,0,0:0:0:0:
279,159,170755,1,0,0:0:0:0:
181,129,170892,2,0,P|130:134|104:194,1,120
243,239,171164,2,0,P|294:234|320:174,1,120
320,96,171437,2,0,P|371:101|397:161,1,120
387,300,171710,2,0,B|207:361|95:237|106:250,1,240
129,201,172119,1,0,0:0:0:0:
150,111,172255,2,0,P|264:39|387:159,1,240
338,163,172664,1,0,0:0:0:0:
241,123,172800,6,0,B|235:213|235:213|279:231|279:231|217:242|217:242|266:278|266:278|259:302|259:302,1,240
288,362,173210,1,0,0:0:0:0:
360,300,173346,6,0,L|366:139,1,120
283,133,173619,1,0,0:0:0:0:
164,136,173755,2,0,L|69:273,1,120
151,326,174028,1,0,0:0:0:0:
265,337,174164,2,0,L|266:184,1,120
258,112,174437,1,0,0:0:0:0:
162,87,174573,2,0,L|58:194,1,120
134,257,174846,1,0,0:0:0:0:
224,269,174982,6,2,P|288:159|412:220,1,240
417,282,175391,1,2,0:0:0:0:
444,112,175528,1,0,0:0:0:0:
334,168,175664,1,0,0:0:0:0:
266,37,175800,1,0,0:0:0:0:
208,133,175937,1,0,0:0:0:0:
207,258,176073,2,0,P|5:163|-12:101,1,240
125,145,176482,1,0,0:0:0:0:
16,188,176618,2,0,L|86:328,1,120
193,322,176891,2,0,P|355:291|332:175,1,240
276,126,177300,1,0,0:0:0:0:
276,126,177436,6,0,L|194:174,4,60
320,211,177845,1,0,0:0:0:0:
400,115,177982,6,0,L|400:265,1,120
321,312,178255,1,0,0:0:0:0:
189,292,178391,2,0,L|192:117,1,120
180,79,178664,1,0,0:0:0:0:
275,42,178800,2,0,L|394:141,1,120
344,191,179073,1,0,0:0:0:0:
285,275,179209,1,0,0:0:0:0:
179,238,179345,2,0,B|193:189|193:189|178:195|178:195|192:169|192:169|161:174|161:174|191:144|192:145|142:146|143:146|186:124|186:124|148:123|148:123,1,240
82,89,179754,1,0,0:0:0:0:
130,341,179891,1,0,0:0:0:0:
327,111,180027,1,0,0:0:0:0:
430,305,180163,1,0,0:0:0:0:
195,212,180300,1,0,0:0:0:0:
372,222,180436,2,0,P|492:104|429:76,1,240
411,101,180845,1,0,0:0:0:0:
247,83,180982,2,0,L|173:246,1,120
99,252,181254,2,0,P|257:334|356:255,2,240
123,112,181936,1,0,0:0:0:0:
219,97,182072,5,0,0:0:0:0:
279,208,182209,1,0,0:0:0:0:
141,203,182345,1,0,0:0:0:0:
236,92,182481,5,0,0:0:0:0:
275,211,182618,1,0,0:0:0:0:
140,182,182754,1,0,0:0:0:0:
253,90,182890,5,0,0:0:0:0:
272,214,183027,1,0,0:0:0:0:
144,163,183163,1,0,0:0:0:0:
283,101,183300,2,0,L|388:201,1,120
370,264,183572,1,0,0:0:0:0:
292,336,183709,6,0,B|240:294|240:294|262:277|262:277|236:273|236:272|257:259|257:259|224:254|224:254|259:242|259:242|225:236|225:236,1,240
161,171,184118,2,0,L|79:286,1,120
265,76,184390,2,0,L|426:91,1,120
239,177,184663,1,0,0:0:0:0:
311,275,184799,2,0,P|434:223|396:112,1,240
327,107,185208,1,0,0:0:0:0:
264,183,185345,2,0,P|280:230|355:185,3,120
411,164,185890,1,0,0:0:0:0:
368,304,187526,6,0,L|394:154,1,120
144,304,187799,6,0,L|123:185,1,120
260,182,188072,1,0,0:0:0:0:
191,107,189708,6,0,P|150:134|123:208,1,120
321,107,189981,6,0,P|362:134|389:208,1,120
252,183,190253,1,0,0:0:0:0:
350,340,191890,6,0,P|414:218|413:217,1,120
162,44,192162,6,0,P|98:166|99:167,1,120
253,194,192435,1,0,0:0:0:0:
414,217,193526,6,0,B|286:315|91:289|71:57|209:34|384:34|254:84,1,480
345,138,194617,1,0,0:0:0:0:
137,129,196253,6,0,L|186:289,1,120
321,177,196526,6,0,L|370:337,1,120
450,186,196798,6,0,P|462:108|231:194,1,480
169,318,198435,6,0,P|282:264|279:257,1,120
299,194,198707,6,0,P|412:140|409:133,1,120
420,95,198980,2,0,P|271:51|226:321,1,480
258,254,200616,6,0,L|437:253,1,120
358,142,200889,6,0,L|537:141,1,120
373,50,201162,2,0,P|199:37|168:300,1,480
115,303,202252,6,0,B|247:138|162:101|129:233|260:262|340:171|306:32,1,360
437,91,202798,6,0,B|452:279|367:316|334:184|465:155|245:221|511:385,1,360
256,192,203889,12,0,205525,0:0:0:0:
