osu file format v12

[General]
AudioFilename: Back to Dream.mp3
AudioLeadIn: 1000
PreviewTime: 77754
Countdown: 0
SampleSet: Soft
StackLeniency: 0.5
Mode: 0
LetterboxInBreaks: 0

[Editor]
DistanceSpacing: 1
BeatDivisor: 4
GridSize: 4

[Metadata]
Title:Back to Dream
TitleUnicode:回梦游仙
Artist:Pal4 Music Team
ArtistUnicode:Pal4 Music Team
Creator:jonathanlfj
Version:Sword
Source:Chinese Paladin 4
Tags:The Legend of Fairy and Sword IV Pal xianjian Steph De Chine
BeatmapID:177876
BeatmapSetID:59325

[Difficulty]
HPDrainRate:4
CircleSize:4
OverallDifficulty:4
ApproachRate:6
SliderMultiplier:1.6
SliderTickRate:1

[Events]
//Background and Video events
0,0,"BG.jpg",0,0
//Break Periods
//Storyboard Layer 0 (Background)
//Storyboard Layer 1 (Fail)
//Storyboard Layer 2 (Pass)
//Storyboard Layer 3 (Foreground)
//Storyboard Sound Samples
//Background Colour Transformations
3,100,163,162,255

[TimingPoints]
754,500,4,2,1,20,1,0
1754,-100,4,2,1,40,0,0
2754,-100,4,2,1,60,0,0
9254,-100,4,2,1,30,0,0
9754,-100,4,2,1,40,0,0
10754,-100,4,2,1,60,0,0
17254,-100,4,2,1,30,0,0
18754,-100,4,2,1,60,0,0
25254,-100,4,2,1,30,0,0
25754,-100,4,2,1,40,0,0
26754,-100,4,2,1,60,0,0
32754,-100,4,2,1,50,0,0
33754,-100,4,2,1,40,0,0
34754,-100,4,2,1,30,0,0
35754,-100,4,2,1,20,0,0
36504,-100,4,2,1,15,0,0
37254,-100,4,2,1,10,0,0
38004,-100,4,2,1,5,0,0
38504,-125,4,2,1,50,0,0
53254,-125,4,2,1,40,0,0
53754,-125,4,2,1,30,0,0
54254,-125,4,2,1,20,0,0
54504,-125,4,2,1,50,0,0
67254,-125,4,2,1,40,0,0
67754,-125,4,2,1,30,0,0
68254,-125,4,2,1,20,0,0
68754,-125,4,2,1,10,0,0
69254,-125,4,2,1,5,0,0
70754,-125,4,2,1,10,0,0
71754,-125,4,2,1,15,0,0
72754,-125,4,2,1,20,0,0
73754,-125,4,2,1,25,0,0
74754,-125,4,2,1,30,0,0
75754,-125,4,2,1,35,0,0
76754,-125,4,2,1,40,0,0
77754,-125,4,2,1,50,0,0
78754,-100,4,2,1,60,0,1
93254,-100,4,2,1,40,0,1
94754,-100,4,2,1,60,0,1
108754,-100,4,2,1,50,0,1
110754,-100,4,2,1,40,0,1
112754,-125,4,2,1,5,0,0
119254,-125,4,2,1,10,0,0

[Colours]
Combo1 : 128,255,194
Combo2 : 96,237,249
Combo3 : 36,156,255
SliderBorder : 193,255,238

[HitObjects]
100,192,754,37,2,0:0:0:0:
152,132,1004,1,2,0:0:0:0:
228,156,1254,1,2,0:0:0:0:
224,236,1504,1,2,0:0:0:0:
148,260,1754,2,0,B|164:312|236:332|280:292,1,160,2|2,0:0|0:0,0:0:0:0:
348,248,2504,1,0,0:0:0:0:
416,204,2754,6,0,B|464:172|464:172|488:116|448:64,1,160,4|0,0:0|0:0,0:0:0:0:
380,48,3504,1,0,0:0:0:0:
320,100,3754,2,0,B|352:132|400:124,2,80,2|0|2,0:0|0:0|0:0,0:0:0:0:
268,36,4504,1,0,0:0:0:0:
268,36,4754,6,0,B|232:72|240:120|240:120|176:140,1,160,8|0,0:0|0:0,0:0:0:0:
20,184,5754,2,0,B|20:272,1,80,2|0,0:0|0:0,0:0:0:0:
100,264,6254,2,0,B|100:172,1,80,2|0,0:0|0:0,0:0:0:0:
180,168,6754,6,0,B|256:124|332:168,1,160,8|0,0:0|0:0,0:0:0:0:
332,248,7504,1,0,0:0:0:0:
256,228,7754,2,0,B|256:52,2,160,2|2|8,0:0|0:0|0:0,0:0:0:0:
176,368,9254,5,0,0:0:0:0:
336,368,9754,2,0,B|388:368|416:320,1,80,2|0,0:0|0:0,0:0:0:0:
340,288,10254,2,0,B|368:252|420:256,1,80,2|0,0:0|0:0,0:0:0:0:
480,296,10754,6,0,B|496:252|480:216,2,80,8|0|0,0:0|0:0|0:0,0:0:0:0:
452,140,11754,2,0,B|388:196|296:156,1,160,2|2,0:0|0:0,0:0:0:0:
252,96,12504,1,0,0:0:0:0:
224,172,12754,6,0,B|156:232|64:200,1,160,8|0,0:0|0:0,0:0:0:0:
120,48,13754,2,0,B|36:48,2,80,2|0|2,0:0|0:0|0:0,0:0:0:0:
200,48,14504,1,0,0:0:0:0:
200,48,14754,6,0,B|276:48|276:48|288:92|344:104,2,160,8|0|2,0:0|0:0|0:0,0:0:0:0:
256,200,16254,2,0,B|180:200|180:200|168:156|112:144,1,160,2|8,0:0|0:0,0:0:0:0:
40,284,17254,5,2,0:0:0:0:
40,364,17504,1,2,0:0:0:0:
120,364,17754,1,2,0:0:0:0:
120,284,18004,2,0,B|200:284,2,80,2|2|2,0:0|0:0|0:0,0:0:0:0:
120,204,18754,6,0,B|120:140|120:140|168:168|216:140,1,160,4|0,0:0|0:0,0:0:0:0:
168,76,19504,1,0,0:0:0:0:
248,72,19754,2,0,B|288:96|292:144,1,80,2|0,0:0|0:0,0:0:0:0:
296,216,20254,2,0,B|344:208|364:168,1,80,2|0,0:0|0:0,0:0:0:0:
364,92,20754,6,0,B|392:40|440:40|440:40|460:104,1,160,8|0,0:0|0:0,0:0:0:0:
492,256,21754,2,0,B|408:256,2,80,2|0|2,0:0|0:0|0:0,0:0:0:0:
492,336,22504,1,0,0:0:0:0:
492,336,22754,6,0,B|412:336|412:336|364:336|340:296,1,160,8|0,0:0|0:0,0:0:0:0:
336,220,23504,1,0,0:0:0:0:
328,140,23754,2,0,B|288:100|224:100|184:140,2,160,2|2|8,0:0|0:0|0:0,0:0:0:0:
256,284,25254,5,2,0:0:0:0:
96,284,25754,2,0,B|96:204,1,80,2|0,0:0|0:0,0:0:0:0:
96,124,26254,2,0,B|12:124,1,80,2|0,0:0|0:0,0:0:0:0:
16,204,26754,6,0,B|16:288,2,80,4|0|0,0:0|0:0|0:0,0:0:0:0:
176,204,27754,2,0,B|176:116,2,80,2|0|2,0:0|0:0|0:0,0:0:0:0:
176,284,28504,1,0,0:0:0:0:
176,284,28754,6,0,B|232:280|252:232|252:232|316:232,1,160,8|0,0:0|0:0,0:0:0:0:
396,232,29504,1,0,0:0:0:0:
356,164,29754,2,0,B|328:128|276:128,1,80,2|0,0:0|0:0,0:0:0:0:
328,60,30254,2,0,B|272:60|244:16,1,80,2|0,0:0|0:0,0:0:0:0:
176,32,30754,5,8,0:0:0:0:
176,32,31004,1,0,0:0:0:0:
176,32,31254,1,2,0:0:0:0:
96,172,31754,1,8,0:0:0:0:
96,172,32004,1,0,0:0:0:0:
96,172,32254,1,2,0:0:0:0:
256,192,32754,6,0,B|256:272,1,80,8|0,0:0|0:0,0:0:0:0:
256,352,33254,1,2,0:0:0:0:
256,192,33754,2,0,B|256:108,1,80,8|0,0:0|0:0,0:0:0:0:
256,32,34254,1,2,0:0:0:0:
256,192,34754,6,0,B|168:192,1,80,8|0,0:0|0:0,0:0:0:0:
96,192,35254,1,2,0:0:0:0:
256,192,35754,6,0,B|344:192,1,80,8|0,0:0|0:0,0:0:0:0:
416,192,36254,1,2,0:0:0:0:
256,192,36504,12,0,38254,0:0:0:0:
352,240,38754,6,0,B|400:188|368:112,1,128,8|0,0:0|0:0,0:0:0:0:
272,40,39754,1,2,0:0:0:0:
244,164,40254,1,2,0:0:0:0:
124,212,40754,6,0,B|152:280|232:288,2,128,8|0|0,0:0|0:0|0:0,0:0:0:0:
140,84,42254,1,0,0:0:0:0:
268,104,42754,5,8,0:0:0:0:
352,200,43254,1,2,0:0:0:0:
228,172,43754,1,2,0:0:0:0:
344,124,44254,1,2,0:0:0:0:
280,232,44754,6,0,B|320:296|392:268,1,128,8|0,0:0|0:0,0:0:0:0:
300,356,45754,2,0,B|260:296|180:320,1,128,0|0,0:0|0:0,0:0:0:0:
72,268,46754,6,0,B|128:236|204:232,1,128,8|0,0:0|0:0,0:0:0:0:
320,248,47754,1,2,0:0:0:0:
428,180,48254,1,2,0:0:0:0:
300,160,48754,6,0,B|312:88|384:60,2,128,8|0|2,0:0|0:0|0:0,0:0:0:0:
172,160,50254,1,0,0:0:0:0:
172,160,50754,6,0,B|152:92|84:68,1,128,8|0,0:0|0:0,0:0:0:0:
56,192,51754,2,0,B|76:260|148:276,1,128,2|0,0:0|0:0,0:0:0:0:
208,288,52504,2,0,B|200:324,2,32,0|0|8,0:0|0:0|0:0,0:0:0:0:
236,164,53254,5,2,0:0:0:0:
272,288,53754,1,2,0:0:0:0:
300,164,54254,1,2,0:0:0:0:
364,164,54504,2,0,B|412:164,2,32,0|0|8,0:0|0:0|0:0,0:0:0:0:
236,164,55254,5,0,0:0:0:0:
108,164,55754,1,2,0:0:0:0:
108,36,56254,1,2,0:0:0:0:
236,36,56754,6,0,B|280:36|280:36|324:36|352:72,2,128,8|0|0,0:0|0:0|0:0,0:0:0:0:
216,164,58254,1,2,0:0:0:0:
320,240,58754,5,8,0:0:0:0:
192,240,59254,1,2,0:0:0:0:
296,164,59754,1,2,0:0:0:0:
256,286,60254,1,2,0:0:0:0:
216,164,60754,6,0,B|228:84|312:84,1,128,8|0,0:0|0:0,0:0:0:0:
392,176,61754,2,0,B|424:236|392:300,1,128,0|0,0:0|0:0,0:0:0:0:
280,240,62754,6,0,B|236:240|236:240|228:196|184:180,1,128,8|0,0:0|0:0,0:0:0:0:
116,288,63754,1,2,0:0:0:0:
48,180,64254,1,2,0:0:0:0:
116,72,64754,6,0,B|176:48|240:72,1,128,8|0,0:0|0:0,0:0:0:0:
180,184,65754,2,0,B|244:204|308:184,1,128,2|0,0:0|0:0,0:0:0:0:
364,160,66504,2,0,B|364:108,2,32,0|0|8,0:0|0:0|0:0,0:0:0:0:
364,288,67254,5,2,0:0:0:0:
256,356,67754,1,2,0:0:0:0:
148,288,68254,1,2,0:0:0:0:
148,160,68754,5,8,0:0:0:0:
256,232,69254,2,0,B|256:96,2,128,2|2|0,0:0|0:0|0:0,0:0:0:0:
384,232,70754,5,8,0:0:0:0:
256,232,71254,1,2,0:0:0:0:
128,232,71754,1,2,0:0:0:0:
256,232,72254,1,2,0:0:0:0:
188,124,72754,5,8,0:0:0:0:
256,16,73254,1,2,0:0:0:0:
324,124,73754,1,2,0:0:0:0:
256,232,74254,1,2,0:0:0:0:
228,108,74754,5,8,0:0:0:0:
308,208,75254,1,2,0:0:0:0:
192,152,75754,1,2,0:0:0:0:
320,152,76254,1,2,0:0:0:0:
204,208,76754,5,8,0:0:0:0:
284,108,77254,1,2,0:0:0:0:
256,232,77754,2,0,B|316:264|384:236,1,128,2|2,0:0|0:0,0:0:0:0:
508,140,78754,6,0,B|492:52|400:36,1,160,4|0,0:0|0:0,0:0:0:0:
320,48,79504,1,0,0:0:0:0:
280,116,79754,2,0,B|220:180|124:160,1,160,2|2,0:0|0:0,0:0:0:0:
36,36,80754,6,0,B|36:200,1,160,8|0,0:0|0:0,0:0:0:0:
116,196,81504,1,0,0:0:0:0:
116,196,81754,2,0,B|220:196,2,80,2|0|2,0:0|0:0|0:0,0:0:0:0:
32,332,82754,6,0,B|72:368|124:352|124:352|176:308,1,160,8|0,0:0|0:0,0:0:0:0:
232,260,83504,1,0,0:0:0:0:
292,208,83754,2,0,B|339:168|339:168|391:152|431:188,2,160,2|2|8,0:0|0:0|0:0,0:0:0:0:
132,208,85254,5,0,0:0:0:0:
132,48,85754,2,0,B|216:48,1,80,2|0,0:0|0:0,0:0:0:0:
272,100,86254,2,0,B|272:184,1,80,2|0,0:0|0:0,0:0:0:0:
272,260,86754,6,0,B|328:256|352:208|352:208|352:144,1,160,8|0,0:0|0:0,0:0:0:0:
352,68,87504,1,0,0:0:0:0:
352,68,87754,2,0,B|432:68,2,80,2|0|2,0:0|0:0|0:0,0:0:0:0:
432,204,88754,6,0,B|420:292|340:324,1,160,8|0,0:0|0:0,0:0:0:0:
260,324,89504,1,0,0:0:0:0:
180,324,89754,2,0,B|96:324,2,80,2|0|2,0:0|0:0|0:0,0:0:0:0:
220,256,90504,1,0,0:0:0:0:
260,324,90754,6,0,B|344:296|340:192,2,160,8|0|2,0:0|0:0|0:0,0:0:0:0:
176,188,92254,2,0,B|176:92|276:60,1,160,2|8,0:0|0:0,0:0:0:0:
420,68,93254,5,2,0:0:0:0:
492,100,93504,1,2,0:0:0:0:
480,180,93754,1,2,0:0:0:0:
400,192,94004,1,2,0:0:0:0:
360,124,94254,2,0,B|320:148|320:204,1,80,2|2,0:0|0:0,0:0:0:0:
356,260,94754,6,0,B|308:280|264:248|264:248|204:276,1,160,4|0,0:0|0:0,0:0:0:0:
132,308,95504,1,0,0:0:0:0:
60,340,95754,2,0,B|24:264,1,80,2|0,0:0|0:0,0:0:0:0:
100,232,96254,2,0,B|172:200,1,80,2|0,0:0|0:0,0:0:0:0:
248,164,96754,6,0,B|216:116|160:120|160:120|104:144,1,160,8|0,0:0|0:0,0:0:0:0:
36,176,97504,1,0,0:0:0:0:
36,96,97754,2,0,B|36:16,2,80,2|0|2,0:0|0:0|0:0,0:0:0:0:
36,176,98504,1,0,0:0:0:0:
36,256,98754,6,0,B|108:304|188:256,1,160,8|0,0:0|0:0,0:0:0:0:
256,216,99504,1,0,0:0:0:0:
324,172,99754,2,0,B|404:124|476:172,2,160,2|2|8,0:0|0:0|0:0,0:0:0:0:
404,312,101254,5,0,0:0:0:0:
263,233,101754,2,0,B|254:274|218:296,1,80,2|0,0:0|0:0,0:0:0:0:
184,224,102254,2,0,B|193:176|233:160,1,80,2|0,0:0|0:0,0:0:0:0:
308,168,102754,6,0,B|384:204,2,80,4|0|0,0:0|0:0|0:0,0:0:0:0:
160,104,103754,1,2,0:0:0:0:
216,48,104004,1,0,0:0:0:0:
140,24,104254,1,2,0:0:0:0:
84,80,104504,1,0,0:0:0:0:
84,80,104754,6,0,B|68:144|128:176|128:176|128:224,1,160,8|0,0:0|0:0,0:0:0:0:
128,300,105504,1,0,0:0:0:0:
208,300,105754,2,0,B|292:300,2,80,2|0|2,0:0|0:0|0:0,0:0:0:0:
48,300,106754,5,8,0:0:0:0:
48,300,107004,1,0,0:0:0:0:
48,300,107254,2,0,B|48:220,1,80,2|0,0:0|0:0,0:0:0:0:
48,140,107754,1,2,0:0:0:0:
48,140,108004,1,0,0:0:0:0:
48,140,108254,2,0,B|128:140,1,80,2|0,0:0|0:0,0:0:0:0:
208,140,108754,6,0,B|248:160|256:200|256:200|264:160|304:140,2,160,8|2|2,0:0|0:0|0:0,0:0:0:0:
176,216,110004,1,0,0:0:0:0:
218,284,110254,2,0,B|256:300|295:284,1,80,2|0,0:0|0:0,0:0:0:0:
368,248,110754,6,0,B|384:332,2,80,8|0|2,0:0|0:0|0:0,0:0:0:0:
336,92,111754,1,2,0:0:0:0:
176,92,112254,1,2,0:0:0:0:
256,192,112754,12,0,116504,0:0:0:0:
256,192,116754,12,10,119254,0:0:0:0:
