osu file format v12

[General]
AudioFilename: Back to Dream.mp3
AudioLeadIn: 1000
PreviewTime: 77754
Countdown: 0
SampleSet: Soft
StackLeniency: 0.5
Mode: 0
LetterboxInBreaks: 0

[Editor]
DistanceSpacing: 1
BeatDivisor: 4
GridSize: 4

[Metadata]
Title:Back to Dream
TitleUnicode:回梦游仙
Artist:Pal4 Music Team
ArtistUnicode:Pal4 Music Team
Creator:jonathanlfj
Version:Fairy
Source:Chinese Paladin 4
Tags:The Legend of Fairy and Sword IV Pal xianjian Steph De Chine
BeatmapID:177875
BeatmapSetID:59325

[Difficulty]
HPDrainRate:3
CircleSize:3
OverallDifficulty:3
ApproachRate:4
SliderMultiplier:1.2
SliderTickRate:1

[Events]
//Background and Video events
0,0,"BG.jpg",0,0
//Break Periods
2,36454,37434
//Storyboard Layer 0 (Background)
//Storyboard Layer 1 (Fail)
//Storyboard Layer 2 (Pass)
//Storyboard Layer 3 (Foreground)
//Storyboard Sound Samples
//Background Colour Transformations
3,100,163,162,255

[TimingPoints]
754,500,4,2,1,20,1,0
1754,-100,4,2,1,40,0,0
2754,-100,4,2,1,60,0,0
9754,-100,4,2,1,40,0,0
10754,-100,4,2,1,60,0,0
17254,-100,4,2,1,30,0,0
18754,-100,4,2,1,60,0,0
25254,-100,4,2,1,30,0,0
25754,-100,4,2,1,40,0,0
26754,-100,4,2,1,60,0,0
32754,-100,4,2,1,50,0,0
33754,-100,4,2,1,40,0,0
34754,-100,4,2,1,30,0,0
35754,-100,4,2,1,20,0,0
38504,-125,4,2,1,50,0,0
53254,-125,4,2,1,40,0,0
53754,-125,4,2,1,30,0,0
54254,-125,4,2,1,20,0,0
54504,-125,4,2,1,50,0,0
67254,-125,4,2,1,40,0,0
67754,-125,4,2,1,30,0,0
68254,-125,4,2,1,20,0,0
68754,-125,4,2,1,10,0,0
69254,-125,4,2,1,5,0,0
70754,-125,4,2,1,10,0,0
71754,-125,4,2,1,15,0,0
72754,-125,4,2,1,20,0,0
73754,-125,4,2,1,25,0,0
74754,-125,4,2,1,30,0,0
75754,-125,4,2,1,35,0,0
76754,-125,4,2,1,40,0,0
77754,-125,4,2,1,50,0,0
78754,-100,4,2,1,60,0,1
93254,-100,4,2,1,40,0,1
94754,-100,4,2,1,60,0,1
108754,-100,4,2,1,50,0,1
110754,-100,4,2,1,40,0,1
112754,-125,4,2,1,5,0,0
119254,-125,4,2,1,10,0,0

[Colours]
Combo1 : 128,255,194
Combo2 : 96,237,249
Combo3 : 36,156,255
SliderBorder : 193,255,238

[HitObjects]
52,276,754,38,0,B|40:240|48:208,3,60,2|2|2|2,0:0|0:0|0:0|0:0,0:0:0:0:
64,160,1754,2,0,B|120:132|180:160,1,120,2|2,0:0|0:0,0:0:0:0:
280,224,2754,6,0,B|340:252|396:224,1,120,4|0,0:0|0:0,0:0:0:0:
340,116,3754,2,0,B|340:52,2,60,2|0|2,0:0|0:0|0:0,0:0:0:0:
220,120,4754,2,0,B|164:148|156:216,1,120,8|0,0:0|0:0,0:0:0:0:
192,332,5754,1,2,0:0:0:0:
280,252,6254,1,2,0:0:0:0:
372,332,6754,6,0,B|412:284|396:220|396:220|444:176,1,180,8|0,0:0|0:0,0:0:0:0:
484,136,7754,2,0,B|480:72|416:40,2,120,2|2|8,0:0|0:0|0:0,0:0:0:0:
248,92,9754,2,0,B|252:156|316:188,1,120,2|2,0:0|0:0,0:0:0:0:
228,272,10754,6,0,B|184:316,2,60,8|0|2,0:0|0:0|0:0,0:0:0:0:
344,300,11754,1,2,0:0:0:0:
428,212,12254,1,2,0:0:0:0:
380,100,12754,2,0,B|344:48|276:52,1,120,8|0,0:0|0:0,0:0:0:0:
156,44,13754,2,0,B|92:68|80:132,1,120,2|2,0:0|0:0,0:0:0:0:
196,156,14754,6,0,B|228:216|196:280,2,120,8|0|2,0:0|0:0|0:0,0:0:0:0:
96,220,16254,2,0,B|64:276|96:340,1,120,2|8,0:0|0:0,0:0:0:0:
212,336,17254,2,0,B|240:352|276:348,2,60,2|2|2,0:0|0:0|0:0,0:0:0:0:
212,276,18004,2,0,B|236:248|236:216,2,60,2|2|2,0:0|0:0|0:0,0:0:0:0:
152,276,18754,6,0,B|76:276|48:212,1,120,4|0,0:0|0:0,0:0:0:0:
152,152,19754,1,2,0:0:0:0:
256,212,20254,1,2,0:0:0:0:
256,92,20754,2,0,B|328:92|356:152,1,120,8|0,0:0|0:0,0:0:0:0:
356,268,21754,2,0,B|356:332,2,60,2|0|2,0:0|0:0|0:0,0:0:0:0:
476,264,22754,6,0,B|476:188|476:188|424:160|420:100,1,180,8|0,0:0|0:0,0:0:0:0:
440,48,23754,2,0,B|384:12|324:48,2,120,2|2|8,0:0|0:0|0:0,0:0:0:0:
384,152,25254,1,2,0:0:0:0:
440,256,25754,2,0,B|384:284|324:256,1,120,2|2,0:0|0:0,0:0:0:0:
204,256,26754,6,0,B|144:284|88:256,1,120,4|0,0:0|0:0,0:0:0:0:
148,152,27754,2,0,B|148:84,2,60,2|0|2,0:0|0:0|0:0,0:0:0:0:
268,152,28754,2,0,B|328:124|384:152|384:152|384:88,1,180,8|0,0:0|0:0,0:0:0:0:
384,32,29754,1,2,0:0:0:0:
488,92,30254,1,2,0:0:0:0:
488,208,30754,5,8,0:0:0:0:
488,268,31004,1,0,0:0:0:0:
488,328,31254,1,2,0:0:0:0:
368,328,31754,1,8,0:0:0:0:
368,268,32004,1,0,0:0:0:0:
368,208,32254,1,2,0:0:0:0:
248,208,32754,6,0,B|256:236|248:268,2,60,8|0|2,0:0|0:0|0:0,0:0:0:0:
220,92,33754,2,0,B|252:84|280:92,2,60,8|0|2,0:0|0:0|0:0,0:0:0:0:
104,120,34754,6,0,B|96:88|104:60,2,60,8|0|2,0:0|0:0|0:0,0:0:0:0:
132,236,35754,2,0,B|104:244|72:236,2,60,8|0|2,0:0|0:0|0:0,0:0:0:0:
304,108,38754,6,0,B|352:80|408:100,1,96,8|0,0:0|0:0,0:0:0:0:
468,160,39754,1,2,0:0:0:0:
428,248,40254,1,2,0:0:0:0:
332,236,40754,2,0,B|328:296|376:328,2,96,8|0|0,0:0|0:0|0:0,0:0:0:0:
372,148,42254,1,0,0:0:0:0:
284,104,42754,5,8,0:0:0:0:
244,192,43254,1,2,0:0:0:0:
148,180,43754,1,2,0:0:0:0:
128,88,44254,1,2,0:0:0:0:
212,40,44754,2,0,B|252:0|312:12,2,96,8|0|0,0:0|0:0|0:0,0:0:0:0:
128,88,46254,1,0,0:0:0:0:
52,148,46754,6,0,B|32:196|52:244,1,96,8|0,0:0|0:0,0:0:0:0:
120,308,47754,1,2,0:0:0:0:
212,280,48254,1,2,0:0:0:0:
288,340,48754,2,0,B|336:360|388:340,2,96,8|0|2,0:0|0:0|0:0,0:0:0:0:
336,256,50254,1,0,0:0:0:0:
288,172,50754,6,0,B|336:152|384:172,1,96,8|0,0:0|0:0,0:0:0:0:
380,76,51754,2,0,B|336:92|280:72,1,96,2|0,0:0|0:0,0:0:0:0:
204,20,52754,1,8,0:0:0:0:
152,100,53254,1,2,0:0:0:0:
68,52,53754,1,2,0:0:0:0:
20,136,54254,1,2,0:0:0:0:
104,184,54754,6,0,B|112:240|160:264,1,96,8|0,0:0|0:0,0:0:0:0:
248,280,55754,1,2,0:0:0:0:
248,184,56254,1,2,0:0:0:0:
340,160,56754,2,0,B|392:152|432:192,2,96,8|0|0,0:0|0:0|0:0,0:0:0:0:
356,256,58254,1,2,0:0:0:0:
268,300,58754,5,8,0:0:0:0:
200,232,59254,1,2,0:0:0:0:
244,148,59754,1,2,0:0:0:0:
340,160,60254,1,2,0:0:0:0:
356,256,60754,2,0,B|408:248|432:196,1,96,8|0,0:0|0:0,0:0:0:0:
472,112,61754,2,0,B|384:72,1,96,0|0,0:0|0:0,0:0:0:0:
288,72,62754,6,0,B|236:84|216:136,1,96,8|0,0:0|0:0,0:0:0:0:
236,228,63754,1,2,0:0:0:0:
180,304,64254,1,2,0:0:0:0:
84,316,64754,2,0,B|32:296|24:232,1,96,8|0,0:0|0:0,0:0:0:0:
120,228,65754,2,0,B|164:192|160:136,1,96,2|0,0:0|0:0,0:0:0:0:
104,68,66754,5,8,0:0:0:0:
200,56,67254,1,2,0:0:0:0:
256,136,67754,2,0,B|352:136,2,96,2|2|8,0:0|0:0|0:0,0:0:0:0:
256,232,69254,2,0,B|156:232,2,96,2|2|0,0:0|0:0|0:0,0:0:0:0:
352,232,70754,5,8,0:0:0:0:
448,232,71254,1,2,0:0:0:0:
448,136,71754,1,2,0:0:0:0:
352,136,72254,1,2,0:0:0:0:
256,136,72754,2,0,B|156:136,1,96,8|2,0:0|0:0,0:0:0:0:
160,40,73754,2,0,B|260:40,1,96,2|2,0:0|0:0,0:0:0:0:
256,136,74754,5,8,0:0:0:0:
176,192,75254,1,2,0:0:0:0:
208,284,75754,1,2,0:0:0:0:
304,284,76254,1,2,0:0:0:0:
336,192,76754,2,0,B|368:152|352:100,1,96,8|2,0:0|0:0,0:0:0:0:
448,92,77754,2,0,B|448:144|484:180,1,96,2|2,0:0|0:0,0:0:0:0:
440,292,78754,6,0,B|396:344|320:332,1,120,4|0,0:0|0:0,0:0:0:0:
232,268,79754,2,0,B|216:208|252:152,1,120,2|2,0:0|0:0,0:0:0:0:
352,88,80754,2,0,B|316:36|248:36,1,120,8|0,0:0|0:0,0:0:0:0:
128,36,81754,2,0,B|60:36|28:96,1,120,2|2,0:0|0:0,0:0:0:0:
132,156,82754,6,0,B|188:192|244:156|244:156|244:224,1,180,8|0,0:0|0:0,0:0:0:0:
244,276,83754,2,0,B|188:312|132:276,2,120,2|2|8,0:0|0:0|0:0,0:0:0:0:
460,168,85754,1,2,0:0:0:0:
468,48,86254,1,2,0:0:0:0:
360,100,86754,6,0,B|328:156|352:216,1,120,8|0,0:0|0:0,0:0:0:0:
448,284,87754,1,2,0:0:0:0:
340,332,88254,1,2,0:0:0:0:
224,360,88754,2,0,B|156:368|112:324,1,120,8|0,0:0|0:0,0:0:0:0:
88,208,89754,2,0,B|156:200|200:244,1,120,2|2,0:0|0:0,0:0:0:0:
312,200,90754,6,0,B|344:144|312:80,2,120,8|0|2,0:0|0:0|0:0,0:0:0:0:
208,140,92254,1,2,0:0:0:0:
108,208,92754,1,8,0:0:0:0:
184,300,93254,2,0,B|224:344,2,60,2|2|2,0:0|0:0|0:0,0:0:0:0:
144,256,94004,2,0,B|96:296,2,60,2|2|2,0:0|0:0|0:0,0:0:0:0:
188,216,94754,6,0,B|228:164|296:168,1,120,4|0,0:0|0:0,0:0:0:0:
284,288,95754,1,2,0:0:0:0:
396,244,96254,1,2,0:0:0:0:
416,124,96754,2,0,B|392:64|324:48,1,120,8|0,0:0|0:0,0:0:0:0:
208,48,97754,2,0,B|152:80|148:148,1,120,2|2,0:0|0:0,0:0:0:0:
268,152,98754,6,0,B|276:216|224:256|224:256|160:216,1,180,8|0,0:0|0:0,0:0:0:0:
120,192,99754,2,0,B|64:228|68:296,2,120,2|2|8,0:0|0:0|0:0,0:0:0:0:
328,72,101754,1,2,0:0:0:0:
448,72,102254,1,2,0:0:0:0:
388,176,102754,6,0,B|388:236,2,60,4|0|0,0:0|0:0|0:0,0:0:0:0:
268,176,103754,1,2,0:0:0:0:
268,296,104254,1,2,0:0:0:0:
148,296,104754,2,0,B|88:324|32:296|32:296|32:236,1,180,8|0,0:0|0:0,0:0:0:0:
32,176,105754,2,0,B|32:116,2,60,2|0|2,0:0|0:0|0:0,0:0:0:0:
152,184,106754,6,0,B|152:252,2,60,8|0|2,0:0|0:0|0:0,0:0:0:0:
256,124,107754,2,0,B|256:56,2,60,2|0|2,0:0|0:0|0:0,0:0:0:0:
360,184,108754,2,0,B|420:216|476:184,2,120,8|2|2,0:0|0:0|0:0,0:0:0:0:
256,244,110254,1,0,0:0:0:0:
152,184,110754,6,0,B|76:184,2,60,8|0|2,0:0|0:0|0:0,0:0:0:0:
256,124,111754,1,2,0:0:0:0:
256,244,112254,1,2,0:0:0:0:
256,192,112754,12,0,116504,0:0:0:0:
256,192,116754,12,8,119254,0:0:0:0:
