osu file format v12

[General]
AudioFilename: Back to Dream.mp3
AudioLeadIn: 1000
PreviewTime: 77754
Countdown: 0
SampleSet: Soft
StackLeniency: 0.5
Mode: 0
LetterboxInBreaks: 0

[Editor]
DistanceSpacing: 1
BeatDivisor: 4
GridSize: 4

[Metadata]
Title:Back to Dream
TitleUnicode:回梦游仙
Artist:Pal4 Music Team
ArtistUnicode:Pal4 Music Team
Creator:jonathanlfj
Version:Dream
Source:Chinese Paladin 4
Tags:The Legend of Fairy and Sword IV Pal xianjian Steph De Chine
BeatmapID:177874
BeatmapSetID:59325

[Difficulty]
HPDrainRate:6
CircleSize:4
OverallDifficulty:6
ApproachRate:8
SliderMultiplier:2
SliderTickRate:1

[Events]
//Background and Video events
0,0,"BG.jpg",0,0
//Break Periods
//Storyboard Layer 0 (Background)
//Storyboard Layer 1 (Fail)
//Storyboard Layer 2 (Pass)
//Storyboard Layer 3 (Foreground)
//Storyboard Sound Samples
//Background Colour Transformations
3,100,163,162,255

[TimingPoints]
754,500,4,2,1,20,1,0
1754,-100,4,2,1,40,0,0
2754,-100,4,2,1,60,0,0
9004,-100,4,2,1,45,0,0
9254,-100,4,2,1,30,0,0
9504,-100,4,2,1,15,0,0
9754,-100,4,2,1,40,0,0
10754,-100,4,2,1,60,0,0
17254,-100,4,2,1,30,0,0
18754,-100,4,2,1,60,0,0
25004,-100,4,2,1,45,0,0
25254,-100,4,2,1,30,0,0
25504,-100,4,2,1,15,0,0
25754,-100,4,2,1,40,0,0
26754,-100,4,2,1,60,0,0
32754,-100,4,2,1,50,0,0
33754,-111.111111111111,4,2,1,40,0,0
34754,-125,4,2,1,30,0,0
35754,-100,4,2,1,20,0,0
36504,-100,4,2,1,15,0,0
37254,-100,4,2,1,10,0,0
38004,-100,4,2,1,5,0,0
38504,-125,4,2,1,50,0,0
53254,-125,4,2,1,40,0,0
53754,-125,4,2,1,30,0,0
54254,-125,4,2,1,20,0,0
54504,-125,4,2,1,50,0,0
67254,-125,4,2,1,40,0,0
67754,-125,4,2,1,30,0,0
68254,-125,4,2,1,20,0,0
68754,-125,4,2,1,10,0,0
69254,-125,4,2,1,5,0,0
70754,-125,4,2,1,10,0,0
71754,-125,4,2,1,15,0,0
72754,-125,4,2,1,20,0,0
73754,-125,4,2,1,25,0,0
74754,-125,4,2,1,30,0,0
75754,-125,4,2,1,35,0,0
76754,-125,4,2,1,40,0,0
77754,-100,4,2,1,50,0,0
78754,-83.3333333333333,4,2,1,60,0,1
93254,-83.3333333333333,4,2,1,40,0,1
94754,-83.3333333333333,4,2,1,60,0,1
108754,-83.3333333333333,4,2,1,50,0,1
110754,-83.3333333333333,4,2,1,40,0,1
112754,-125,4,2,1,30,0,0
116254,-125,4,2,1,5,0,0
119254,-125,4,2,1,10,0,0

[Colours]
Combo1 : 128,255,194
Combo2 : 96,237,249
Combo3 : 36,156,255
SliderBorder : 193,255,238

[HitObjects]
256,112,754,37,2,0:0:0:0:
380,64,1004,1,2,0:0:0:0:
360,196,1254,1,2,0:0:0:0:
304,52,1504,1,2,0:0:0:0:
408,136,1754,2,0,B|456:108|456:52,2,100,2|0|2,0:0|0:0|0:0,0:0:0:0:
284,184,2504,1,0,0:0:0:0:
288,224,2629,1,0,0:0:0:0:
312,256,2754,6,0,B|336:304|296:348|296:348|192:328,1,200,4|0,0:0|0:0,0:0:0:0:
100,308,3504,1,0,0:0:0:0:
168,236,3754,2,0,B|204:192|180:136,2,100,2|0|2,0:0|0:0|0:0,0:0:0:0:
84,180,4504,1,0,0:0:0:0:
92,80,4754,6,0,B|128:20|224:16|268:72,1,200,8|0,0:0|0:0,0:0:0:0:
316,156,5504,1,0,0:0:0:0:
412,124,5754,2,0,B|484:40,1,100,2|0,0:0|0:0,0:0:0:0:
392,220,6254,2,0,B|324:308,1,100,2|0,0:0|0:0,0:0:0:0:
300,336,6629,1,0,0:0:0:0:
252,336,6754,6,0,B|252:264|212:220|172:264|212:308|252:264|252:192,1,200,8|0,0:0|0:0,0:0:0:0:
272,96,7504,1,0,0:0:0:0:
184,52,7754,2,0,B|128:64|112:112|112:112|96:160|36:172,2,200,2|2|8,0:0|0:0|0:0,0:0:0:0:
188,136,9004,5,0,0:0:0:0:
36,88,9254,1,0,0:0:0:0:
72,244,9504,1,0,0:0:0:0:
72,244,9754,2,0,B|96:300|164:292,1,100,2|0,0:0|0:0,0:0:0:0:
248,260,10254,2,0,B|308:244|344:296,1,100,2|0,0:0|0:0,0:0:0:0:
368,328,10629,1,0,0:0:0:0:
416,344,10754,6,0,B|480:340|496:280,1,100,8|0,0:0|0:0,0:0:0:0:
480,192,11254,1,0,0:0:0:0:
408,120,11504,1,0,0:0:0:0:
308,132,11754,2,0,B|312:192|368:212,2,100,2|0|2,0:0|0:0|0:0,0:0:0:0:
344,40,12504,1,0,0:0:0:0:
444,24,12754,6,0,B|508:52|528:136|480:192,1,200,8|0,0:0|0:0,0:0:0:0:
432,280,13504,1,0,0:0:0:0:
408,120,13754,1,2,0:0:0:0:
332,264,14004,1,0,0:0:0:0:
480,192,14254,1,2,0:0:0:0:
316,164,14504,1,0,0:0:0:0:
316,164,14629,1,0,0:0:0:0:
316,164,14754,6,0,B|220:148|220:148|160:156|152:216,2,200,8|0|2,0:0|0:0|0:0,0:0:0:0:
412,188,16004,1,0,0:0:0:0:
412,188,16254,2,0,B|404:245|344:253|344:253|248:237,1,200,2|8,0:0|0:0,0:0:0:0:
156,48,17254,5,2,0:0:0:0:
32,148,17504,1,2,0:0:0:0:
188,112,17754,1,2,0:0:0:0:
32,76,18004,1,2,0:0:0:0:
156,176,18254,1,2,0:0:0:0:
88,32,18504,1,2,0:0:0:0:
88,192,18754,6,0,B|88:284|88:284|148:256|196:296,1,200,4|0,0:0|0:0,0:0:0:0:
248,372,19504,1,0,0:0:0:0:
288,280,19754,2,0,B|336:244|400:276,1,100,2|0,0:0|0:0,0:0:0:0:
448,344,20254,2,0,B|492:308|484:248,1,100,2|0,0:0|0:0,0:0:0:0:
424,176,20754,6,0,B|400:124|440:84|440:84|384:88|352:44,1,200,8|0,0:0|0:0,0:0:0:0:
252,44,21504,1,0,0:0:0:0:
252,44,21754,2,0,B|144:44,2,100,2|0|2,0:0|0:0|0:0,0:0:0:0:
252,144,22504,1,0,0:0:0:0:
252,192,22629,1,0,0:0:0:0:
252,240,22754,6,0,B|220:296|112:296|80:240,1,200,8|0,0:0|0:0,0:0:0:0:
24,156,23504,1,0,0:0:0:0:
24,56,23754,2,0,B|56:0|164:0|196:56,2,200,2|2|8,0:0|0:0|0:0,0:0:0:0:
196,108,25004,5,0,0:0:0:0:
24,156,25254,1,2,0:0:0:0:
196,208,25504,1,0,0:0:0:0:
24,256,25754,2,0,B|100:328,1,100,2|0,0:0|0:0,0:0:0:0:
294,292,26254,2,0,B|196:308,1,100,2|0,0:0|0:0,0:0:0:0:
164,280,26629,1,0,0:0:0:0:
136,252,26754,6,0,B|108:196|148:148,2,100,4|0|0,0:0|0:0|0:0,0:0:0:0:
228,208,27504,1,0,0:0:0:0:
328,208,27754,1,2,0:0:0:0:
428,208,28004,1,0,0:0:0:0:
308,136,28254,1,2,0:0:0:0:
296,276,28504,1,0,0:0:0:0:
436,284,28754,6,0,B|496:272|504:216|504:216|504:120,1,200,8|0,0:0|0:0,0:0:0:0:
504,20,29504,1,0,0:0:0:0:
416,72,29754,2,0,B|324:136,1,100,2|0,0:0|0:0,0:0:0:0:
248,184,30254,2,0,B|248:292,1,100,2|0,0:0|0:0,0:0:0:0:
212,304,30629,1,0,0:0:0:0:
176,324,30754,5,8,0:0:0:0:
84,284,31004,1,0,0:0:0:0:
68,184,31254,1,2,0:0:0:0:
336,60,31754,1,8,0:0:0:0:
428,100,32004,1,0,0:0:0:0:
444,200,32254,1,2,0:0:0:0:
356,324,32754,6,0,B|244:324,1,100,8|0,0:0|0:0,0:0:0:0:
156,324,33254,1,2,0:0:0:0:
164,60,33754,2,0,B|256:60,1,89.9999972534181,8|0,0:0|0:0,0:0:0:0:
344,60,34254,1,2,0:0:0:0:
336,192,34754,6,0,B|252:192,1,80,8|0,0:0|0:0,0:0:0:0:
176,192,35254,1,2,0:0:0:0:
256,120,35754,1,8,0:0:0:0:
256,192,36004,1,0,0:0:0:0:
256,264,36254,1,2,0:0:0:0:
256,192,36504,12,0,38254,0:0:0:0:
148,252,38504,5,0,0:0:0:0:
148,252,38629,1,0,0:0:0:0:
148,252,38754,2,0,B|108:168|160:100,1,160,8|0,0:0|0:0,0:0:0:0:
300,28,39754,1,2,0:0:0:0:
440,108,40254,1,2,0:0:0:0:
304,188,40754,6,0,B|348:260|440:268,2,160,8|0|0,0:0|0:0|0:0,0:0:0:0:
300,28,42254,1,0,0:0:0:0:
56,64,42754,5,8,0:0:0:0:
132,240,43254,1,2,0:0:0:0:
180,56,43754,1,2,0:0:0:0:
32,180,44254,1,2,0:0:0:0:
224,168,44754,6,0,B|308:140|308:36,1,160,8|0,0:0|0:0,0:0:0:0:
468,32,45754,2,0,B|384:60|384:164,1,160,0|0,0:0|0:0,0:0:0:0:
424,224,46504,1,0,0:0:0:0:
436,264,46629,1,0,0:0:0:0:
432,304,46754,6,0,B|376:372|272:348,1,160,8|0,0:0|0:0,0:0:0:0:
168,244,47754,1,2,0:0:0:0:
32,328,48254,1,2,0:0:0:0:
192,340,48754,6,0,B|276:300|260:208,2,160,8|0|2,0:0|0:0|0:0,0:0:0:0:
104,204,50254,1,0,0:0:0:0:
60,136,50504,1,0,0:0:0:0:
56,96,50629,1,0,0:0:0:0:
72,60,50754,6,0,B|124:24|176:60|176:60|228:60,1,160,8|0,0:0|0:0,0:0:0:0:
340,172,51754,2,0,B|288:208|236:172|236:172|184:172,1,160,2|0,0:0|0:0,0:0:0:0:
108,172,52504,1,0,0:0:0:0:
108,212,52629,1,0,0:0:0:0:
108,252,52754,5,8,0:0:0:0:
292,192,53254,1,2,0:0:0:0:
64,128,53754,1,2,0:0:0:0:
320,320,54254,1,2,0:0:0:0:
400,320,54504,1,0,0:0:0:0:
436,308,54629,1,0,0:0:0:0:
464,280,54754,6,0,B|448:220|448:220|388:212|376:144,1,160,8|0,0:0|0:0,0:0:0:0:
508,64,55754,1,2,0:0:0:0:
356,16,56254,1,2,0:0:0:0:
224,108,56754,6,0,B|196:132|152:124|152:124|108:116|72:144,2,160,8|0|0,0:0|0:0|0:0,0:0:0:0:
136,240,58254,1,2,0:0:0:0:
256,348,58754,5,8,0:0:0:0:
480,192,59254,1,2,0:0:0:0:
256,32,59754,1,2,0:0:0:0:
32,192,60254,1,2,0:0:0:0:
256,192,60754,6,0,B|336:236|408:192,1,160,8|0,0:0|0:0,0:0:0:0:
332,52,61754,2,0,B|252:8|180:52,1,160,0|0,0:0|0:0,0:0:0:0:
124,108,62504,1,0,0:0:0:0:
124,108,62629,1,0,0:0:0:0:
124,108,62754,6,0,B|144:168|144:168|96:196|96:264,1,160,8|0,0:0|0:0,0:0:0:0:
256,328,63754,1,2,0:0:0:0:
414,248,64254,1,2,0:0:0:0:
488,72,64754,6,0,B|408:36|332:76,1,160,8|0,0:0|0:0,0:0:0:0:
344,232,65754,2,0,B|268:272|188:228,1,160,2|0,0:0|0:0,0:0:0:0:
188,148,66504,1,0,0:0:0:0:
188,108,66629,1,0,0:0:0:0:
188,68,66754,5,8,0:0:0:0:
324,68,67254,1,2,0:0:0:0:
120,68,67754,1,2,0:0:0:0:
392,68,68254,1,2,0:0:0:0:
256,68,68754,5,8,0:0:0:0:
256,192,69254,2,0,B|244:244|204:272|204:272|244:300|256:352|256:352|268:300|308:272|308:272|292:264|280:244,1,320,2|0,0:0|0:0,0:0:0:0:
256,96,70754,5,8,0:0:0:0:
128,192,71254,1,2,0:0:0:0:
256,288,71754,1,2,0:0:0:0:
384,192,72254,1,2,0:0:0:0:
256,16,72754,5,8,0:0:0:0:
48,192,73254,1,2,0:0:0:0:
256,368,73754,1,2,0:0:0:0:
464,192,74254,1,2,0:0:0:0:
256,28,74754,5,8,0:0:0:0:
317,342,75254,1,2,0:0:0:0:
128,85,75754,1,2,0:0:0:0:
410,234,76254,1,2,0:0:0:0:
90,223,76754,5,8,0:0:0:0:
382,93,77254,1,2,0:0:0:0:
177,336,77754,2,0,P|256:385|340:336,1,200,2|2,0:0|0:0,0:0:0:0:
408,236,78504,1,0,0:0:0:0:
408,236,78629,1,0,0:0:0:0:
408,236,78754,6,0,B|396:176|328:160|328:160|260:144|248:76,1,240.000005722046,4|0,0:0|0:0,0:0:0:0:
364,44,79504,1,0,0:0:0:0:
460,116,79754,2,0,B|504:64|480:0,2,120.000002861023,2|0|2,0:0|0:0|0:0,0:0:0:0:
344,152,80504,1,0,0:0:0:0:
376,268,80754,6,0,B|348:328|272:320|272:320|240:204,1,240.000005722046,8|0,0:0|0:0,0:0:0:0:
216,92,81504,1,0,0:0:0:0:
332,68,81754,2,0,B|448:116,1,119.999996337891,2|0,0:0|0:0,0:0:0:0:
216,92,82254,2,0,B|100:44,1,120.000002861023,2|0,0:0|0:0,0:0:0:0:
60,28,82629,1,0,0:0:0:0:
24,60,82754,6,0,B|56:112|28:176|28:176|96:160|144:204,1,240.000005722046,8|0,0:0|0:0,0:0:0:0:
172,316,83504,1,0,0:0:0:0:
56,280,83754,2,0,B|60:136|200:92,2,240.000005722046,2|2|8,0:0|0:0|0:0,0:0:0:0:
224,256,85004,5,0,0:0:0:0:
360,156,85254,1,0,0:0:0:0:
380,324,85504,1,0,0:0:0:0:
380,324,85754,2,0,B|432:368|504:340,1,120.000002861023,2|0,0:0|0:0,0:0:0:0:
452,232,86254,2,0,B|396:184|328:216,1,120.000002861023,2|0,0:0|0:0,0:0:0:0:
296,228,86629,1,0,0:0:0:0:
248,224,86754,6,0,B|184:192|192:116,1,120.000002861023,8|0,0:0|0:0,0:0:0:0:
312,128,87254,1,0,0:0:0:0:
252,24,87504,1,0,0:0:0:0:
372,24,87754,2,0,B|436:52|436:124,2,120.000002861023,2|0|2,0:0|0:0|0:0,0:0:0:0:
312,128,88504,1,0,0:0:0:0:
380,228,88754,6,0,B|404:284|364:336|364:336|232:344,1,239.999992675781,8|0,0:0|0:0,0:0:0:0:
120,352,89504,1,0,0:0:0:0:
4,236,89754,1,2,0:0:0:0:
168,264,90004,1,0,0:0:0:0:
20,336,90254,1,2,0:0:0:0:
96,192,90504,1,0,0:0:0:0:
96,192,90629,1,0,0:0:0:0:
96,192,90754,6,0,B|136:156|200:156|240:192|240:192|320:148,2,240.000005722046,8|0|2,0:0|0:0|0:0,0:0:0:0:
4,268,92004,1,0,0:0:0:0:
96,348,92254,2,0,B|169:307|169:307|209:343|273:343|313:307,1,240.000005722046,2|8,0:0|0:0,0:0:0:0:
457,27,93254,5,2,0:0:0:0:
308,147,93504,1,2,0:0:0:0:
496,104,93754,1,2,0:0:0:0:
308,60,94004,1,2,0:0:0:0:
457,180,94254,1,2,0:0:0:0:
376,8,94504,1,2,0:0:0:0:
376,200,94754,6,0,B|308:272|196:204|228:116,1,239.999992675781,4|0,0:0|0:0,0:0:0:0:
388,80,95504,1,0,0:0:0:0:
457,180,95754,2,0,B|463:252|400:280,1,119.999996337891,2|0,0:0|0:0,0:0:0:0:
256,244,96254,2,0,B|250:172|313:144,1,119.999996337891,2|0,0:0|0:0,0:0:0:0:
388,80,96754,6,0,B|344:36|276:48|276:48|232:96|168:72,1,239.999992675781,8|0,0:0|0:0,0:0:0:0:
64,12,97504,1,0,0:0:0:0:
8,120,97754,2,0,B|8:240,2,120.000002861023,2|0|2,0:0|0:0|0:0,0:0:0:0:
128,120,98504,1,0,0:0:0:0:
128,168,98629,1,0,0:0:0:0:
128,216,98754,6,0,B|176:292|280:292|328:216,1,240.000005722046,8|0,0:0|0:0,0:0:0:0:
228,148,99504,1,0,0:0:0:0:
228,148,99754,2,0,B|276:72|380:72|428:148,2,240.000005722046,2|2|8,0:0|0:0|0:0,0:0:0:0:
328,216,101004,5,0,0:0:0:0:
228,280,101254,1,0,0:0:0:0:
428,148,101504,1,0,0:0:0:0:
328,216,101754,2,0,B|400:312,1,119.999996337891,2|0,0:0|0:0,0:0:0:0:
228,280,102254,2,0,B|152:184,1,119.999996337891,2|0,0:0|0:0,0:0:0:0:
122,147,102629,1,0,0:0:0:0:
92,108,102754,6,0,B|20:116|0:184,2,120.000002861023,4|0|0,0:0|0:0|0:0,0:0:0:0:
208,144,103504,1,0,0:0:0:0:
312,84,103754,1,2,0:0:0:0:
168,72,104004,1,0,0:0:0:0:
360,152,104254,1,2,0:0:0:0:
256,332,104504,1,0,0:0:0:0:
356,268,104754,6,0,B|300:200|192:208|152:280,1,239.999992675781,8|0,0:0|0:0,0:0:0:0:
60,360,105504,1,0,0:0:0:0:
36,244,105754,2,0,B|116:152,1,119.999996337891,2|0,0:0|0:0,0:0:0:0:
220,92,106254,2,0,B|364:92,1,120.000002861023,2|0,0:0|0:0,0:0:0:0:
388,92,106629,1,0,0:0:0:0:
436,92,106754,5,8,0:0:0:0:
504,192,107004,1,0,0:0:0:0:
448,296,107254,2,0,B|392:328|332:296,1,119.999996337891,2|0,0:0|0:0,0:0:0:0:
240,224,107754,1,2,0:0:0:0:
136,284,108004,1,0,0:0:0:0:
344,160,108254,2,0,B|308:104|240:104,1,119.999996337891,2|0,0:0|0:0,0:0:0:0:
136,164,108754,5,8,0:0:0:0:
136,44,109004,1,0,0:0:0:0:
136,164,109254,2,0,B|16:164,1,120.000002861023,2|0,0:0|0:0,0:0:0:0:
136,284,109754,1,2,0:0:0:0:
256,284,110004,1,0,0:0:0:0:
364,336,110254,2,0,B|396:276|360:220,1,120.000002861023,2|0,0:0|0:0,0:0:0:0:
256,148,110754,6,0,B|256:20,2,120.000002861023,8|0|2,0:0|0:0|0:0,0:0:0:0:
256,284,111504,1,0,0:0:0:0:
440,284,111754,1,2,0:0:0:0:
72,284,112254,1,2,0:0:0:0:
220,380,112754,6,0,B|232:352|232:352|232:304|232:304|168:312|168:312|140:284|140:284|168:260|168:260|232:268|232:268|204:80|204:80|256:12|256:12|308:80|308:80|280:268|280:268|344:260|344:260|372:284|372:284|344:312|344:312|280:304|280:304|280:352|280:352|292:380,1,1120,8|0,0:0|0:0,0:0:0:0:
256,192,116754,12,10,119254,0:0:0:0:
