osu file format v5

[General]
AudioFilename: back to dream.mp3
AudioLeadIn: 3000
PreviewTime: -1
Countdown: 0
SampleSet: Soft
StackLeniency: 0.7
Mode: 0
LetterboxInBreaks: 1

[Metadata]
Title:Back to Dream
Artist:Pal4 music team
Creator:osu_CN_yaya
Version:Hard
Source:
Tags:Pal4

[Difficulty]
HPDrainRate:10
CircleSize:5
OverallDifficulty:4
SliderMultiplier:1.2
SliderTickRate:1

[Events]
//Background and Video events
0,0,"1234321.jpg"
//Break Periods
2,35880,37360
2,108899,110760
//Storyboard Layer 0 (Background)
//Storyboard Layer 1 (Failing)
//Storyboard Layer 2 (Passing)
//Storyboard Layer 3 (Foreground)
//Storyboard Sound Samples
//Background Colour Transformations
3,100,255,255,255

[TimingPoints]
1180,500,4,2,1,100,1
1930,500,4,2,1,100,0
17180,500,4,1,1,63,0
18680,500,4,2,1,100,0
30680,500,4,1,1,0,0
35805,500,4,2,1,100,0
60680,500,4,1,1,0,0
62430,500,4,2,1,100,0
64680,1000,4,2,1,100,1
65680,500,4,2,1,100,1
66680,1000,4,2,1,100,1
70180,500,4,2,1,100,1
70680,500,4,1,1,0,0
71180,500,4,1,1,9,0
71680,500,4,1,1,19,0
72180,500,4,1,1,30,0
72680,500,4,1,1,41,0
73180,500,4,1,1,49,0
73680,500,4,1,1,59,0
74180,500,4,1,1,69,0
74670,500,4,1,1,79,0
75180,500,4,1,1,86,0
75670,500,4,1,1,93,0
76180,500,4,1,1,100,0
77680,500,4,2,1,100,0
78930,500,4,1,1,100,0
79680,500,4,2,1,100,0
80930,500,4,1,1,100,0
81680,500,4,2,1,100,0
83680,500,4,1,1,100,0
84680,500,4,2,1,100,0
89680,500,4,1,1,100,0
90680,500,4,2,1,100,0
93680,500,4,2,1,100,0
95675,500,4,2,1,100,0
97680,500,4,2,1,100,0
101680,500,4,2,1,90,0
102180,500,4,2,1,77,0
102680,500,4,2,1,66,0
103180,500,4,2,1,59,0
103680,500,4,2,1,49,0
104180,500,4,2,1,40,0
105430,500,4,2,1,31,0
106180,500,4,1,1,21,0
106680,500,4,2,1,21,1
111680,1000,4,2,1,21,1
112180,500,4,2,1,21,1
112680,500,4,2,1,0,0

[Colours]
Combo1 : 26,166,145
Combo2 : 255,89,60
Combo3 : 255,255,128
Combo4 : 7,156,237

[HitObjects]
64,80,1680,1,0
64,80,1930,1,0
64,80,2180,1,0
64,80,2430,1,0
64,80,2680,2,8,B|32:152|24:200|184:232|192:232,1,240,2|0
186,231,3930,5,0
186,231,4180,1,0
186,231,4430,1,0
186,231,4680,2,0,B|208:288|232:312|272:304|288:280,1,120,2|0
352,280,5680,6,0,L|448:208,1,120,2|0
448,120,6680,1,0
408,120,6930,1,0
368,120,7180,1,0
328,120,7430,1,0
288,120,7680,1,0
200,120,8180,2,0,B|152:88|72:112,1,120,2|0
32,272,9680,5,0
56,240,9930,1,0
80,272,10180,1,0
104,240,10430,1,0
128,272,10680,2,0,B|176:320|232:248,1,120,2|0
312,272,11680,5,0
352,272,11930,1,0
312,272,12180,1,0
352,272,12430,1,0
312,272,12680,2,0,B|248:272|352:168,1,120,2|0
416,160,13680,6,0,B|392:104,1,120,2|0
232,168,14680,1,0
192,168,14930,1,0
216,200,15180,1,0
216,240,15430,1,0
216,280,15680,1,0
296,288,16180,2,4,B|328:192|384:320,1,120,2|8
456,288,17180,5,0
456,248,17430,1,0
456,208,17680,1,0
456,168,17930,1,0
456,128,18180,1,0
456,88,18430,1,0
456,48,18680,1,4
256,32,19680,6,0,L|224:40|256:48|224:56,1,120,2|0
200,144,20680,2,0,B|224:216|304:176,1,120,2|0
336,112,21680,6,0,B|440:160|384:208,1,120,2|0
400,280,22680,1,0
360,280,22930,1,0
320,280,23180,1,0
280,280,23430,2,0,B|232:272|264:224,1,60,2|0
336,232,24180,2,0,B|376:208|264:144,1,120,8|0
128,64,25680,6,0,B|176:64|160:104,1,60,0|0
152,144,26180,2,0,B|192:160|160:176|160:192,2,60,0|0|8
192,144,26930,1,2
232,144,27180,1,2
272,144,27430,1,4
312,144,27680,6,0,B|288:176|320:208,1,60,0|0
312,240,28180,2,0,B|304:288|272:280,2,60,0|0|8
272,240,28930,1,2
232,240,29180,1,2
192,240,29430,2,0,B|128:240|192:208,1,60,2|0
264,192,30180,5,8
256,192,30680,12,0,35680
40,56,38680,6,0,B|32:104|88:136|120:112,1,120,4|2
200,104,39680,2,0,B|144:160|224:232|304:208|344:136,3,240,2|4|0|4
392,72,43180,2,0,B|472:112|464:176,1,120,2|0
384,184,44180,1,0
296,184,44680,1,4
208,184,45180,2,0,B|80:184|80:184|72:184,2,120
120,208,46680,6,0,B|48:272|112:328,1,120,4|0
184,320,47680,2,0,B|208:376|296:320,2,120,0|0|4
184,232,49180,1,0
184,144,49680,1,0
184,56,50180,1,0
264,56,50680,2,0,B|504:64|272:320,1,360,4|0
256,328,52430,1,0
224,304,52680,2,0,B|-8:32|240:48,1,360,4|0
120,48,54680,6,0,B|48:112|136:128,1,120,4|0
224,120,55680,1,2
304,120,56180,1,2
384,120,56680,2,0,B|488:168|424:232,1,120,4|0
424,288,57680,1,2
336,288,58180,1,2
248,288,58680,2,0,B|184:272|296:200,1,120,4|0
376,208,59680,2,0,B|408:176|344:96,1,120
256,192,60680,12,2,62180
128,40,62680,6,0,B|48:80|120:152,1,120,4|0
192,144,63680,1,2
272,144,64180,1,2
352,136,64680,2,0,B|456:160|400:232|400:232|392:224,1,120,4|0
488,192,66680,6,0,B|400:192,1,60
384,192,67680,2,0,B|296:192,1,60
280,192,68680,2,0,B|256:120|304:128,1,60
312,112,69680,2,0,B|344:64|384:96,1,60
472,40,70680,5,0
336,144,71180,1,0
208,248,71680,1,0
72,344,72180,1,0
40,40,72680,5,0
176,144,73180,1,0
312,248,73680,1,0
440,352,74180,1,0
456,192,74680,5,0
256,48,75180,1,0
56,192,75680,1,0
256,328,76180,1,0
256,192,76680,12,0,77180
80,64,77680,6,0,B|24:128|120:296,1,240,4|4
115,288,78930,1,0
115,288,79180,1,0
115,288,79430,1,0
115,288,79680,6,4,B|192:320|144:80,1,240,4|4
144,80,80930,1,8
144,80,81180,1,8
143,78,81430,1,8
143,78,81680,6,4,B|208:96|176:184,1,120,4|0
177,178,82680,2,0,B|168:224|232:200,1,60,4|0
216,208,83180,2,0,B|264:208|232:256,1,60,4|0
238,246,83680,1,8
280,248,83930,1,8
320,248,84180,1,8
280,248,84430,1,8
296,208,84680,6,0,B|184:128,1,120,4|0
128,104,85680,5,0
128,104,85930,1,0
128,104,86180,1,0
128,104,86430,1,0
128,104,86680,2,0,B|72:144|112:216,1,120,2|0
64,280,87680,5,0
64,280,87930,1,0
64,280,88180,1,0
64,280,88430,1,0
64,280,88680,2,0,B|24:192|96:168,1,120,2|0
72,88,89680,6,0,L|64:120|128:192,1,120
208,184,90680,1,2
248,184,90930,1,2
248,144,91180,1,2
208,144,91430,1,2
232,176,91680,1,2
232,256,92180,2,0,B|224:320|336:280,1,120,2|0
328,288,93180,1,4
256,192,93680,5,0
288,168,93930,1,0
320,144,94180,1,0
352,120,94430,1,0
384,96,94680,2,0,B|480:16,1,120,2|0
480,104,95680,5,0
480,144,95930,1,0
480,184,96180,1,0
480,224,96430,1,0
480,264,96680,2,0,B|352:264,1,120,2|0
368,344,97680,6,0,B|336:296|240:352,1,120,4|0
256,344,98680,2,0,B|192:344|192:336,2,60,0|8|8
256,344,99430,1,0
256,344,99680,1,0
168,344,100180,2,0,B|112:304|256:272,1,120,2|0
464,184,101680,6,0,B|504:136|432:160,1,60,8|0
408,176,102180,2,0,B|368:208|336:88,1,120,2|0
304,24,103180,1,2
304,104,103680,6,0,B|264:88|272:136,1,60,8|0
296,168,104180,2,0,B|336:208|256:280,1,120,2|0
176,360,105430,2,4,B|104:360,1,60,2|0
40,352,106180,1,0
40,264,106680,5,8
40,224,106930,1,2
80,224,107180,1,8
80,264,107430,1,2
120,264,107680,1,8
120,224,107930,1,2
152,248,108180,1,4
192,248,108430,1,4
232,248,108680,1,4
288,168,111680,6,0,B|200:200|232:192,1,60,8|0
256,192,112680,12,0,119180
