osu file format v5

[General]
AudioFilename: back to dream.mp3
AudioLeadIn: 3000
PreviewTime: -1
Countdown: 0
SampleSet: Normal
StackLeniency: 0.7
Mode: 0
LetterboxInBreaks: 1

[Metadata]
Title:Back to Dream
Artist:Pal4 music team
Creator:osu_CN_yaya
Version:Easy
Source:
Tags:Pal4

[Difficulty]
HPDrainRate:5
CircleSize:3
OverallDifficulty:3
SliderMultiplier:0.6
SliderTickRate:1

[Events]
//Background and Video events
0,0,"1234321.jpg"
//Break Periods
2,36525,37260
2,108899,110760
//Storyboard Layer 0 (Background)
//Storyboard Layer 1 (Failing)
//Storyboard Layer 2 (Passing)
//Storyboard Layer 3 (Foreground)
//Storyboard Sound Samples
//Background Colour Transformations
3,100,255,255,255

[TimingPoints]
1180,500,4,2,1,100,1
2805,500,4,2,1,100,0
3680,500,4,2,1,100,0
30930,500,4,2,1,0,0
37900,500,4,2,1,100,0
40930,500,4,2,1,79,0
44930,500,4,2,1,79,0
60430,500,4,2,1,0,0
62180,500,4,2,1,100,0
62430,500,4,2,1,100,0
70430,500,4,1,1,0,0
70930,500,4,1,1,9,0
71430,500,4,1,1,20,0
71930,500,4,1,1,31,0
72430,500,4,1,1,50,0
72930,500,4,1,1,55,0
73430,500,4,1,1,50,0
73930,500,4,1,1,60,0
74430,500,4,1,1,65,0
74930,500,4,1,1,73,0
75430,500,4,1,1,80,0
75930,500,4,1,1,86,0
76430,500,4,1,1,90,0
76930,500,4,1,1,95,0
77430,500,4,1,1,100,0
81430,500,4,2,1,100,0
82430,500,4,1,1,100,0
83055,500,4,2,1,100,0
83930,500,4,1,1,100,0
94055,500,4,1,1,100,0
96055,500,4,1,1,100,0
96930,500,4,2,1,100,0
98430,500,4,1,1,100,0
99930,500,4,2,1,100,0
101440,500,4,1,1,89,0
101930,500,4,1,1,81,0
102430,500,4,1,1,80,0
103305,500,4,1,1,71,0
103930,500,4,1,1,60,0
104430,500,4,1,1,50,0
105180,500,4,1,1,39,0
105555,500,4,1,1,31,0
105930,500,4,1,1,21,0
106430,500,4,1,1,10,0
106680,250,4,1,1,10,1
108680,500,4,1,1,10,1
111305,500,4,2,1,10,0
112430,500,4,1,1,0,0

[Colours]
Combo1 : 26,166,145
Combo2 : 255,89,60
Combo3 : 255,255,128
Combo4 : 7,156,237

[HitObjects]
80,64,1680,1,0
160,104,2180,1,0
240,144,2680,2,0,B|358:216|352:208|352:208,1,120,2|0
424,248,4180,1,0
496,296,4680,1,2
432,128,5680,5,0
352,168,6180,1,0
264,144,6680,5,2
144,200,7430,2,0,B|112:216,1,30
192,264,8180,1,0
248,328,8680,1,2
64,312,9680,5,0
104,232,10180,1,0
176,176,10680,2,0,B|192:256|256:256,1,120,2|0
336,240,12180,1,0
408,184,12680,1,2
224,184,13680,6,0,B|288:184,2,60,0|0|2
136,184,15180,1,0
72,120,15680,1,0
136,56,16180,1,0
200,120,16680,1,2
288,120,17180,1,4
288,208,17680,6,0,B|352:208,3,60,0|0|2|0
432,224,19680,2,0,B|432:296,3,60,0|0|2|0
360,336,21680,5,2
288,280,22180,1,0
216,224,22680,1,2
88,184,23430,2,0,B|88:152,1,30,0|0
152,88,24180,1,0
216,24,24680,1,0
40,56,25680,6,0,B|104:56,2,60,2|0|0
216,56,27680,2,0,B|88:56,1,120,2|0
96,120,29430,2,0,B|128:120,1,30,2|0
168,120,30180,1,0
208,120,30680,1,4
256,192,31180,12,0,36305
80,80,38680,6,0,B|144:48|144:48|144:48,1,60,4|0
224,48,39680,2,0,B|224:112,2,60,0|0|4
304,80,41180,1,2
352,152,41680,1,2
400,224,42180,1,2
376,312,42680,6,0,B|488:376,2,120,4|0|4
296,264,45180,1,2
216,216,45680,1,2
144,160,46180,1,2
80,88,46680,5,4
256,96,47680,1,0
344,96,48180,1,0
432,96,48680,2,0,B|432:160,1,60,4|0
432,248,49680,2,0,B|368:248,1,60
376,248,50680,5,4
288,248,51180,1,0
200,248,51680,1,0
120,200,52180,1,0
200,152,52680,2,0,B|264:152,3,60,4|0|0|0
288,64,54680,6,0,B|416:96,1,120,4|0
344,160,56180,1,2
264,208,56680,1,6
192,264,57180,2,0,B|240:312,1,60,0|0
320,272,58180,1,0
384,336,58680,2,0,B|336:288,2,60,6|0|0
296,336,60180,1,0
256,192,60680,12,0,62680
400,80,63680,6,0,B|352:128,1,60,2|0
408,200,64680,2,0,B|376:200|376:200|376:232|376:232,1,120,2|0
504,168,66680,2,0,L|496:176|496:176|488:168|480:176|472:168|464:176|456:168|448:176|440:168|432:176|424:168|416:176|408:168|400:176|392:168|384:176|376:168|368:176|360:168|352:176|344:168|336:176|328:168|320:176|312:168|304:176|296:168|288:176|280:168|272:176|264:168|256:176|248:168|240:176|232:168|224:176|216:168|208:176,1,420,4|0
128,128,70680,5,0
128,216,71180,1,0
216,216,71680,1,0
216,128,72180,1,0
304,128,72680,5,0
304,216,73180,1,0
392,216,73680,1,0
392,128,74180,1,0
392,40,74680,5,0
304,40,75180,1,0
304,128,75680,1,0
304,216,76180,1,0
232,272,76680,1,0
256,184,77180,1,0
168,184,77680,6,0,B|232:184,1,60,8|0
224,184,78680,1,4
376,96,79680,2,0,B|376:160,1,60,8|0
288,160,80680,1,4
448,224,81680,5,2
352,224,82180,1,2
256,224,82680,1,4
128,224,83430,1,2
96,192,83680,1,2
112,96,84180,2,0,B|160:96|160:96,1,60
224,264,85680,6,0,B|176:240|176:288,1,60
248,336,86680,1,4
424,320,87680,2,0,B|480:288|448:272,1,60
360,264,88680,1,4
464,136,89680,6,0,B|432:136|432:136|464:152,1,60,8|0
464,240,90680,1,12
376,240,91180,1,4
288,240,91680,1,12
200,240,92180,1,4
112,240,92680,2,4,L|176:208,1,60
256,192,93680,6,0,B|296:192,1,30,0|0
328,192,94180,2,12,B|368:192,2,30,8|0|8
328,8,95680,6,0,B|288:8,1,30,0|0
256,8,96180,2,12,B|216:8,2,30,8|0|8
80,48,97680,5,2
136,112,98180,1,2
192,176,98680,2,4,B|216:200,4,30,0|0|0|8|8
256,240,100180,2,4,B|304:296,1,60
472,304,101680,5,0
472,216,102180,2,0,B|472:144,1,60
328,48,103680,5,0
240,48,104180,2,0,B|168:48,1,60
120,168,105430,1,8
152,200,105680,1,0
208,264,106180,1,0
272,320,106680,2,0,L|304:312|272:304|304:296|272:288|304:280|272:272|304:264|272:256|304:248|272:240|304:232|272:224|304:216|272:208|296:208,1,480
256,192,111680,6,8,L|280:160,1,60
256,192,112680,12,0,118680
