osu file format v9

[General]
AudioFilename: Shao Nian Xing Variation.mp3
AudioLeadIn: 0
PreviewTime: 16500
Countdown: 0
SampleSet: Soft
StackLeniency: 0.7
Mode: 0
LetterboxInBreaks: 0

[Editor]
DistanceSpacing: 1.2
BeatDivisor: 4
GridSize: 8

[Metadata]
Title:Shao Nian Xing Variation
Artist:Pal Music Team
Creator:eveless
Version:Insane
Source:Pal4
Tags:Pal Pal3 Xian jian Xianjian

[Difficulty]
HPDrainRate:7
CircleSize:4
OverallDifficulty:7
ApproachRate:8
SliderMultiplier:1.6
SliderTickRate:1

[Events]
//Background and Video events
0,0,"lingsha.jpg"
//Break Periods
//Storyboard Layer 0 (Background)
//Storyboard Layer 1 (Fail)
//Storyboard Layer 2 (Pass)
//Storyboard Layer 3 (Foreground)
//Storyboard Sound Samples
//Background Colour Transformations
3,100,163,162,255

[TimingPoints]
16500,458.015267175572,4,2,1,70,1,0
21996,-100,4,2,1,70,0,0
22568,-100,4,2,1,70,0,0
64133,-200,4,2,1,70,0,0
65965,-100,4,2,1,70,0,0
67797,-100,4,2,1,80,0,1
75125,-66.6666666666667,4,2,1,90,0,1
77416,-100,4,2,1,80,0,1
77874,-200,4,2,1,70,0,1
79706,-100,4,2,1,60,0,1
80622,-100,4,2,1,70,0,1
81538,-100,4,2,1,75,0,1
82454,-100,4,2,1,80,0,0
97110,-100,4,2,1,60,0,0
98828,-100,4,2,1,50,0,0
99400,-100,4,2,1,40,0,0
100782,-200,4,2,1,35,0,0
102377,-200,4,2,1,30,0,0
102606,495.867768595041,4,2,1,25,1,0
104713,-100,4,2,1,0,0,0

[Colours]
Combo1 : 255,128,192
Combo2 : 128,0,0
Combo3 : 248,199,126
Combo4 : 253,164,164

[HitObjects]
40,192,16500,2,0,B|88:168|168:184,1,120,4|2
184,200,16958,2,0,B|216:216|280:208,1,80,8|2
334,175,17416,1,0
370,103,17645,1,2
332,32,17874,1,8
256,32,18103,1,0
208,96,18332,6,0,B|176:128|136:128|136:128|152:160|120:208,1,160,0|10
88,272,19019,1,0
240,328,19477,2,0,B|248:280|200:256,1,80,2|8
312,352,19935,1,2
392,296,20164,6,0,B|440:256|408:168,1,120,2|0
390,162,20622,1,10
432,96,20851,1,0
376,40,21080,1,0
304,72,21309,1,2
312,152,21538,2,0,B|264:168|224:152,1,80,8|2
80,232,21996,6,0,B|64:296|120:328|120:328|144:312|192:328,1,160,0|10
232,264,22683,1,0
461,308,23141,2,0,B|424:312|384:288,2,80,2|8|2
480,272,23713,1,0
472,232,23828,6,0,B|440:192|448:136,1,80,2|0
400,96,24286,1,8
320,88,24515,1,2
256,136,24744,2,0,B|232:168|152:160|128:136,1,120,0|2
120,120,25202,1,8
144,200,25431,1,2
256,256,25660,6,0,B|248:264|248:264|240:256|240:256|224:264|224:264|208:264|208:264|192:272|192:272|176:272|176:272|168:280,1,80,0|2
312,184,26118,2,0,B|320:176|320:176|328:184|328:184|344:176|344:176|360:176|360:176|376:168|376:168|392:168|392:168|400:160,1,80,10|0
512,208,26576,2,0,B|504:216|504:216|496:208|496:208|480:216|480:216|464:216|464:216|448:224|448:224|432:224|432:224|424:232,1,80,0|2
352,256,27034,1,8
304,336,27263,1,2
304,336,27377,1,0
304,336,27492,6,0,B|264:352|216:328,2,80,0|0|10
352,256,28179,2,0,B|328:176|384:96,1,160,0|2
432,184,28866,1,8
440,280,29095,1,2
368,328,29324,6,0,B|320:272|208:264,1,160,0|10
232,344,30011,2,0,B|320:320|328:208,1,160,0|10
331,195,30583,1,0
320,168,30698,2,0,B|280:176|232:144,1,80,8|2
176,80,31156,5,4
120,160,31385,1,0
112,192,31500,1,0
112,224,31614,1,8
160,304,31843,2,0,B|192:280|256:288,1,80,2|0
328,304,32301,1,2
352,280,32416,1,0
384,272,32530,2,0,B|416:240|416:184,1,80,8|2
336,104,32988,6,0,B|328:152|232:176|184:96,1,160,2|10
264,64,33675,2,0,B|231:4|136:24|127:76,1,160,0|2
124,79,34248,1,0
120,96,34362,2,0,B|120:128|104:152|64:152,1,80,8|2
144,256,34820,6,0,B|144:224|160:200|200:200,1,80,0|2
208,200,35164,1,0
224,208,35278,2,0,B|256:224|296:216|320:184,1,80,8|0
352,128,35736,1,2
440,176,35965,1,2
384,256,36194,1,8
456,320,36423,1,2
456,320,36652,6,0,B|408:320|384:352|384:352|352:328|280:336,1,160,0|10
160,272,37339,2,0,B|208:272|232:240|232:240|264:264|336:256,1,160,0|2
384,200,38026,1,8
392,104,38255,2,0,B|352:88,1,40,2|0
336,112,38484,6,0,B|296:88|232:104|208:136,1,120,0|2
240,144,38942,2,0,B|200:160|176:200,1,80,8|0
120,264,39400,1,0
40,216,39629,1,2
57,189,39744,1,0
88,176,39858,2,0,B|112:136|104:80,1,80,8|2
32,32,40316,5,0
336,136,40774,2,0,B|304:112|264:96,1,80,10|0
320,216,41232,2,0,B|352:240|408:256,1,80,0|2
456,200,41690,1,8
456,120,41919,1,2
440,91,42034,1,0
416,72,42148,6,0,B|376:48|312:72,1,80,0|2
192,112,42606,2,0,B|232:136|296:112,1,80,8|2
112,64,43064,1,0
112,64,43179,1,2
88,152,43408,1,0
88,152,43522,1,10
16,208,43751,1,0
16,208,43980,6,0,B|40:264|128:280,2,120,2|0|2
112,192,44896,1,0
140,163,45011,1,0
152,125,45125,2,0,B|159:69|217:51,1,80,2|8
289,58,45583,1,2
344,136,45812,6,0,B|384:144|424:192,1,80,4|0
336,296,46270,2,0,B|352:256|336:208,1,80
256,336,46729,1,8
120,248,46958,2,0,B|160:264|184:296,1,80
32,224,47416,1,0
104,160,47645,6,0,B|88:120|104:72,1,80
184,192,48103,2,0,B|208:232|192:280,1,80
304,344,48561,2,0,B|272:320|272:264,1,80,8|0
392,328,49019,1,0
481,332,49248,1,0
448,248,49477,6,0,B|464:200|448:152,1,80
312,64,49935,2,0,B|360:56|400:88,1,80
256,128,50393,2,0,B|216:152|160:112,1,80,8|0
157,101,50736,1,0
126,91,50851,2,0,B|72:88|52:131,1,80
206,298,51309,6,0,B|206:218|110:162,1,160
31,198,51996,1,0
96,264,52225,1,4
168,211,52454,1,0
269,171,52683,1,0
337,223,52912,1,0
400,296,53141,6,0,B|416:344|464:360,1,80
424,208,53599,2,0,B|408:160|360:144,1,80
259,328,54057,2,0,B|320:336|360:280|335:218,1,160,8|0
240,232,54744,1,0
152,264,54973,6,0,B|112:280|64:264,1,80
48,136,55431,2,0,B|72:184|112:192,1,80
127,189,55774,1,0
144,168,55889,2,0,B|168:128|224:128,1,80,12|0
256,216,56347,2,0,B|296:192|352:224,1,80
424,280,56805,6,0,B|456:216|432:136,1,120
432,144,57263,1,0
377,65,57492,1,0
283,42,57721,2,0,B|192:56|176:160,1,160,8|0
84,128,58408,1,0
32,208,58637,5,0
96,280,58866,1,0
96,280,58980,1,0
96,280,59095,1,0
184,248,59324,1,0
280,272,59553,2,0,B|336:264,3,40,12|0|0|0
296,224,60011,2,0,B|336:192|344:144,1,80
248,80,60469,5,0
162,36,60698,1,0
139,58,60812,1,0
128,88,60927,2,0,B|112:136|64:152,1,80
88,288,61385,2,0,B|104:240|192:216,1,120,12|0
220,214,61843,1,0
312,248,62072,1,0
312,248,62301,6,0,B|309:262|309:262|304:272|304:272|302:280|302:280|296:296|296:296|296:288|296:288|288:304|288:304|280:312|280:312|272:320|272:320|264:320,1,80
400,216,62759,2,0,B|414:218|414:218|424:224|424:224|432:225|432:225|448:232|448:232|440:232|440:232|456:240|456:240|464:248|464:248|472:256|472:256|472:264,1,80,0|0
360,136,63217,2,0,B|362:121|362:121|368:112|368:112|369:104|369:104|376:88|376:88|376:96|376:96|384:80|384:80|392:72|392:72|400:64|400:64|408:64,1,80,12|0
280,168,63675,2,0,B|265:165|265:165|256:160|256:160|248:158|248:158|232:152|232:152|240:152|240:152|224:144|224:144|216:136|216:136|208:128|208:128|208:120,1,80,0|0
144,80,64133,6,0,B|128:120|72:96|72:96|32:128|48:176,1,160,0|12
144,200,65507,1,0
168,280,65736,2,0,B|152:312,2,20,0|0|4
264,272,66194,6,0,B|280:232|336:256|336:256|376:224|360:176,1,160,8|8
440,136,66881,2,0,B|448:96,2,40,8|8|8
352,88,67339,2,0,B|328:48,1,40,8|8
296,56,67568,1,8
264,48,67683,1,8
232,48,67797,6,0,B|200:40|200:40|176:64|136:48,1,80,4|2
200,128,68255,2,0,B|184:144|184:144|128:160|136:200,1,80,0|2
224,216,68713,2,0,B|208:224|192:256|200:304,1,80,8|2
168,304,69057,1,0
144,320,69171,2,0,B|96:344|32:320,1,80,0|2
272,296,69629,6,0,B|320:272|384:296,2,80,0|2|0
256,128,70316,1,0
256,128,70431,1,0
256,128,70545,2,0,B|232:64|264:32,1,80,8|2
184,216,71003,1,0
96,248,71232,2,0,B|32:264,1,40,2|0
8,240,71461,6,0,B|48:192|112:200,1,80,0|2
230,260,71919,2,0,B|192:272|152:256,1,80,0|2
223,103,72377,2,0,B|184:112|168:160,1,80,8|2
88,104,72835,1,0
88,104,72950,1,2
152,32,73179,1,0
152,32,73293,6,0,B|192:40|240:16,1,80,2|0
360,80,73751,2,0,B|320:72|272:96,1,80,0|2
256,184,74209,1,8
400,216,74553,1,0
400,216,74667,1,2
312,264,74896,1,0
248,336,75125,6,0,B|184:368|112:336,1,119.999996423721,4|2
96,88,75583,2,0,B|158:105|166:177,1,119.999996423721,0|2
288,160,76041,2,0,B|336:104|312:32,1,119.999996423721,8|2
456,248,76499,2,0,B|392:232|328:272,1,119.999996423721,0|2
144,280,76958,6,0,B|64:288|0:232,1,119.999996423721,2|0
192,216,77416,6,0,B|168:184|168:128,1,80,0|2
272,192,77874,6,0,B|264:168|280:136,1,40,8|2
344,224,78332,2,0,B|352:248|336:280,1,40,2|0
280,312,78790,6,0,B|240:304|240:304|224:336|160:328,1,120,2|0
232,216,79706,2,0,B|168:168,1,80,8|2
328,256,80164,6,0,B|320:224|320:224|360:208|368:184,1,80,2|0
408,256,80622,5,2
472,200,80851,1,0
472,200,80965,1,0
472,200,81080,1,2
472,120,81309,1,0
416,64,81538,1,8
392,56,81652,1,0
368,48,81767,1,0
344,40,81881,1,2
320,32,81996,1,2
224,72,82225,2,0,B|168:80,1,40,2|0
200,104,82454,5,4
200,200,82683,1,0
200,200,82797,1,0
200,200,82912,2,0,B|208:256|168:288,1,80,8|0
56,280,83370,2,0,B|104:264|120:224,1,80
64,112,83828,2,0,B|80:160|40:192,1,80,8|0
240,96,84286,5,0
152,64,84515,2,0,B|96:40,2,40,0|0|8
216,136,84973,2,0,B|248:184|296:192,1,80
296,184,85316,1,0
320,192,85431,6,0,B|360:216|376:264,1,80,0|12
376,112,85889,1,0
480,128,86118,6,0,B|504:88|496:32,1,80
411,200,86576,2,0,B|411:256|451:280,1,80,8|0
456,288,86919,1,0
477,299,87034,2,0,B|445:347|392:344,1,80
254,343,87492,2,0,B|270:299|318:287,1,80,8|0
200,160,87950,6,0,B|240:192|216:248,1,80
88,144,88408,2,0,B|56:112|80:56,1,80,8|0
96,80,88751,1,0
120,88,88866,2,0,B|152:56|208:64,1,80,0|8
299,90,89324,2,0,B|347:98,3,40,12|0|0|0
296,120,89782,6,0,B|344:160|344:208,1,80
192,232,90240,2,0,B|216:184|288:192,1,80,8|0
160,320,90698,2,0,B|128:344|72:336,1,80
56,320,91041,1,0
32,304,91156,2,0,B|64:256|32:216,1,80,8|0
144,168,91614,5,0
159,137,91729,1,0
271,170,91958,1,0
308,152,92072,1,8
390,238,92301,1,0
384,272,92416,2,0,B|336:304,1,40
248,272,92759,2,0,B|208:296|152:280,2,80,0|8|0
104,224,93446,5,0
336,56,93904,1,8
136,48,94248,1,0
136,48,94362,2,0,B|208:96|224:192,1,160,0|8
208,288,95049,1,0
408,192,95507,5,0
408,192,95736,1,8
344,120,95965,2,0,B|328:72|344:24,1,80
304,208,96423,2,0,B|320:256|304:304,1,80,0|8
288,312,96767,1,0
256,320,96881,1,0
224,312,96996,1,0
200,288,97110,6,0,B|192:232|120:216,1,80,4|2
88,72,97568,1,0
33,222,97797,2,0,B|48:145|200:97|248:137,1,240,2|0
333,168,98713,1,8
333,168,98942,5,8
408,232,99858,1,2
364,313,100774,6,0,B|288:312|288:312|248:368|176:368|128:320,1,240,0|2
71,248,101690,1,0
212,137,102148,1,2
116,167,102377,2,0,B|76:136,1,40,8|8
328,264,103597,6,0,B|432:248|504:184|424:80|360:112|336:184|432:240,1,320,2|4
256,192,104713,12,0,108556
