osu file format v5

[General]
AudioFilename: Pakito - Electro Music.mp3
AudioLeadIn: 0
PreviewTime: -1
Countdown: 0
SampleSet: Normal
StackLeniency: 0.7
Mode: 0
LetterboxInBreaks: 0

[Metadata]
Title:Electro Music
Artist:Pakito
Creator:SteRRuM
Version:Normal
Source:
Tags:

[Difficulty]
HPDrainRate:3
CircleSize:5
OverallDifficulty:4
SliderMultiplier:1.8
SliderTickRate:4

[Events]
//Background and Video events
0,0,"Background.jpg"
//Break Periods
//Storyboard Layer 0 (Background)
//Storyboard Layer 1 (Failing)
//Storyboard Layer 2 (Passing)
//Storyboard Layer 3 (Foreground)
//Storyboard Sound Samples
//Background Colour Transformations
3,100,255,255,255

[TimingPoints]
18225,444.444444444444,4,1,1,60,1,0
30780,-100,4,1,1,80,0,0
32224,-100,4,1,1,60,0,0
46336,-100,4,1,1,60,0,0
53891,-100,4,1,1,75,0,0
56780,-100,4,1,1,75,0,0
59002,-100,4,1,1,79,0,0
60558,-100,4,1,1,85,0,0
67780,-100,4,1,1,89,0,0
75058,-50,4,1,1,70,0,0
77002,-100,4,1,1,70,0,0
80224,-100,4,1,1,100,0,0
80447,-100,4,1,1,100,0,1
92780,-100,4,1,1,70,0,1
92891,-100,4,1,1,70,0,0
94669,-100,4,1,1,70,0,1

[Colours]
Combo1 : 0,240,240
Combo2 : 0,128,255
Combo3 : 3,75,148
Combo4 : 49,181,151

[HitObjects]
104,80,18224,1,0
168,80,18447,2,0,B|280:80,1,90,8|0
320,80,18891,1,8
320,144,19113,1,0
320,208,19336,1,8
256,208,19558,2,0,B|256:80,1,90,0|8
192,120,20002,5,0
192,184,20224,1,8
192,248,20447,1,0
128,248,20669,1,0
128,184,20891,2,0,B|160:144|160:144|104:104,1,90
128,56,21336,2,0,B|112:32|96:16|80:24|56:64,1,90,0|8
64,120,21780,5,0
64,120,22002,1,2
64,184,22224,1,0
64,184,22447,1,2
128,184,22669,2,0,B|128:168|128:152|136:120|176:112|200:120,2,90,0|8|0
192,184,23336,1,0
256,184,23558,1,0
280,120,23780,1,2
216,120,24002,1,0
216,120,24224,1,8
216,56,24447,2,2,B|120:56,2,90
328,56,25113,6,0,B|328:176,1,90,0|8
328,208,25558,2,0,B|208:208,1,90,0|2
176,208,26002,2,0,B|64:208,1,90,0|8
200,152,26669,1,2
88,88,27113,2,0,B|72:88|48:88|24:72|0:24,2,90,8|0|8
248,88,28002,1,8
248,88,28224,2,0,B|376:88,1,90,0|8
336,152,28669,5,0
336,152,28891,1,8
336,152,29113,2,0,B|408:168|408:168|384:120,1,90,0|0
401,154,29558,1,0
401,154,29780,2,0,B|401:58,2,90
464,152,30447,2,0,B|464:264,1,90,0|4
256,192,30891,12,0,32002
64,56,32447,5,8
128,56,32669,2,0,B|264:56,1,90,0|8
280,56,33113,2,0,B|280:160,1,90,0|8
344,152,33558,2,0,B|344:264,1,90,0|8
280,240,34002,2,0,B|168:240,1,90,0|8
192,176,34447,2,0,B|192:72,1,90,0|8
128,88,34891,2,0,B|128:200,3,90,0|8|0|8
128,240,35780,5,0
192,240,36002,1,8
256,240,36224,1,0
320,240,36447,2,0,B|312:176|240:176,1,90,8|0
264,112,36891,1,8
328,112,37113,1,8
392,112,37336,2,0,B|496:112,2,90,8|0|8
392,48,38002,5,0
392,48,38224,1,2
328,48,38447,1,0
328,48,38669,1,2
264,48,38891,2,0,B|264:152,2,90,0|8|0
200,48,39558,1,8
136,48,39780,2,0,B|112:48|72:72|72:112,1,90,0|8
72,168,40224,6,0,B|192:168,1,90,0|8
160,232,40669,2,0,B|48:232,1,90,0|8
72,296,41113,2,0,B|192:296,1,90,0|8
224,296,41558,2,0,B|224:176,1,90,0|8
288,208,42002,1,2
288,272,42224,2,0,B|288:320,4,45,0|0|8|0|0
352,272,42891,6,0,B|352:168,1,90,0|8
416,184,43336,1,0
416,120,43558,1,8
352,120,43780,2,0,B|232:120,1,90,0|8
200,120,44224,2,0,B|168:56|128:136,1,90,0|8
72,120,44669,2,0,B|40:56|0:136,1,90
256,192,45113,12,4,46224
336,32,46669,5,4
400,32,46891,2,0,B|400:144,1,90,0|8
336,120,47336,1,0
272,120,47558,1,8
208,120,47780,1,0
144,120,48002,1,2
80,120,48224,1,0
80,184,48447,5,8
144,184,48669,1,0
208,184,48891,1,2
208,120,49113,1,0
272,120,49336,1,8
272,184,49558,1,0
336,184,49780,6,0,B|336:288,1,90,0|8
272,272,50224,2,0,B|160:272,1,90,0|8
184,208,50669,2,0,B|294:179,1,90,0|8
336,184,51113,2,0,B|440:208,1,90,0|8
440,144,51558,2,0,B|344:120,1,90,0|8
288,120,52002,1,0
288,120,52224,1,8
224,120,52447,1,0
224,120,52669,1,0
256,192,52891,12,4,53780
88,144,54002,6,0,B|80:160|80:200|160:200,1,90,0|8
200,200,54447,1,0
264,200,54669,1,8
328,200,54891,1,0
328,136,55113,2,0,B|328:40,1,90,8|0
264,48,55558,1,8
200,48,55780,1,0
136,48,56002,2,0,B|136:0,2,45,0|8|0
136,112,56447,5,0
200,112,56669,1,2
200,176,56891,2,0,B|88:176,1,90,0|8
112,240,57336,2,0,B|192:320,1,90,0|8
216,352,57780,2,0,B|312:264,1,90,0|8
336,256,58224,2,0,B|416:320,1,90,0|8
440,256,58669,2,0,B|440:144,1,90,0|8
376,168,59113,2,0,B|264:168,1,90,0|8
224,168,59558,2,0,B|224:112,2,45,0|8|0
160,168,60002,1,0
96,168,60224,2,0,B|40:168,2,45,0|8|0
96,232,60669,6,0,B|280:232,1,180
336,232,61336,5,8
336,168,61558,1,0
336,104,61780,1,8
272,104,62002,2,0,B|232:48|184:128,1,90,0|8
136,104,62447,1,0
136,104,62669,1,8
72,104,62891,1,0
72,104,63113,1,8
72,168,63336,6,0,B|168:168,1,90,0|8
160,232,63780,1,0
96,232,64002,1,8
96,296,64224,2,0,B|152:368|224:368|264:360,1,180,0|2
256,296,64891,1,8
256,296,65113,1,0
256,296,65336,1,8
256,296,65558,2,0,B|256:240|296:200|320:224,3,90,0|8|0|8
256,192,66447,12,4,67558
48,280,68002,5,4
112,280,68224,2,0,B|400:280,1,270
384,216,69113,2,0,B|96:216,1,270
112,152,70002,1,0
112,152,70224,1,2
176,152,70447,2,0,B|272:152|272:152|296:112|296:112|328:152|328:152|408:152,1,270
400,88,71336,5,0
400,88,71558,1,0
400,88,71780,1,2
336,88,72002,2,0,B|264:88|264:88|232:32|232:32|192:88|192:88|96:88,1,270
64,88,72891,2,0,B|8:88,19,45,0|0|8|0|8|0|8|0|8|0|8|0|8|0|8|0|8|0|8|0
72,88,75113,2,0,B|120:88,32,45,0|0|0|0|0|0|0|0|0|0|0|0|0|0|0|0|0|0|0|0|0|0|0|0|0|0|0|0|0|0|0|0|4
256,192,77113,12,4,80002
464,48,80447,5,0
400,48,80669,1,0
336,48,80891,1,8
272,48,81113,1,0
208,48,81336,2,0,B|144:56|152:144,1,90,8|0
216,112,81780,1,8
280,112,82002,1,0
344,112,82224,2,0,B|312:208,1,90,8|0
312,256,82669,1,8
312,256,82891,1,0
312,256,83113,1,10
248,256,83336,6,0,B|224:176|176:208,1,90,0|0
152,248,83780,1,0
120,192,84002,1,8
88,136,84224,2,0,B|208:136,3,90,0|8|0|8
240,136,85113,1,0
304,136,85336,1,8
304,200,85558,2,0,B|264:200|248:224|248:272,1,90,0|8
184,264,86002,1,0
216,320,86224,1,8
280,320,86447,1,0
280,320,86669,1,8
344,320,86891,6,0,B|392:320,2,45,0|8|0
344,256,87336,2,0,B|400:256,2,45,0|8|0
344,192,87780,5,0
280,192,88002,2,0,B|160:192,1,90,8|0
128,192,88447,2,0,B|152:272|192:248,2,90,8|0|8
128,128,89113,2,0,B|24:128,1,90,0|8
38,192,89558,2,0,B|142:192,1,90,0|8
128,256,90002,1,0
128,256,90224,1,8
128,256,90447,1,0
128,256,90669,2,0,B|24:256,1,90,8|0
40,320,91113,5,8
104,320,91336,1,0
168,320,91558,1,8
232,320,91780,2,0,B|232:208,1,90,0|8
232,168,92224,1,0
232,104,92447,1,8
232,104,92669,1,0
256,192,92891,12,4,94669
