osu file format v5

[General]
AudioFilename: Pakito - Electro Music.mp3
AudioLeadIn: 0
PreviewTime: -1
Countdown: 0
SampleSet: Normal
StackLeniency: 0.7
Mode: 0
LetterboxInBreaks: 0

[Metadata]
Title:Electro Music
Artist:Pakito
Creator:SteRRuM
Version:Hard
Source:
Tags:

[Difficulty]
HPDrainRate:7
CircleSize:5
OverallDifficulty:7
SliderMultiplier:2.3
SliderTickRate:4

[Events]
//Background and Video events
0,0,"Background.jpg"
//Break Periods
//Storyboard Layer 0 (Background)
//Storyboard Layer 1 (Failing)
//Storyboard Layer 2 (Passing)
//Storyboard Layer 3 (Foreground)
//Storyboard Sound Samples
//Background Colour Transformations
3,100,255,255,255

[TimingPoints]
18225,444.444444444444,4,1,1,70,1,0
32198,-100,4,1,1,70,0,0
46421,-100,4,1,1,50,0,0
48976,-100,4,1,1,60,0,0
51198,-100,4,1,1,70,0,0
54754,-100,4,1,1,74,0,0
57254,-100,4,1,1,80,0,0
60087,-100,4,1,1,90,0,0
76948,-100,4,1,1,100,0,0
80421,-100,4,1,1,100,0,1
94643,-100,4,1,1,100,0,1
106976,-100,4,1,1,100,0,1
114976,-100,4,1,1,100,0,1
115087,-100,4,1,1,100,0,0
115976,-100,4,1,1,100,0,1

[Colours]
Combo1 : 0,240,240
Combo2 : 0,153,210
Combo3 : 66,66,255
Combo4 : 49,181,151

[HitObjects]
152,128,18224,1,0
240,128,18447,1,8
328,128,18669,1,0
408,168,18891,1,8
360,248,19113,2,0,B|296:232|288:200|288:168,2,115,0|8|0
312,320,19780,6,0,B|160:320,1,115,8|0
120,320,20224,2,0,B|120:160,1,115,8|0
120,120,20669,1,8
208,120,20891,1,0
296,120,21113,2,0,B|296:200,1,57.5,8|0
296,216,21336,1,2
208,120,21780,6,0,B|216:80|240:40|288:32,2,115,8|0|8
208,120,22447,2,0,B|136:184|96:160,2,115,0|8|0
208,120,23113,1,8
208,120,23336,1,0
272,48,23558,1,8
272,128,23780,2,0,B|272:192,1,57.5
272,185,24002,6,0,B|264:281|80:161,1,230,8|0
83,163,24558,1,8
83,163,24669,1,2
83,163,24780,1,8
83,163,24891,2,0,B|208:163,1,115,0|2
288,64,25336,6,0,B|288:128,2,57.5,0|8|0
376,64,25780,2,0,B|448:64,2,57.5,0|8|0
376,152,26224,1,0
376,152,26336,1,8
376,152,26447,2,0,B|376:88,4,57.5,0|2|0|2|0
376,64,27113,6,0,B|304:72|248:80|240:248,1,230,0|8
240,296,27780,2,0,B|224:296|136:272|88:240|104:144,1,230,0|8
192,184,28447,2,0,B|245:221,2,57.5,0|2|0
272,160,28891,5,0
272,160,29113,1,8
208,104,29336,1,0
208,104,29558,1,8
296,104,29780,1,0
296,104,30002,1,8
384,104,30224,2,0,B|384:224,2,115,0|8|0
256,192,30780,12,0,32002
464,72,32447,5,4
416,144,32669,2,0,B|328:56,1,115,0|8
264,112,33113,2,0,B|128:136,1,115,0|8
184,216,33558,2,0,B|296:304,1,115,0|8
336,224,34002,2,0,B|368:80,1,115,0|8
272,72,34447,2,0,B|248:192,3,115,0|8|0|8
248,280,35336,2,0,B|312:280,4,57.5,0|0|8|0|0
184,216,36002,5,8
184,216,36113,1,2
184,216,36224,1,2
272,216,36447,1,8
272,216,36558,1,2
272,216,36669,1,2
360,216,36891,1,8
360,216,37002,1,2
360,216,37113,1,2
360,304,37336,2,0,B|240:304,2,115,0|8|0
448,304,38002,6,0,B|448:240,2,57.5,8|2|2
360,304,38447,2,0,B|360:368,2,57.5,8|2|2
272,304,38891,2,0,B|272:240,2,57.5,8|2|2
352,232,39558,6,0,B|352:352,3,115,0|0|0|0
440,344,40447,1,2
440,248,40669,1,0
440,152,40891,1,2
320,152,41113,6,0,B|352:168|400:192|432:240|416:320|304:368|224:360|160:320|128:272|240:256|272:248|336:240|304:200|176:112,1,575,4|0
188,120,42336,1,2
188,120,42447,1,0
188,120,42558,1,2
188,120,42669,1,0
216,48,43113,6,0,B|240:72|352:72,1,115,0|8
392,128,43558,2,0,B|384:136|328:168|248:128,1,115,0|8
216,192,44002,2,0,B|216:200|296:256|328:232,1,115,0|8
400,216,44447,1,8
392,128,44669,1,2
392,128,44891,1,8
256,192,45113,12,0,46224
80,176,46669,5,0
136,104,46891,2,0,B|144:96|232:112|240:72,1,115,0|8
160,32,47336,1,0
72,32,47558,1,8
160,32,47780,1,0
72,32,48002,2,0,B|72:160,1,115,8|0
112,216,48447,2,0,B|376:216,1,230,8|0
400,160,49113,2,0,B|400:96|400:72|360:48,4,115
312,120,50224,2,0,B|360:232,1,115,8|0
328,312,50668,2,0,B|184:336,1,115,2|0
128,296,51113,2,0,B|88:136,1,115,8|0
144,104,51558,2,0,B|184:264,2,115
232,128,52224,5,2
240,216,52447,1,0
160,176,52669,1,2
232,128,52891,1,0
304,80,53113,1,2
376,128,53336,1,0
304,176,53558,1,4
256,192,53780,12,0,54669
112,88,54891,6,0,B|120:64|128:56|168:56,12,57.5,8|0|2|0|8|0|2|0|8|0|2|0|8
160,168,56447,1,8
184,208,56558,1,0
208,248,56669,1,8
232,288,56780,1,0
232,288,56891,1,8
232,288,57002,1,0
232,288,57113,1,8
232,288,57224,1,0
272,264,57336,6,0,B|320:224,8,57.5,0|0|8|0|8|0|8|0|0
344,208,58447,2,0,B|376:232|408:248|400:328,1,115,0|8
488,312,58891,2,0,B|472:336|400:376|360:352,1,115,0|8
328,296,59336,2,0,B|200:320|208:232,1,115,0|8
136,248,59780,2,0,B|136:208|144:176|248:160,1,115,0|8
200,80,60224,1,0
200,80,60336,1,2
200,80,60447,1,0
200,80,60558,1,2
200,80,60669,1,0
200,80,60780,1,2
200,80,60891,6,0,B|264:80|320:104|328:136,1,115,0|8
304,192,61336,1,0
304,192,61558,1,2
216,168,61780,1,0
216,168,62002,1,8
200,80,62224,1,0
200,80,62447,1,2
304,104,62669,6,0,B|424:104,5,115,0|8|0|2|0|8
416,192,64002,1,0
328,192,64224,1,2
240,192,64447,1,0
240,192,64558,1,0
240,192,64669,1,8
240,192,64780,1,0
240,192,64891,1,0
240,104,65113,1,2
240,104,65336,1,0
240,104,65558,1,8
328,104,65780,6,0,B|328:32,2,57.5,0|0|2
328,104,66113,1,0
328,104,66224,1,0
328,104,66336,1,0
328,104,66447,1,8
328,104,66558,1,0
328,104,66669,1,0
328,104,66780,1,0
328,104,66891,1,2
328,104,67002,1,0
328,104,67113,1,0
400,152,67336,6,0,B|368:232|288:224,1,115,8|0
344,304,67780,2,0,B|248:304|200:232|232:248,1,115,2|0
152,272,68224,2,0,B|152:216|192:184|248:184,1,115,8|0
216,96,68669,2,0,B|304:128|320:200,1,115,2|0
280,240,69113,1,8
192,248,69336,5,0
256,184,69558,1,2
168,192,69780,1,0
232,128,70002,1,8
144,136,70224,1,0
208,72,70447,1,2
120,80,70669,1,0
184,16,70891,2,0,B|288:248,2,230,8|0|8
96,32,72002,5,2
96,120,72224,1,0
96,208,72447,1,2
96,296,72669,1,0
184,296,72891,2,0,B|184:168,1,115,8|0
184,77,73336,2,0,B|184:221,1,115,8|0
264,192,73780,2,0,B|344:192,11,57.5
296,160,75113,2,0,B|296:128,32,28.75,0|0|0|0|0|0|0|0|0|0|0|0|0|0|0|0|0|0|0|0|0|0|0|0|0|0|0|0|0|0|0|0|4
256,192,77002,12,4,80002
416,80,80447,5,4
416,80,80669,1,4
328,80,80891,1,8
240,80,81113,1,0
152,80,81336,2,0,B|144:88|88:104|80:160|128:184,1,115,8|0
184,200,81780,1,8
264,240,82002,1,0
352,248,82224,1,8
352,248,82447,1,0
352,248,82669,1,8
408,176,82891,2,0,B|280:144,1,115,0|8
248,80,83336,5,2
176,128,83558,1,2
128,200,83780,2,0,B|136:256|232:224,4,115,0|0|0|0|2
176,128,84891,1,0
240,72,85113,1,8
328,64,85336,1,0
408,88,85558,2,0,B|424:88|472:120|440:192,1,115,8|0
408,256,86002,1,8
320,272,86224,1,0
232,288,86447,2,0,B|200:288|136:240|176:192,1,115,8|0
160,128,86891,2,0,B|96:128,1,57.5,8|0
240,128,87336,2,0,B|304:128,2,57.5,0|8|0
328,128,87780,5,0
416,128,88002,1,8
456,208,88224,1,0
432,296,88447,1,8
336,296,88669,2,0,B|336:280|336:256|352:224|400:208,2,115,0|2|0
240,296,89336,1,8
240,296,89558,1,0
240,296,89780,1,2
152,296,90002,1,0
152,296,90224,1,8
152,296,90447,1,0
64,296,90669,2,0,B|56:232|112:208|144:216,1,115,2|0
144,128,91113,6,0,B|136:120|112:88|56:80|16:96,2,115,8|0|8
224,80,91780,2,0,B|160:24|168:-16,2,115,8|0|8
312,80,92447,1,2
400,80,92669,1,0
448,152,92891,1,2
448,240,93113,2,0,B|448:248|440:320|360:312,1,115,0|8
288,312,93558,1,0
232,248,93780,1,8
184,176,94002,2,0,B|120:176,2,57.5,0|8|0
208,88,94447,2,0,B|280:88,1,57.5,0|8
265,88,94669,5,4
352,88,94891,2,0,B|408:104|440:184,1,115,0|8
384,232,95336,1,0
296,256,95558,1,8
208,232,95780,1,0
120,248,96002,1,8
120,160,96224,2,0,B|120:128|152:72|208:72,1,115,0|2
216,160,96669,1,0
304,160,96891,1,8
392,160,97113,2,0,B|376:104|368:88|344:64|312:64,1,115,0|8
248,72,97558,2,0,B|152:72,2,57.5,0|0|2
337,70,98002,5,0
440,88,98224,1,8
472,168,98447,1,0
472,256,98669,2,0,B|328:256,1,115,8|0
272,256,99113,2,0,B|272:160|184:144,1,115,8|0
136,160,99558,1,8
136,160,99780,1,0
136,160,100002,1,8
136,160,100224,6,0,B|136:152|152:80|240:96,1,115,0|8
296,96,100669,1,0
376,136,100891,1,8
376,224,101113,1,0
376,224,101224,1,8
376,224,101336,1,2
312,288,101558,2,0,B|256:304,1,57.5,0|8
257,304,101780,5,4
168,304,102002,2,0,B|152:304|80:264|112:200,1,115,0|8
192,232,102447,2,0,B|160:176|128:136|88:176,1,115,0|8
48,104,102891,1,2
48,104,103002,1,0
48,104,103113,2,0,B|176:104,1,115,0|8
248,104,103558,1,0
336,104,103780,1,8
424,104,104002,1,0
336,104,104224,1,8
248,104,104447,2,0,B|168:120|176:192,2,115,0|8|0
248,104,105113,1,8
336,104,105336,5,0
408,152,105558,1,8
408,240,105780,1,0
328,280,106002,2,0,B|328:288|392:328|424:320|440:304,2,115,8|0|8
320,192,106669,1,0
320,192,106891,1,8
256,192,107113,12,4,108447
168,88,108891,5,4
168,88,109113,2,0,B|144:88|112:48,2,57.5
168,176,109558,2,0,B|144:176|112:136,2,57.5
168,264,110002,2,0,B|144:264|112:224,2,57.5,0|0|0
256,264,110447,2,0,B|272:264|320:232,2,57.5
256,176,110891,2,0,B|272:176|320:144,2,57.5
256,88,111336,2,0,B|336:88,1,57.5
360,88,111558,1,0
448,88,111780,2,0,B|448:168,1,57.5
448,192,112002,1,0
352,192,112224,6,0,B|352:344,1,115
288,232,112669,2,0,B|288:96,1,115
224,192,113113,2,0,B|224:320,1,115
160,232,113558,2,0,B|160:192,28,28.75
256,192,115224,12,4,116002
