osu file format v13

[General]
AudioFilename: LEMON SUMMER.mp3
AudioLeadIn: 0
PreviewTime: 92594
Countdown: 0
SampleSet: Normal
StackLeniency: 0.7
Mode: 3
LetterboxInBreaks: 0
SpecialStyle: 0
WidescreenStoryboard: 0

[Editor]
Bookmarks: 5760,46677,51093
DistanceSpacing: 2
BeatDivisor: 8
GridSize: 16
TimelineZoom: 1.5

[Metadata]
Title:LEMON SUMMER
TitleUnicode:LEMON SUMMER
Artist:Paitan
ArtistUnicode:パイタン
Creator:Yuutosan
Version:7K EXHAUST
Source:SOUND VOLTEX II -infinite infection-
Tags:sdvx 2 bemani konami floor Zan - puxtu
BeatmapID:550049
BeatmapSetID:237212

[Difficulty]
HPDrainRate:8
CircleSize:7
OverallDifficulty:8
ApproachRate:5
SliderMultiplier:1.4
SliderTickRate:1

[Events]
//Background and Video events
0,0,"background.png",0,0
//Break Periods
//Storyboard Layer 0 (Background)
//Storyboard Layer 1 (Fail)
//Storyboard Layer 2 (Pass)
//Storyboard Layer 3 (Foreground)
//Storyboard Sound Samples

[TimingPoints]
594,333.333333333333,4,1,1,20,1,0
6593,-83.3333333333333,4,1,1,20,0,0
6760,-200,4,1,1,20,0,0
6843,-83.3333333333333,4,1,1,20,0,0
7010,-200,4,1,1,20,0,0
7093,-83.3333333333333,4,1,1,20,0,0
7176,-200,4,1,1,20,0,0
7260,-100,4,1,1,20,0,0
13593,-50,4,1,1,20,0,0
13760,-500,4,1,1,20,0,0
13843,-142.857142857143,4,1,1,20,0,0
13926,-100,4,1,1,20,0,0
24593,-100,4,1,1,20,0,1
29093,-83.3333333333333,4,1,1,20,0,1
29176,-142.857142857143,4,1,1,20,0,1
29260,-83.3333333333333,4,1,1,20,0,1
29426,-200,4,1,1,20,0,1
29510,-83.3333333333333,4,1,1,20,0,1
29676,-200,4,1,1,20,0,1
29760,-83.3333333333333,4,1,1,20,0,1
29843,-200,4,1,1,20,0,1
29926,-100,4,1,1,20,0,1
45760,-100,4,1,1,20,0,0
46093,-125,4,1,1,20,0,0
47260,-100,4,1,1,20,0,0
51593,-83.3333333333333,4,1,1,20,0,0
51676,-142.857142857143,4,1,1,20,0,0
51760,-83.3333333333333,4,1,1,20,0,0
51843,-200,4,1,1,20,0,0
51926,-83.3333333333333,4,1,1,20,0,0
52093,-200,4,1,1,20,0,0
52176,-83.3333333333333,4,1,1,20,0,0
52343,-200,4,1,1,20,0,0
52426,-83.3333333333333,4,1,1,20,0,0
52510,-200,4,1,1,20,0,0
52593,-100,4,1,1,20,0,0
56593,-83.3333333333333,4,1,1,20,0,0
56760,-142.857142857143,4,1,1,20,0,0
56843,-83.3333333333333,4,1,1,20,0,0
57010,-200,4,1,1,20,0,0
57093,-83.3333333333333,4,1,1,20,0,0
57176,-200,4,1,1,20,0,0
57260,-83.3333333333333,4,1,1,20,0,0
57343,-200,4,1,1,20,0,0
57426,-100,4,1,1,20,0,0
57927,-100,4,1,1,20,0,1
62260,-83.3333333333333,4,1,1,20,0,1
62342,-142.857142857143,4,1,1,20,0,1
62426,-83.3333333333333,4,1,1,20,0,1
62509,-200,4,1,1,20,0,1
62592,-83.3333333333333,4,1,1,20,0,1
62759,-200,4,1,1,20,0,1
62842,-83.3333333333333,4,1,1,20,0,1
63009,-200,4,1,1,20,0,1
63092,-83.3333333333333,4,1,1,20,0,1
63176,-200,4,1,1,20,0,1
63260,-100,4,1,1,20,0,1
68593,-100,4,1,1,20,0,0
69593,-50,4,1,1,20,0,0
69760,-400,4,1,1,20,0,0
69843,-142.857142857143,4,1,1,20,0,0
69926,-120.481927710843,4,1,1,20,0,0
80593,-100,4,1,1,20,0,1
92260,-50,4,1,1,20,0,0
92427,-500,4,1,1,20,0,0
92510,-142.857142857143,4,1,1,20,0,0
92593,-100,4,1,1,20,0,1
97260,-83.3333333333333,4,1,1,20,0,1
97426,-142.857142857143,4,1,1,20,0,1
97510,-83.3333333333333,4,1,1,20,0,1
97676,-200,4,1,1,20,0,1
97760,-83.3333333333333,4,1,1,20,0,1
97843,-200,4,1,1,20,0,1
97926,-100,4,1,1,20,0,1
116593,-100,4,1,1,20,0,0

[HitObjects]
402,192,594,5,0,0:0:0:0:
109,192,594,1,0,0:0:0:0:
256,192,594,1,0,0:0:0:0:
109,192,1260,1,0,0:0:0:0:
402,192,1260,1,0,0:0:0:0:
182,192,1343,1,0,0:0:0:0:
329,192,1343,1,0,0:0:0:0:
329,192,1510,1,0,0:0:0:0:
182,192,1510,1,0,0:0:0:0:
36,192,1593,1,0,0:0:0:0:
475,192,1593,1,0,0:0:0:0:
256,192,1593,1,0,0:0:0:0:
36,192,1927,1,4,0:0:0:75:LR3_Kick CSB.wav
475,192,1927,1,0,0:0:0:0:
329,192,1927,1,0,0:0:0:0:
256,192,2093,1,0,0:0:0:0:
402,192,2260,1,0,0:0:0:75:LR_DS - Snare Wet High.wav
36,192,2260,1,0,0:0:0:0:
182,192,2260,1,0,0:0:0:0:
329,192,2427,1,0,0:0:0:0:
402,192,2593,1,0,0:0:0:75:LR3_Kick CSB.wav
256,192,2593,1,0,0:0:0:0:
109,192,2760,1,0,0:0:0:0:
182,192,2927,1,0,0:0:0:75:LR_DS - Snare Wet High.wav
329,192,2927,1,0,0:0:0:0:
36,192,2927,1,0,0:0:0:0:
402,192,3093,1,0,0:0:0:0:
109,192,3260,1,0,0:0:0:75:LR3_Kick CSB.wav
182,192,3260,1,0,0:0:0:0:
329,192,3427,1,0,0:0:0:0:
475,192,3593,1,0,0:0:0:75:LR_DS - Snare Wet High.wav
109,192,3593,1,0,0:0:0:0:
256,192,3593,1,0,0:0:0:0:
402,192,3760,1,0,0:0:0:0:
329,192,3927,1,0,0:0:0:75:LR3_Kick CSB.wav
182,192,3927,1,0,0:0:0:0:
36,192,4093,1,0,0:0:0:0:
475,192,4260,1,0,0:0:0:75:LR_DS - Snare Wet High.wav
402,192,4260,1,0,0:0:0:0:
256,192,4260,1,0,0:0:0:0:
109,192,4427,1,0,0:0:0:0:
182,192,4593,1,0,0:0:0:75:LR3_Kick CSB.wav
256,192,4593,1,0,0:0:0:0:
402,192,4760,1,0,0:0:0:0:
109,192,4927,1,0,0:0:0:75:LR_DS - Snare Wet High.wav
256,192,4927,1,0,0:0:0:0:
36,192,4927,1,0,0:0:0:0:
475,192,5093,1,0,0:0:0:0:
182,192,5260,1,0,0:0:0:75:LR3_Kick CSB.wav
109,192,5260,1,0,0:0:0:0:
329,192,5427,1,0,0:0:0:0:
402,192,5593,1,0,0:0:0:75:LR_DS - Snare Wet High.wav
36,192,5593,1,0,0:0:0:100:LR3_Kick CSB.wav
182,192,5593,1,0,0:0:0:0:
475,192,5677,1,0,0:0:0:0:
402,192,5718,1,0,0:0:0:0:
329,192,5760,1,0,0:0:0:0:
256,192,5802,1,0,0:0:0:0:
182,192,5843,1,0,0:0:0:0:
109,192,5885,1,0,0:0:0:0:
475,192,5927,1,0,0:0:0:75:LR3_Kick CSB.wav
36,192,5927,1,0,0:0:0:0:
329,192,5927,1,0,0:0:0:40:cymbol.wav
182,192,6093,1,0,0:0:0:0:
109,192,6260,1,0,0:0:0:75:LR_DS - Snare Wet High.wav
36,192,6260,1,0,0:0:0:0:
329,192,6260,1,0,0:0:0:0:
402,192,6427,1,0,0:0:0:0:
182,192,6593,1,0,0:0:0:75:LR3_Kick CSB.wav
256,192,6593,1,0,0:0:0:0:
475,192,6593,1,0,0:0:0:0:
329,192,6843,1,0,0:0:0:100:LR3_Kick CSB.wav
36,192,6843,1,0,0:0:0:0:
256,192,6843,1,0,0:0:0:0:
109,192,7093,1,0,0:0:0:100:LR3_Kick CSB.wav
475,192,7093,1,0,0:0:0:0:
182,192,7093,1,0,0:0:0:0:
256,192,7260,1,4,0:0:0:75:LR3_Kick CSB.wav
36,192,7260,1,4,0:0:0:0:
329,192,7260,1,0,0:0:0:0:
182,192,7427,1,0,0:0:0:0:
36,192,7593,1,0,0:0:0:75:LR_DS - Snare Wet High.wav
109,192,7593,1,0,0:0:0:0:
402,192,7593,1,0,0:0:0:0:
182,192,7760,1,0,0:0:0:0:
256,192,7927,1,0,0:0:0:75:LR3_Kick CSB.wav
475,192,7927,1,0,0:0:0:0:
182,192,8093,1,0,0:0:0:0:
402,192,8260,1,0,0:0:0:75:LR_DS - Snare Wet High.wav
329,192,8260,1,0,0:0:0:0:
36,192,8260,1,0,0:0:0:0:
109,192,8427,1,0,0:0:0:0:
402,192,8593,1,4,0:0:0:75:LR3_Kick CSB.wav
182,192,8593,1,0,0:0:0:0:
109,192,8760,1,0,0:0:0:0:
256,192,8927,1,0,0:0:0:75:LR_DS - Snare Wet High.wav
475,192,8927,1,0,0:0:0:0:
182,192,8927,1,0,0:0:0:0:
402,192,9093,1,0,0:0:0:0:
329,192,9260,1,0,0:0:0:75:LR3_Kick CSB.wav
109,192,9260,1,0,0:0:0:0:
256,192,9427,1,0,0:0:0:0:
182,192,9593,1,0,0:0:0:75:LR_DS - Snare Wet High.wav
36,192,9593,1,0,0:0:0:75:LR3_Kick CSB.wav
475,192,9593,1,0,0:0:0:0:
182,192,9760,1,0,0:0:0:75:LR3_Kick CSB.wav
475,192,9760,1,0,0:0:0:0:
475,192,9927,1,4,0:0:0:75:LR3_Kick CSB.wav
36,192,9927,1,4,0:0:0:0:
109,192,10010,1,0,0:0:0:0:
182,192,10093,1,0,0:0:0:0:
256,192,10177,1,0,0:0:0:0:
329,192,10260,1,0,0:0:0:75:LR_DS - Snare Wet High.wav
36,192,10260,1,0,0:0:0:0:
402,192,10260,1,0,0:0:0:0:
256,192,10343,1,0,0:0:0:0:
182,192,10427,1,0,0:0:0:0:
109,192,10510,1,0,0:0:0:0:
475,192,10593,1,0,0:0:0:75:LR3_Kick CSB.wav
182,192,10593,1,0,0:0:0:0:
256,192,10677,1,0,0:0:0:0:
329,192,10760,1,0,0:0:0:0:
402,192,10843,1,0,0:0:0:0:
109,192,10927,1,0,0:0:0:75:LR_DS - Snare Wet High.wav
475,192,10927,1,0,0:0:0:0:
182,192,10927,1,0,0:0:0:0:
402,192,11010,1,0,0:0:0:0:
329,192,11093,1,0,0:0:0:0:
256,192,11177,1,0,0:0:0:0:
36,192,11260,1,4,0:0:0:75:LR3_Kick CSB.wav
182,192,11260,1,0,0:0:0:0:
256,192,11343,1,0,0:0:0:0:
329,192,11427,1,0,0:0:0:0:
402,192,11510,1,0,0:0:0:0:
329,192,11593,1,4,0:0:0:75:LR_DS - Snare Wet High.wav
256,192,11593,1,4,0:0:0:75:LR3_Kick CSB.wav
36,192,11593,1,0,0:0:0:0:
182,192,11677,1,0,0:0:0:0:
109,192,11760,1,0,0:0:0:0:
329,192,11843,1,0,0:0:0:0:
182,192,11927,1,0,0:0:0:75:LR3_Kick CSB.wav
402,192,11927,1,0,0:0:0:0:
402,192,12093,1,0,0:0:0:75:LR3_Kick CSB.wav
182,192,12093,1,0,0:0:0:0:
36,192,12260,1,0,0:0:0:75:LR_DS - Snare Wet High.wav
256,192,12260,1,0,0:0:0:75:LR3_Kick CSB.wav
109,192,12343,1,0,0:0:0:75:LR3_Kick CSB.wav
329,192,12343,1,0,0:0:0:0:
182,192,12427,1,0,0:0:0:75:LR3_Kick CSB.wav
402,192,12427,1,0,0:0:0:0:
109,192,12510,1,0,0:0:0:75:LR3_Kick CSB.wav
329,192,12510,1,0,0:0:0:0:
256,192,12593,1,0,0:0:0:75:LR3_Kick CSB.wav
475,192,12593,128,0,13593:0:0:0:0:
36,192,12593,128,0,13593:0:0:0:0:
402,192,12760,1,0,0:0:0:0:
109,192,12760,1,0,0:0:0:0:
256,192,12843,1,0,0:0:0:0:
329,192,12927,1,0,0:0:0:0:
182,192,12927,1,0,0:0:0:0:
402,192,13093,1,0,0:0:0:0:
109,192,13093,1,0,0:0:0:0:
182,192,13177,1,0,0:0:0:0:
109,192,13260,1,0,0:0:0:0:
402,192,13260,1,0,0:0:0:0:
329,192,13343,1,0,0:0:0:0:
402,192,13427,1,0,0:0:0:0:
329,192,13510,1,0,0:0:0:0:
109,192,13593,1,0,0:0:0:75:LR_DS - Snare Wet High.wav
256,192,13593,1,0,0:0:0:0:
36,192,13927,1,0,0:0:0:10:LR_Kick Low Strong Beat.wav
475,192,13927,1,0,0:0:0:0:
256,192,13927,1,0,0:0:0:0:
182,192,14260,1,0,0:0:0:0:
329,192,14260,1,0,0:0:0:0:
182,192,14593,1,0,0:0:0:0:
329,192,14593,1,0,0:0:0:0:
36,192,14927,1,0,0:0:0:0:
475,192,14927,1,0,0:0:0:0:
182,192,15093,1,0,0:0:0:0:
329,192,15093,1,0,0:0:0:0:
182,192,15427,1,0,0:0:0:0:
329,192,15427,1,0,0:0:0:0:
182,192,15760,128,0,15927:0:0:0:0:
475,192,15760,1,0,0:0:0:0:
36,192,15760,1,0,0:0:0:0:
402,192,15927,128,0,16093:0:0:0:0:
329,192,15927,1,0,0:0:0:0:
36,192,16093,128,0,16260:0:0:0:0:
109,192,16093,1,0,0:0:0:0:
329,192,16260,128,0,16427:0:0:0:0:
475,192,16260,1,0,0:0:0:0:
109,192,16427,128,0,16593:0:0:0:0:
182,192,16427,1,0,0:0:0:0:
402,192,16593,1,0,0:0:0:0:
36,192,16927,1,0,0:0:0:0:
475,192,16927,1,0,0:0:0:0:
182,192,17260,1,0,0:0:0:0:
329,192,17260,1,0,0:0:0:0:
36,192,17593,1,0,0:0:0:0:
475,192,17593,1,0,0:0:0:0:
182,192,17760,1,0,0:0:0:0:
329,192,17760,1,0,0:0:0:0:
329,192,18093,1,0,0:0:0:0:
182,192,18093,1,0,0:0:0:0:
475,192,18427,1,0,0:0:0:0:
36,192,18427,1,0,0:0:0:0:
329,192,18427,128,0,18593:0:0:0:0:
182,192,18593,1,0,0:0:0:0:
109,192,18593,128,0,18760:0:0:0:0:
475,192,18760,128,0,18927:0:0:0:0:
402,192,18760,1,0,0:0:0:0:
36,192,18927,1,0,0:0:0:0:
182,192,18927,128,0,19093:0:0:0:0:
329,192,19093,1,0,0:0:0:0:
402,192,19093,128,0,19260:0:0:0:0:
109,192,19260,1,0,0:0:0:75:LR3_Kick CSB.wav
256,192,19260,1,0,0:0:0:0:
475,192,19260,1,0,0:0:0:0:
402,192,19427,1,0,0:0:0:0:
182,192,19593,1,0,0:0:0:0:
36,192,19593,1,0,0:0:0:0:
402,192,19760,1,0,0:0:0:0:
109,192,19927,1,0,0:0:0:0:
256,192,19927,1,0,0:0:0:0:
402,192,20093,1,0,0:0:0:0:
36,192,20260,1,0,0:0:0:0:
182,192,20260,1,0,0:0:0:0:
475,192,20427,1,0,0:0:0:0:
256,192,20427,1,0,0:0:0:0:
329,192,20593,1,0,0:0:0:75:LR3_Kick CSB.wav
36,192,20593,1,0,0:0:0:0:
182,192,20593,1,0,0:0:0:0:
475,192,20760,1,0,0:0:0:0:
182,192,20927,1,0,0:0:0:0:
402,192,20927,1,0,0:0:0:0:
329,192,21093,1,0,0:0:0:0:
182,192,21260,1,0,0:0:0:0:
402,192,21427,1,0,0:0:0:0:
109,192,21593,1,0,0:0:0:0:
182,192,21677,1,0,0:0:0:0:
256,192,21760,1,0,0:0:0:0:
329,192,21843,1,0,0:0:0:0:
182,192,21927,1,0,0:0:0:75:LR3_Kick CSB.wav
475,192,21927,1,0,0:0:0:0:
36,192,22010,1,0,0:0:0:0:
109,192,22093,1,0,0:0:0:0:
182,192,22177,1,0,0:0:0:0:
475,192,22260,1,0,0:0:0:75:LR3_Kick CSB.wav
36,192,22260,1,0,0:0:0:0:
109,192,22343,1,0,0:0:0:0:
182,192,22427,1,0,0:0:0:0:
256,192,22510,1,0,0:0:0:0:
109,192,22593,1,0,0:0:0:75:LR3_Kick CSB.wav
402,192,22593,1,0,0:0:0:0:
329,192,22677,1,0,0:0:0:0:
256,192,22760,1,0,0:0:0:0:
182,192,22843,1,0,0:0:0:0:
475,192,22927,1,0,0:0:0:75:LR3_Kick CSB.wav
109,192,22927,1,0,0:0:0:0:
36,192,23010,1,0,0:0:0:0:
109,192,23093,1,0,0:0:0:0:
182,192,23177,1,0,0:0:0:0:
256,192,23260,1,0,0:0:0:75:LR3_Kick CSB.wav
36,192,23260,1,0,0:0:0:0:
329,192,23343,1,0,0:0:0:0:
402,192,23427,1,0,0:0:0:0:
329,192,23510,1,0,0:0:0:0:
256,192,23593,1,0,0:0:0:0:
475,192,23593,1,0,0:0:0:75:LR3_Kick CSB.wav
182,192,23677,1,0,0:0:0:0:
256,192,23760,1,0,0:0:0:0:
329,192,23843,1,0,0:0:0:0:
36,192,23927,1,0,0:0:0:75:LR3_Kick CSB.wav
402,192,23927,128,0,24093:0:0:0:0:
109,192,24093,128,0,24260:0:0:0:0:
402,192,24260,128,0,24427:0:0:0:0:
109,192,24427,128,0,24593:0:0:0:0:
256,192,24593,1,0,0:0:0:100:LR3_Kick CSB.wav
402,192,24593,1,0,0:0:0:0:
475,192,24593,1,0,0:0:0:0:
36,192,24760,1,0,0:0:0:0:
109,192,24843,1,0,0:0:0:0:
256,192,24927,1,0,0:0:0:75:LR_DS - Snare Wet High.wav
182,192,24927,1,0,0:0:0:0:
402,192,25093,1,0,0:0:0:0:
36,192,25260,1,0,0:0:0:75:LR3_Kick CSB.wav
256,192,25260,1,0,0:0:0:0:
182,192,25343,1,0,0:0:0:0:
256,192,25427,1,0,0:0:0:0:
329,192,25510,1,0,0:0:0:0:
109,192,25593,1,0,0:0:0:75:LR_DS - Snare Wet High.wav
402,192,25593,1,0,0:0:0:0:
475,192,25677,1,0,0:0:0:0:
256,192,25760,1,0,0:0:0:0:
329,192,25843,1,0,0:0:0:0:
402,192,25927,1,0,0:0:0:75:LR3_Kick CSB.wav
109,192,25927,128,0,26093:0:0:0:0:
182,192,26093,128,0,26260:0:0:0:0:
329,192,26260,128,0,26427:0:0:0:75:LR_DS - Snare Wet High.wav
36,192,26260,1,0,0:0:0:0:
475,192,26260,1,0,0:0:0:0:
402,192,26427,128,0,26593:0:0:0:0:
182,192,26593,1,0,0:0:0:75:LR3_Kick CSB.wav
475,192,26593,1,0,0:0:0:0:
109,192,26677,1,0,0:0:0:0:
36,192,26760,1,0,0:0:0:0:
109,192,26843,1,0,0:0:0:0:
329,192,26927,1,0,0:0:0:75:LR_DS - Snare Wet High.wav
182,192,26927,1,0,0:0:0:0:
109,192,27010,1,0,0:0:0:0:
182,192,27093,1,0,0:0:0:0:
256,192,27177,1,0,0:0:0:0:
329,192,27260,1,0,0:0:0:75:LR3_Kick CSB.wav
475,192,27260,1,0,0:0:0:0:
109,192,27427,1,0,0:0:0:0:
182,192,27510,1,0,0:0:0:0:
256,192,27593,1,0,0:0:0:75:LR_DS - Snare Wet High.wav
36,192,27593,1,0,0:0:0:0:
402,192,27760,1,0,0:0:0:0:
109,192,27843,1,0,0:0:0:0:
182,192,27927,1,0,0:0:0:75:LR3_Kick CSB.wav
475,192,27927,1,0,0:0:0:0:
329,192,28093,1,0,0:0:0:0:
256,192,28177,1,0,0:0:0:0:
36,192,28260,1,0,0:0:0:75:LR_DS - Snare Wet High.wav
182,192,28260,1,0,0:0:0:0:
402,192,28343,1,0,0:0:0:0:
329,192,28427,1,0,0:0:0:0:
182,192,28510,1,0,0:0:0:0:
109,192,28593,1,0,0:0:0:75:LR3_Kick CSB.wav
402,192,28593,1,0,0:0:0:0:
256,192,28677,1,0,0:0:0:0:
109,192,28760,1,0,0:0:0:75:LR3_Kick CSB.wav
402,192,28760,1,0,0:0:0:0:
36,192,28843,1,0,0:0:0:75:LR3_Kick CSB.wav
475,192,28843,1,0,0:0:0:0:
109,192,28927,1,0,0:0:0:75:LR_DS - Snare Wet High.wav
402,192,28927,1,0,0:0:0:75:LR3_Kick CSB.wav
329,192,29093,1,0,0:0:0:75:LR3_Kick CSB.wav
182,192,29093,1,0,0:0:0:0:
182,192,29260,1,0,0:0:0:75:LR3_Kick CSB.wav
329,192,29260,1,0,0:0:0:0:
182,192,29510,1,0,0:0:0:75:LR3_Kick CSB.wav
329,192,29510,1,0,0:0:0:0:
182,192,29760,1,0,0:0:0:75:LR3_Kick CSB.wav
329,192,29760,1,0,0:0:0:0:
36,192,29927,1,4,0:0:0:75:LR3_Kick CSB.wav
475,192,29927,1,4,0:0:0:0:
256,192,29927,1,0,0:0:0:0:
182,192,30093,1,0,0:0:0:0:
256,192,30177,1,0,0:0:0:0:
182,192,30260,1,0,0:0:0:75:LR_DS - Snare Wet High.wav
402,192,30260,1,0,0:0:0:0:
109,192,30427,1,0,0:0:0:0:
182,192,30510,1,0,0:0:0:0:
402,192,30593,1,0,0:0:0:75:LR3_Kick CSB.wav
256,192,30593,1,0,0:0:0:0:
329,192,30760,1,0,0:0:0:0:
256,192,30843,1,0,0:0:0:0:
182,192,30927,1,0,0:0:0:75:LR_DS - Snare Wet High.wav
36,192,30927,1,0,0:0:0:0:
329,192,31010,1,0,0:0:0:0:
256,192,31093,1,0,0:0:0:0:
402,192,31177,1,0,0:0:0:0:
36,192,31260,1,0,0:0:0:0:
109,192,31260,128,0,31427:0:0:0:0:
475,192,31260,1,0,0:0:0:0:
182,192,31427,128,0,31593:0:0:0:0:
329,192,31593,128,0,31760:0:0:0:75:LR_DS - Snare Wet High.wav
109,192,31593,1,0,0:0:0:0:
475,192,31593,1,0,0:0:0:0:
402,192,31760,128,0,31927:0:0:0:0:
36,192,31760,1,0,0:0:0:0:
109,192,31927,1,0,0:0:0:75:LR3_Kick CSB.wav
475,192,31927,1,0,0:0:0:0:
182,192,32010,1,0,0:0:0:0:
256,192,32093,1,0,0:0:0:0:
329,192,32177,1,0,0:0:0:0:
109,192,32260,1,0,0:0:0:75:LR_DS - Snare Wet High.wav
402,192,32260,1,0,0:0:0:75:LR3_Kick CSB.wav
182,192,32343,1,0,0:0:0:0:
256,192,32427,1,0,0:0:0:100:LR3_Kick CSB.wav
475,192,32427,1,0,0:0:0:0:
329,192,32510,1,0,0:0:0:0:
36,192,32593,1,0,0:0:0:75:LR3_Kick CSB.wav
182,192,32593,1,0,0:0:0:0:
256,192,32677,1,0,0:0:0:0:
329,192,32760,1,0,0:0:0:0:
402,192,32843,1,0,0:0:0:0:
475,192,32927,1,0,0:0:0:75:LR_DS - Snare Wet High.wav
182,192,32927,1,0,0:0:0:0:
402,192,33010,1,0,0:0:0:0:
329,192,33093,1,0,0:0:0:0:
256,192,33177,1,0,0:0:0:0:
182,192,33260,1,0,0:0:0:75:LR3_Kick CSB.wav
36,192,33260,1,0,0:0:0:0:
256,192,33343,1,0,0:0:0:0:
329,192,33427,1,0,0:0:0:0:
402,192,33510,1,0,0:0:0:0:
475,192,33593,1,0,0:0:0:75:LR_DS - Snare Wet High.wav
182,192,33593,1,0,0:0:0:0:
402,192,33677,1,0,0:0:0:0:
329,192,33760,1,0,0:0:0:0:
256,192,33843,1,0,0:0:0:0:
182,192,33927,1,4,0:0:0:75:LR3_Kick CSB.wav
329,192,33927,1,4,0:0:0:0:
36,192,33927,1,0,0:0:0:0:
402,192,34010,1,0,0:0:0:0:
475,192,34093,1,0,0:0:0:0:
402,192,34177,1,0,0:0:0:0:
329,192,34260,1,4,0:0:0:0:
36,192,34260,1,0,0:0:0:75:LR_DS - Snare Wet High.wav
475,192,34260,1,0,0:0:0:0:
109,192,34343,1,0,0:0:0:0:
182,192,34427,1,0,0:0:0:0:
256,192,34510,1,0,0:0:0:0:
109,192,34593,1,0,0:0:0:75:LR3_Kick CSB.wav
402,192,34593,1,0,0:0:0:0:
109,192,34760,1,0,0:0:0:75:LR3_Kick CSB.wav
402,192,34760,1,0,0:0:0:0:
475,192,34927,1,0,0:0:0:75:LR_DS - Snare Wet High.wav
36,192,34927,1,0,0:0:0:75:LR3_Kick CSB.wav
109,192,35010,1,0,0:0:0:75:LR3_Kick CSB.wav
402,192,35010,1,0,0:0:0:0:
182,192,35093,1,0,0:0:0:75:LR3_Kick CSB.wav
329,192,35093,1,0,0:0:0:0:
402,192,35177,1,0,0:0:0:75:LR3_Kick CSB.wav
109,192,35177,1,0,0:0:0:0:
256,192,35260,1,0,0:0:0:75:LR3_Kick CSB.wav
36,192,35260,1,0,0:0:0:0:
475,192,35260,1,0,0:0:0:0:
182,192,35427,1,0,0:0:0:0:
256,192,35510,1,0,0:0:0:0:
329,192,35593,1,0,0:0:0:75:LR_DS - Snare Wet High.wav
109,192,35593,1,0,0:0:0:0:
475,192,35760,1,0,0:0:0:0:
329,192,35927,1,0,0:0:0:75:LR3_Kick CSB.wav
36,192,35927,1,0,0:0:0:0:
182,192,36093,1,0,0:0:0:0:
256,192,36177,1,0,0:0:0:0:
402,192,36260,1,0,0:0:0:75:LR_DS - Snare Wet High.wav
109,192,36260,1,0,0:0:0:0:
182,192,36343,1,0,0:0:0:0:
329,192,36427,1,0,0:0:0:0:
402,192,36510,1,0,0:0:0:0:
475,192,36593,1,0,0:0:0:75:LR3_Kick CSB.wav
36,192,36593,1,0,0:0:0:0:
329,192,36760,1,0,0:0:0:0:
182,192,36927,1,0,0:0:0:75:LR_DS - Snare Wet High.wav
475,192,36927,1,0,0:0:0:0:
109,192,37093,1,0,0:0:0:0:
329,192,37260,1,0,0:0:0:75:LR3_Kick CSB.wav
36,192,37260,1,0,0:0:0:0:
182,192,37427,1,0,0:0:0:0:
256,192,37510,1,0,0:0:0:0:
36,192,37593,1,0,0:0:0:75:LR_DS - Snare Wet High.wav
329,192,37593,1,0,0:0:0:0:
256,192,37677,1,0,0:0:0:0:
329,192,37760,1,0,0:0:0:75:LR3_Kick CSB.wav
109,192,37760,1,0,0:0:0:0:
402,192,37843,1,0,0:0:0:0:
182,192,37927,1,0,0:0:0:75:LR3_Kick CSB.wav
475,192,37927,1,0,0:0:0:0:
109,192,38093,1,0,0:0:0:0:
182,192,38177,1,0,0:0:0:0:
256,192,38260,1,0,0:0:0:75:LR_DS - Snare Wet High.wav
329,192,38260,1,0,0:0:0:0:
402,192,38427,1,0,0:0:0:0:
329,192,38593,1,0,0:0:0:0:
36,192,38593,1,0,0:0:0:0:
182,192,38760,1,0,0:0:0:0:
256,192,38843,1,0,0:0:0:0:
109,192,38927,1,0,0:0:0:75:LR_DS - Snare Wet High.wav
402,192,38927,1,0,0:0:0:0:
182,192,39010,1,0,0:0:0:0:
109,192,39093,1,0,0:0:0:0:
182,192,39177,1,0,0:0:0:0:
475,192,39260,1,0,0:0:0:75:LR3_Kick CSB.wav
36,192,39260,1,0,0:0:0:0:
256,192,39260,1,0,0:0:0:0:
109,192,39427,1,0,0:0:0:0:
402,192,39427,1,0,0:0:0:0:
182,192,39593,1,0,0:0:0:75:LR_DS - Snare Wet High.wav
329,192,39593,1,0,0:0:0:0:
36,192,39760,1,0,0:0:0:0:
475,192,39760,1,0,0:0:0:0:
329,192,39927,1,0,0:0:0:0:
182,192,39927,1,0,0:0:0:0:
475,192,40093,1,0,0:0:0:0:
36,192,40093,1,0,0:0:0:0:
402,192,40260,1,0,0:0:0:75:LR_DS - Snare Wet High.wav
109,192,40260,1,0,0:0:0:75:LR3_Kick CSB.wav
36,192,40343,1,0,0:0:0:75:LR3_Kick CSB.wav
329,192,40343,1,0,0:0:0:0:
109,192,40427,1,0,0:0:0:75:LR3_Kick CSB.wav
402,192,40427,1,0,0:0:0:0:
182,192,40510,1,0,0:0:0:75:LR3_Kick CSB.wav
475,192,40510,1,0,0:0:0:0:
329,192,40593,1,4,0:0:0:0:
109,192,40593,1,0,0:0:0:0:
402,192,40593,1,0,0:0:0:0:
182,192,40760,1,0,0:0:0:0:
109,192,40843,1,0,0:0:0:0:
36,192,40927,1,0,0:0:0:75:LR_DS - Snare Wet High.wav
256,192,40927,1,0,0:0:0:0:
329,192,41093,1,0,0:0:0:0:
256,192,41260,1,0,0:0:0:75:LR3_Kick CSB.wav
402,192,41260,1,0,0:0:0:0:
109,192,41427,1,0,0:0:0:0:
36,192,41510,1,0,0:0:0:0:
256,192,41593,1,0,0:0:0:75:LR_DS - Snare Wet High.wav
475,192,41593,1,0,0:0:0:0:
402,192,41677,1,0,0:0:0:0:
182,192,41760,1,0,0:0:0:0:
256,192,41843,1,0,0:0:0:0:
329,192,41927,1,0,0:0:0:75:LR3_Kick CSB.wav
182,192,41927,1,0,0:0:0:0:
109,192,42093,1,0,0:0:0:0:
402,192,42260,1,0,0:0:0:75:LR_DS - Snare Wet High.wav
182,192,42260,1,0,0:0:0:0:
256,192,42427,1,0,0:0:0:0:
329,192,42593,1,0,0:0:0:0:
36,192,42593,1,0,0:0:0:0:
109,192,42677,1,0,0:0:0:0:
182,192,42760,1,0,0:0:0:75:LR3_Kick CSB.wav
402,192,42760,1,0,0:0:0:0:
256,192,42843,1,0,0:0:0:0:
182,192,42927,1,0,0:0:0:75:LR_DS - Snare Wet High.wav
475,192,42927,1,0,0:0:0:75:LR3_Kick CSB.wav
256,192,43010,1,0,0:0:0:0:
329,192,43093,1,0,0:0:0:0:
109,192,43177,1,0,0:0:0:0:
182,192,43260,1,0,0:0:0:75:LR3_Kick CSB.wav
475,192,43260,1,0,0:0:0:0:
256,192,43343,1,0,0:0:0:0:
182,192,43427,1,0,0:0:0:0:
109,192,43510,1,0,0:0:0:0:
36,192,43593,1,0,0:0:0:75:LR_DS - Snare Wet High.wav
329,192,43593,1,0,0:0:0:0:
109,192,43677,1,0,0:0:0:0:
182,192,43760,1,0,0:0:0:0:
256,192,43843,1,0,0:0:0:0:
329,192,43927,1,0,0:0:0:75:LR3_Kick CSB.wav
109,192,43927,1,0,0:0:0:0:
402,192,44010,1,0,0:0:0:0:
329,192,44093,1,0,0:0:0:0:
256,192,44177,1,0,0:0:0:0:
329,192,44260,1,0,0:0:0:75:LR_DS - Snare Wet High.wav
36,192,44260,1,0,0:0:0:0:
402,192,44343,1,0,0:0:0:0:
475,192,44427,1,0,0:0:0:0:
402,192,44510,1,0,0:0:0:0:
329,192,44593,1,0,0:0:0:75:LR3_Kick CSB.wav
36,192,44593,1,0,0:0:0:0:
109,192,44760,1,0,0:0:0:100:LR3_Kick CSB.wav
402,192,44760,1,0,0:0:0:0:
182,192,44927,1,0,0:0:0:75:LR_DS - Snare Wet High.wav
475,192,44927,1,0,0:0:0:100:LR3_Kick CSB.wav
402,192,45093,1,0,0:0:0:75:LR3_Kick CSB.wav
109,192,45093,1,0,0:0:0:0:
182,192,45260,1,0,0:0:0:100:LR3_Kick CSB.wav
329,192,45260,1,0,0:0:0:0:
109,192,45427,1,0,0:0:0:75:LR3_Kick CSB.wav
402,192,45427,1,0,0:0:0:0:
36,192,45593,1,0,0:0:0:75:LR_DS - Snare Wet High.wav
475,192,45593,1,0,0:0:0:75:LR3_Kick CSB.wav
329,192,45677,1,0,0:0:0:75:LR3_Kick CSB.wav
182,192,45677,1,0,0:0:0:0:
109,192,45760,1,0,0:0:0:75:LR3_Kick CSB.wav
402,192,45760,1,0,0:0:0:0:
182,192,45843,1,0,0:0:0:0:
329,192,45843,1,0,0:0:0:75:LR3_Kick CSB.wav
329,192,46093,1,0,0:0:0:0:
182,192,46260,1,0,0:0:0:0:
329,192,46427,1,0,0:0:0:0:
109,192,46593,1,0,0:0:0:0:
182,192,46649,1,0,0:0:0:0:
256,192,46705,1,0,0:0:0:0:
329,192,46760,1,0,0:0:0:0:
182,192,46927,1,0,0:0:0:0:
329,192,47093,1,0,0:0:0:0:
36,192,47260,1,0,0:0:0:40:cymbol.wav
475,192,47260,1,0,0:0:0:0:
182,192,47260,1,0,0:0:0:0:
329,192,47427,1,0,0:0:0:0:
475,192,47593,1,0,0:0:0:0:
109,192,47593,1,0,0:0:0:75:LR_DS - Snare Wet High.wav
256,192,47593,1,0,0:0:0:0:
402,192,47760,1,0,0:0:0:0:
256,192,47927,1,0,0:0:0:75:LR3_Kick CSB.wav
109,192,48093,1,0,0:0:0:0:
256,192,48260,1,0,0:0:0:75:LR_DS - Snare Wet High.wav
329,192,48260,1,0,0:0:0:0:
475,192,48260,1,0,0:0:0:0:
182,192,48427,1,0,0:0:0:0:
256,192,48593,1,0,0:0:0:75:LR3_Kick CSB.wav
109,192,48760,1,0,0:0:0:0:
182,192,48927,1,0,0:0:0:75:LR_DS - Snare Wet High.wav
329,192,48927,1,0,0:0:0:0:
36,192,48927,1,0,0:0:0:0:
402,192,49093,1,0,0:0:0:0:
109,192,49260,1,0,0:0:0:75:LR3_Kick CSB.wav
329,192,49260,1,0,0:0:0:0:
256,192,49427,1,0,0:0:0:0:
329,192,49593,1,0,0:0:0:75:LR_DS - Snare Wet High.wav
109,192,49593,1,0,0:0:0:0:
402,192,49593,1,0,0:0:0:0:
475,192,49760,1,0,0:0:0:0:
182,192,49927,1,0,0:0:0:75:LR3_Kick CSB.wav
256,192,49927,1,0,0:0:0:0:
109,192,50093,1,0,0:0:0:0:
36,192,50260,1,0,0:0:0:0:
256,192,50260,1,0,0:0:0:0:
329,192,50260,1,0,0:0:0:75:LR_DS - Snare Wet High.wav
475,192,50427,1,0,0:0:0:0:
182,192,50593,1,0,0:0:0:75:LR3_Kick CSB.wav
402,192,50593,1,0,0:0:0:0:
329,192,50760,1,0,0:0:0:0:
109,192,50927,1,0,0:0:0:75:LR_DS - Snare Wet High.wav
182,192,50927,1,0,0:0:0:0:
475,192,50927,1,0,0:0:0:0:
36,192,51010,1,0,0:0:0:0:
109,192,51052,1,0,0:0:0:0:
182,192,51093,1,0,0:0:0:0:
256,192,51135,1,0,0:0:0:0:
329,192,51177,1,0,0:0:0:0:
402,192,51218,1,0,0:0:0:0:
256,192,51260,1,0,0:0:0:75:LR3_Kick CSB.wav
36,192,51260,1,0,0:0:0:0:
475,192,51260,1,0,0:0:0:0:
109,192,51427,1,0,0:0:0:75:LR3_Kick CSB.wav
329,192,51427,1,0,0:0:0:0:
402,192,51510,1,0,0:0:0:0:
182,192,51510,1,0,0:0:0:0:
329,192,51593,1,4,0:0:0:75:LR_DS - Snare Wet High.wav
475,192,51593,1,0,0:0:0:0:
109,192,51593,1,0,0:0:0:75:LR3_Kick CSB.wav
329,192,51760,1,0,0:0:0:0:
109,192,51760,1,0,0:0:0:75:LR3_Kick CSB.wav
402,192,51760,1,0,0:0:0:0:
256,192,51927,1,0,0:0:0:75:LR3_Kick CSB.wav
475,192,51927,1,0,0:0:0:0:
36,192,51927,1,0,0:0:0:0:
256,192,52177,1,0,0:0:0:75:LR3_Kick CSB.wav
475,192,52177,1,0,0:0:0:0:
36,192,52177,1,0,0:0:0:0:
109,192,52427,1,0,0:0:0:75:LR3_Kick CSB.wav
329,192,52427,1,0,0:0:0:0:
402,192,52427,1,0,0:0:0:0:
182,192,52593,1,0,0:0:0:75:LR3_Kick CSB.wav
256,192,52593,1,0,0:0:0:0:
475,192,52593,1,0,0:0:0:0:
36,192,52760,1,0,0:0:0:0:
109,192,52927,1,0,0:0:0:75:LR_DS - Snare Wet High.wav
256,192,52927,1,0,0:0:0:0:
402,192,52927,1,0,0:0:0:0:
329,192,53093,1,0,0:0:0:0:
182,192,53260,1,0,0:0:0:75:LR3_Kick CSB.wav
475,192,53260,1,0,0:0:0:0:
36,192,53427,1,0,0:0:0:0:
402,192,53593,1,0,0:0:0:75:LR_DS - Snare Wet High.wav
182,192,53593,1,0,0:0:0:0:
329,192,53593,1,0,0:0:0:0:
475,192,53760,1,0,0:0:0:0:
109,192,53927,1,0,0:0:0:75:LR3_Kick CSB.wav
256,192,53927,1,0,0:0:0:0:
402,192,54093,1,0,0:0:0:0:
36,192,54260,1,0,0:0:0:75:LR_DS - Snare Wet High.wav
182,192,54260,1,0,0:0:0:0:
329,192,54260,1,0,0:0:0:0:
109,192,54427,1,0,0:0:0:0:
256,192,54593,1,0,0:0:0:75:LR3_Kick CSB.wav
475,192,54593,1,0,0:0:0:0:
109,192,54760,1,0,0:0:0:0:
182,192,54927,1,0,0:0:0:75:LR_DS - Snare Wet High.wav
402,192,54927,1,0,0:0:0:75:LR3_Kick CSB.wav
475,192,54927,1,0,0:0:0:0:
329,192,55093,1,0,0:0:0:75:LR3_Kick CSB.wav
36,192,55093,1,0,0:0:0:0:
329,192,55260,1,0,0:0:0:75:LR3_Kick CSB.wav
182,192,55260,1,0,0:0:0:0:
475,192,55427,1,0,0:0:0:0:
36,192,55593,1,0,0:0:0:75:LR_DS - Snare Wet High.wav
109,192,55593,1,0,0:0:0:0:
256,192,55593,1,0,0:0:0:0:
402,192,55760,1,0,0:0:0:0:
182,192,55927,1,0,0:0:0:75:LR3_Kick CSB.wav
475,192,55927,1,0,0:0:0:0:
329,192,56093,1,0,0:0:0:0:
475,192,56260,1,0,0:0:0:75:LR_DS - Snare Wet High.wav
109,192,56260,1,0,0:0:0:0:
182,192,56260,1,0,0:0:0:0:
402,192,56427,1,0,0:0:0:0:
109,192,56593,1,4,0:0:0:75:LR3_Kick CSB.wav
182,192,56593,1,0,0:0:0:0:
329,192,56593,1,0,0:0:0:0:
182,192,56843,1,4,0:0:0:100:LR3_Kick CSB.wav
256,192,56843,1,0,0:0:0:0:
402,192,56843,1,0,0:0:0:0:
109,192,57093,1,4,0:0:0:75:LR3_Kick CSB.wav
182,192,57093,1,0,0:0:0:0:
329,192,57093,1,0,0:0:0:0:
329,192,57260,1,0,0:0:0:0:
475,192,57260,1,0,0:0:0:0:
36,192,57260,1,0,0:0:0:0:
182,192,57316,1,0,0:0:0:0:
109,192,57371,1,0,0:0:0:0:
402,192,57427,1,0,0:0:0:0:
36,192,57427,1,0,0:0:0:0:
475,192,57593,1,0,0:0:0:100:LR3_Kick CSB.wav
182,192,57593,1,0,0:0:0:0:
109,192,57677,1,0,0:0:0:75:LR3_Kick CSB.wav
402,192,57677,1,0,0:0:0:0:
329,192,57760,1,0,0:0:0:75:LR3_Kick CSB.wav
36,192,57760,1,0,0:0:0:0:
109,192,57843,1,0,0:0:0:75:LR3_Kick CSB.wav
402,192,57843,1,0,0:0:0:0:
475,192,57927,1,0,0:0:0:75:LR3_Kick CSB.wav
182,192,57927,1,0,0:0:0:0:
256,192,57927,1,0,0:0:0:0:
36,192,58093,1,0,0:0:0:0:
475,192,58260,1,0,0:0:0:75:LR_DS - Snare Wet High.wav
109,192,58260,1,0,0:0:0:0:
182,192,58260,1,0,0:0:0:0:
329,192,58427,1,0,0:0:0:0:
402,192,58593,1,0,0:0:0:75:LR3_Kick CSB.wav
36,192,58593,1,0,0:0:0:0:
109,192,58760,1,0,0:0:0:0:
182,192,58843,1,0,0:0:0:0:
256,192,58927,1,0,0:0:0:75:LR_DS - Snare Wet High.wav
329,192,58927,1,0,0:0:0:0:
36,192,58927,1,0,0:0:0:0:
402,192,59010,1,0,0:0:0:0:
475,192,59093,1,0,0:0:0:0:
182,192,59260,1,0,0:0:0:75:LR3_Kick CSB.wav
329,192,59260,1,0,0:0:0:0:
36,192,59427,1,0,0:0:0:0:
109,192,59593,1,0,0:0:0:75:LR_DS - Snare Wet High.wav
475,192,59593,1,0,0:0:0:0:
256,192,59593,1,0,0:0:0:0:
182,192,59760,1,0,0:0:0:0:
402,192,59760,1,0,0:0:0:0:
109,192,59927,1,0,0:0:0:75:LR3_Kick CSB.wav
329,192,59927,1,0,0:0:0:0:
182,192,60093,1,0,0:0:0:0:
256,192,60177,1,0,0:0:0:0:
182,192,60260,1,0,0:0:0:75:LR_DS - Snare Wet High.wav
36,192,60260,1,0,0:0:0:0:
475,192,60260,1,0,0:0:0:0:
256,192,60343,1,0,0:0:0:0:
329,192,60427,1,0,0:0:0:0:
109,192,60427,1,0,0:0:0:0:
182,192,60510,1,0,0:0:0:0:
402,192,60510,1,0,0:0:0:0:
475,192,60593,1,0,0:0:0:75:LR3_Kick CSB.wav
256,192,60593,1,0,0:0:0:0:
109,192,60760,1,0,0:0:0:0:
182,192,60927,1,0,0:0:0:75:LR_DS - Snare Wet High.wav
256,192,60927,1,0,0:0:0:0:
36,192,60927,1,0,0:0:0:0:
402,192,61093,1,0,0:0:0:0:
109,192,61260,1,0,0:0:0:75:LR3_Kick CSB.wav
256,192,61260,1,0,0:0:0:0:
36,192,61427,1,0,0:0:0:0:
256,192,61510,1,0,0:0:0:0:
475,192,61593,1,0,0:0:0:75:LR_DS - Snare Wet High.wav
182,192,61593,1,0,0:0:0:0:
402,192,61593,1,0,0:0:0:0:
36,192,61677,1,0,0:0:0:0:
109,192,61718,1,0,0:0:0:0:
182,192,61760,1,0,0:0:0:0:
256,192,61802,1,0,0:0:0:0:
329,192,61843,1,0,0:0:0:0:
402,192,61885,1,0,0:0:0:0:
36,192,61927,1,0,0:0:0:75:LR3_Kick CSB.wav
475,192,61927,1,0,0:0:0:0:
256,192,62010,1,0,0:0:0:0:
109,192,62093,1,0,0:0:0:75:LR3_Kick CSB.wav
402,192,62093,1,0,0:0:0:0:
256,192,62177,1,0,0:0:0:75:LR3_Kick CSB.wav
182,192,62260,1,0,0:0:0:75:LR_DS - Snare Wet High.wav
329,192,62260,1,0,0:0:0:75:LR3_Kick CSB.wav
475,192,62260,1,0,0:0:0:0:
109,192,62427,1,0,0:0:0:75:LR3_Kick CSB.wav
402,192,62427,1,0,0:0:0:0:
402,192,62593,1,0,0:0:0:75:LR3_Kick CSB.wav
36,192,62593,1,0,0:0:0:0:
256,192,62593,1,0,0:0:0:0:
36,192,62843,1,0,0:0:0:75:LR3_Kick CSB.wav
402,192,62843,1,0,0:0:0:0:
182,192,62843,1,0,0:0:0:0:
475,192,63093,1,0,0:0:0:0:
109,192,63093,1,0,0:0:0:0:
402,192,63093,1,0,0:0:0:0:
256,192,63260,1,4,0:0:0:75:LR3_Kick CSB.wav
475,192,63260,1,0,0:0:0:0:
36,192,63260,1,0,0:0:0:0:
109,192,63427,1,0,0:0:0:0:
475,192,63593,1,0,0:0:0:75:LR_DS - Snare Wet High.wav
256,192,63593,1,0,0:0:0:80:LR3_Kick CSB.wav
329,192,63593,1,0,0:0:0:0:
109,192,63760,1,0,0:0:0:0:
182,192,63927,1,0,0:0:0:75:LR3_Kick CSB.wav
36,192,63927,1,0,0:0:0:0:
329,192,64093,1,0,0:0:0:0:
402,192,64177,1,0,0:0:0:0:
475,192,64260,1,0,0:0:0:75:LR_DS - Snare Wet High.wav
182,192,64260,1,0,0:0:0:0:
109,192,64260,1,0,0:0:0:0:
329,192,64427,1,0,0:0:0:0:
182,192,64593,1,0,0:0:0:75:LR3_Kick CSB.wav
475,192,64593,1,0,0:0:0:0:
329,192,64760,1,0,0:0:0:0:
36,192,64927,1,0,0:0:0:75:LR_DS - Snare Wet High.wav
182,192,64927,1,0,0:0:0:0:
402,192,64927,1,0,0:0:0:0:
256,192,65093,1,0,0:0:0:0:
329,192,65260,1,0,0:0:0:75:LR3_Kick CSB.wav
475,192,65260,1,0,0:0:0:0:
256,192,65427,1,0,0:0:0:0:
329,192,65593,1,0,0:0:0:75:LR_DS - Snare Wet High.wav
109,192,65593,1,0,0:0:0:75:LR3_Kick CSB.wav
475,192,65593,1,0,0:0:0:0:
182,192,65677,1,0,0:0:0:0:
109,192,65760,1,0,0:0:0:75:LR3_Kick CSB.wav
475,192,65760,1,0,0:0:0:0:
36,192,65843,1,0,0:0:0:0:
109,192,65927,1,0,0:0:0:75:LR3_Kick CSB.wav
256,192,65927,1,0,0:0:0:0:
402,192,65927,1,0,0:0:0:0:
329,192,66010,1,0,0:0:0:0:
256,192,66093,1,0,0:0:0:0:
182,192,66177,1,0,0:0:0:0:
475,192,66260,1,0,0:0:0:75:LR_DS - Snare Wet High.wav
329,192,66260,1,0,0:0:0:0:
109,192,66260,1,0,0:0:0:0:
182,192,66343,1,0,0:0:0:0:
109,192,66427,1,0,0:0:0:0:
182,192,66510,1,0,0:0:0:0:
256,192,66593,1,0,0:0:0:75:LR3_Kick CSB.wav
36,192,66593,1,0,0:0:0:0:
329,192,66677,1,0,0:0:0:0:
402,192,66760,1,0,0:0:0:0:
329,192,66843,1,0,0:0:0:0:
475,192,66927,1,0,0:0:0:75:LR_DS - Snare Wet High.wav
256,192,66927,1,0,0:0:0:0:
36,192,66927,1,0,0:0:0:0:
182,192,67010,1,0,0:0:0:0:
109,192,67093,1,0,0:0:0:0:
36,192,67177,1,0,0:0:0:0:
109,192,67260,1,0,0:0:0:75:LR3_Kick CSB.wav
475,192,67260,1,0,0:0:0:0:
182,192,67343,1,0,0:0:0:0:
256,192,67427,1,0,0:0:0:0:
329,192,67510,1,0,0:0:0:0:
402,192,67593,1,4,0:0:0:75:LR_DS - Snare Wet High.wav
36,192,67593,1,0,0:0:0:0:
109,192,67593,1,0,0:0:0:0:
329,192,67677,1,0,0:0:0:0:
256,192,67760,1,0,0:0:0:0:
182,192,67843,1,0,0:0:0:0:
109,192,67927,1,0,0:0:0:75:LR3_Kick CSB.wav
475,192,67927,1,0,0:0:0:0:
182,192,68010,1,0,0:0:0:0:
36,192,68093,1,0,0:0:0:75:LR3_Kick CSB.wav
256,192,68093,1,0,0:0:0:0:
329,192,68177,1,0,0:0:0:0:
109,192,68260,1,0,0:0:0:75:LR_DS - Snare Wet High.wav
402,192,68260,1,0,0:0:0:75:LR3_Kick CSB.wav
329,192,68343,1,0,0:0:0:75:LR3_Kick CSB.wav
182,192,68343,1,0,0:0:0:0:
256,192,68427,1,0,0:0:0:75:LR3_Kick CSB.wav
329,192,68510,1,0,0:0:0:75:LR3_Kick CSB.wav
182,192,68510,1,0,0:0:0:0:
109,192,68593,1,0,0:0:0:75:LR3_Kick CSB.wav
402,192,68593,1,0,0:0:0:0:
36,192,68593,1,0,0:0:0:0:
475,192,68593,1,0,0:0:0:0:
256,192,68677,1,0,0:0:0:0:
256,192,68843,1,0,0:0:0:0:
109,192,68927,1,0,0:0:0:0:
402,192,68927,1,0,0:0:0:0:
256,192,69093,1,0,0:0:0:0:
36,192,69177,1,0,0:0:0:0:
475,192,69260,1,0,0:0:0:0:
329,192,69343,1,0,0:0:0:0:
182,192,69427,1,0,0:0:0:0:
329,192,69510,1,0,0:0:0:0:
36,192,69593,1,0,0:0:0:0:
475,192,69593,1,0,0:0:0:0:
182,192,69593,1,0,0:0:0:0:
36,192,69927,1,0,2:0:0:0:
475,192,69927,1,0,2:0:0:0:
329,192,69927,1,0,0:0:0:0:
256,192,70260,1,0,0:0:0:0:
256,192,70593,1,0,0:0:0:0:
256,192,70927,1,0,0:0:0:0:
402,192,71093,1,0,2:0:0:0:
109,192,71427,1,0,2:0:0:0:
402,192,71593,1,0,0:0:0:0:
256,192,71760,1,0,2:0:0:0:
109,192,71927,1,0,0:0:0:0:
402,192,72093,1,0,2:0:0:0:
36,192,72260,1,0,0:0:0:0:
256,192,72343,1,0,0:0:0:0:
475,192,72427,1,0,2:0:0:0:
256,192,72510,1,0,0:0:0:0:
182,192,72593,1,0,0:0:0:0:
329,192,72593,1,0,0:0:0:0:
256,192,72927,1,0,0:0:0:0:
109,192,73260,1,0,0:0:0:0:
109,192,73593,1,0,0:0:0:0:
329,192,73760,1,0,2:0:0:0:
182,192,73927,1,0,2:0:0:0:
329,192,74093,1,0,0:0:0:0:
182,192,74260,1,0,0:0:0:0:
256,192,74427,1,0,2:0:0:0:
109,192,74593,1,0,0:0:0:0:
329,192,74760,1,0,2:0:0:0:
329,192,74927,1,0,0:0:0:0:
402,192,75093,1,0,2:0:0:0:
36,192,75260,1,0,0:0:0:0:
475,192,75260,1,0,0:0:0:0:
182,192,75593,1,0,0:0:0:0:
182,192,75927,1,0,0:0:0:0:
329,192,76260,1,0,0:0:0:0:
475,192,76427,1,0,2:0:0:0:
109,192,76593,1,0,2:0:0:0:
256,192,76760,1,0,0:0:0:0:
182,192,76927,1,0,0:0:0:0:
256,192,77093,1,0,2:0:0:0:
329,192,77260,1,0,0:0:0:0:
109,192,77427,1,0,2:0:0:0:
402,192,77593,1,0,0:0:0:0:
256,192,77677,1,0,0:0:0:0:
109,192,77760,1,0,2:0:0:0:
256,192,77843,1,0,0:0:0:0:
329,192,77927,1,0,0:0:0:0:
475,192,77927,1,0,0:0:0:0:
182,192,78260,1,0,0:0:0:0:
109,192,78260,1,0,0:0:0:0:
256,192,78593,1,0,0:0:0:0:
329,192,78593,1,0,0:0:0:0:
256,192,78927,1,0,0:0:0:0:
329,192,78927,1,0,0:0:0:0:
475,192,79093,1,0,0:0:0:0:
402,192,79093,1,0,2:0:0:0:
475,192,79427,1,0,2:0:0:0:
329,192,79427,1,0,0:0:0:0:
402,192,79593,1,0,0:0:0:0:
256,192,79593,1,0,0:0:0:0:
329,192,79760,1,0,2:0:0:0:
182,192,79760,1,0,0:0:0:0:
256,192,79927,1,0,0:0:0:0:
109,192,79927,1,0,0:0:0:0:
182,192,80093,1,0,2:0:0:0:
36,192,80093,1,0,0:0:0:0:
256,192,80260,1,0,0:0:0:0:
402,192,80260,1,0,0:0:0:0:
329,192,80427,1,0,2:0:0:0:
475,192,80427,1,0,0:0:0:0:
182,192,80593,1,0,0:0:0:10:LR_Kick Low Strong Beat.wav
36,192,80593,1,0,0:0:0:0:
402,192,80593,1,0,0:0:0:0:
256,192,80760,1,0,0:0:0:0:
329,192,80843,1,0,0:0:0:0:
402,192,80927,1,0,0:0:0:75:LR_DS - Snare Wet High.wav
109,192,80927,1,0,0:0:0:0:
182,192,81093,1,0,0:0:0:0:
402,192,81177,1,0,0:0:0:0:
329,192,81260,1,0,0:0:0:75:LR3_Kick CSB.wav
36,192,81260,1,0,0:0:0:0:
109,192,81427,1,0,0:0:0:0:
182,192,81510,1,0,0:0:0:0:
256,192,81593,1,0,0:0:0:75:LR_DS - Snare Wet High.wav
475,192,81593,1,0,0:0:0:0:
182,192,81677,1,0,0:0:0:0:
109,192,81760,1,0,0:0:0:0:
36,192,81843,1,0,0:0:0:0:
402,192,81927,1,0,0:0:0:75:LR3_Kick CSB.wav
256,192,81927,1,0,0:0:0:0:
182,192,82093,128,0,82260:0:0:0:0:
329,192,82093,1,0,0:0:0:0:
109,192,82260,128,0,82427:0:0:0:75:LR_DS - Snare Wet High.wav
475,192,82260,1,0,0:0:0:0:
36,192,82260,1,0,0:0:0:0:
329,192,82427,128,0,82593:0:0:0:0:
256,192,82427,1,0,0:0:0:0:
475,192,82593,1,0,0:0:0:75:LR3_Kick CSB.wav
36,192,82593,1,0,0:0:0:0:
182,192,82760,1,0,0:0:0:0:
329,192,82927,1,0,0:0:0:75:LR_DS - Snare Wet High.wav
36,192,82927,1,0,0:0:0:0:
256,192,83010,1,0,0:0:0:0:
109,192,83093,1,0,0:0:0:75:LR3_Kick CSB.wav
329,192,83093,1,0,0:0:0:0:
402,192,83177,1,0,0:0:0:75:LR3_Kick CSB.wav
182,192,83177,1,0,0:0:0:0:
256,192,83260,1,0,0:0:0:75:LR3_Kick CSB.wav
475,192,83260,1,0,0:0:0:0:
36,192,83260,1,0,0:0:0:0:
182,192,83427,1,0,0:0:0:0:
329,192,83593,1,0,0:0:0:75:LR_DS - Snare Wet High.wav
402,192,83593,1,0,0:0:0:0:
182,192,83760,1,0,0:0:0:0:
329,192,83927,1,0,0:0:0:75:LR3_Kick CSB.wav
36,192,83927,1,0,0:0:0:0:
256,192,84093,1,0,0:0:0:0:
182,192,84177,1,0,0:0:0:0:
36,192,84260,1,0,0:0:0:75:LR_DS - Snare Wet High.wav
256,192,84260,1,0,0:0:0:0:
475,192,84260,1,0,0:0:0:0:
329,192,84343,1,0,0:0:0:0:
182,192,84427,1,0,0:0:0:0:
109,192,84593,1,0,0:0:0:75:LR3_Kick CSB.wav
402,192,84593,1,0,0:0:0:0:
256,192,84760,128,0,85927:0:0:0:0:
182,192,84760,128,0,84927:0:0:0:0:
329,192,84760,128,0,84927:0:0:0:0:
475,192,84927,128,0,85093:0:0:0:75:LR_DS - Snare Wet High.wav
36,192,84927,128,0,85093:0:0:0:0:
109,192,85093,128,0,85260:0:0:0:0:
402,192,85093,128,0,85260:0:0:0:0:
329,192,85260,128,0,85427:0:0:0:75:LR3_Kick CSB.wav
182,192,85260,128,0,85427:0:0:0:0:
36,192,85427,128,0,85593:0:0:0:0:
475,192,85427,128,0,85593:0:0:0:0:
402,192,85593,128,0,85760:0:0:0:75:LR_DS - Snare Wet High.wav
109,192,85593,128,0,85760:0:0:0:0:
182,192,85760,128,0,85927:0:0:0:0:
329,192,85760,128,0,85927:0:0:0:0:
36,192,85927,1,0,0:0:0:75:LR3_Kick CSB.wav
475,192,85927,1,0,0:0:0:0:
109,192,86093,1,0,0:0:0:75:LR3_Kick CSB.wav
182,192,86093,1,0,0:0:0:0:
329,192,86260,1,0,0:0:0:75:LR_DS - Snare Wet High.wav
402,192,86260,1,0,0:0:0:0:
36,192,86427,1,0,0:0:0:75:LR3_Kick CSB.wav
109,192,86427,1,0,0:0:0:0:
402,192,86593,1,0,0:0:0:75:LR3_Kick CSB.wav
475,192,86593,1,0,0:0:0:0:
109,192,86760,1,0,0:0:0:75:LR3_Kick CSB.wav
182,192,86760,1,0,0:0:0:0:
329,192,86927,1,0,0:0:0:75:LR_DS - Snare Wet High.wav
402,192,86927,1,0,0:0:0:0:
109,192,87093,1,0,0:0:0:75:LR3_Kick CSB.wav
182,192,87093,1,0,0:0:0:0:
475,192,87260,1,0,0:0:0:75:LR3_Kick CSB.wav
329,192,87260,1,0,0:0:0:0:
36,192,87427,1,0,0:0:0:75:LR3_Kick CSB.wav
182,192,87427,1,0,0:0:0:0:
329,192,87593,1,0,0:0:0:75:LR_DS - Snare Wet High.wav
475,192,87593,1,0,0:0:0:0:
109,192,87760,1,0,0:0:0:75:LR3_Kick CSB.wav
256,192,87760,1,0,0:0:0:0:
475,192,87927,1,0,0:0:0:75:LR3_Kick CSB.wav
329,192,87927,1,0,0:0:0:0:
182,192,88093,1,0,0:0:0:75:LR3_Kick CSB.wav
36,192,88093,1,0,0:0:0:0:
109,192,88260,1,0,0:0:0:75:LR_DS - Snare Wet High.wav
256,192,88260,1,0,0:0:0:0:
475,192,88427,1,0,0:0:0:75:LR3_Kick CSB.wav
329,192,88427,1,0,0:0:0:0:
36,192,88593,1,0,0:0:0:75:LR3_Kick CSB.wav
475,192,88593,1,0,0:0:0:0:
109,192,88677,1,0,0:0:0:75:LR3_Kick CSB.wav
402,192,88677,1,0,0:0:0:0:
182,192,88760,1,0,0:0:0:75:LR3_Kick CSB.wav
329,192,88760,1,0,0:0:0:0:
256,192,88843,1,0,0:0:0:75:LR3_Kick CSB.wav
329,192,88927,1,0,0:0:0:75:LR_DS - Snare Wet High.wav
182,192,88927,1,0,0:0:0:75:LR3_Kick CSB.wav
402,192,89010,1,0,0:0:0:75:LR3_Kick CSB.wav
109,192,89010,1,0,0:0:0:0:
36,192,89093,1,0,0:0:0:75:LR3_Kick CSB.wav
475,192,89093,1,0,0:0:0:0:
109,192,89177,1,0,0:0:0:75:LR3_Kick CSB.wav
402,192,89177,1,0,0:0:0:0:
182,192,89260,1,0,0:0:0:75:LR3_Kick CSB.wav
329,192,89260,1,0,0:0:0:0:
475,192,89343,1,0,0:0:0:75:LR3_Kick CSB.wav
36,192,89343,1,0,0:0:0:0:
402,192,89427,1,0,0:0:0:75:LR3_Kick CSB.wav
109,192,89427,1,0,0:0:0:0:
182,192,89510,1,0,0:0:0:75:LR3_Kick CSB.wav
329,192,89510,1,0,0:0:0:0:
36,192,89593,1,0,0:0:0:75:LR_DS - Snare Wet High.wav
475,192,89593,1,0,0:0:0:0:
109,192,89677,1,0,0:0:0:75:LR3_Kick CSB.wav
402,192,89677,1,0,0:0:0:0:
329,192,89760,1,0,0:0:0:75:LR3_Kick CSB.wav
182,192,89760,1,0,0:0:0:0:
256,192,89843,1,0,0:0:0:75:LR3_Kick CSB.wav
329,192,89927,1,0,0:0:0:75:LR3_Kick CSB.wav
182,192,89927,1,0,0:0:0:0:
402,192,90010,1,0,0:0:0:75:LR3_Kick CSB.wav
109,192,90010,1,0,0:0:0:0:
36,192,90093,1,0,0:0:0:75:LR3_Kick CSB.wav
475,192,90093,1,0,0:0:0:0:
109,192,90177,1,0,0:0:0:75:LR3_Kick CSB.wav
402,192,90177,1,0,0:0:0:0:
329,192,90260,1,0,0:0:0:75:LR_DS - Snare Wet High.wav
182,192,90260,1,0,0:0:0:75:LR3_Kick CSB.wav
256,192,90343,1,0,0:0:0:75:LR3_Kick CSB.wav
182,192,90427,1,0,0:0:0:75:LR3_Kick CSB.wav
329,192,90427,1,0,0:0:0:0:
402,192,90510,1,0,0:0:0:75:LR3_Kick CSB.wav
109,192,90510,1,0,0:0:0:0:
475,192,90593,1,0,0:0:0:75:LR3_Kick CSB.wav
36,192,90593,1,0,0:0:0:0:
402,192,90677,1,0,0:0:0:75:LR3_Kick CSB.wav
109,192,90677,1,0,0:0:0:0:
182,192,90760,1,0,0:0:0:75:LR3_Kick CSB.wav
329,192,90760,1,0,0:0:0:0:
402,192,90843,1,0,0:0:0:75:LR3_Kick CSB.wav
109,192,90843,1,0,0:0:0:0:
36,192,90927,1,0,0:0:0:75:LR_DS - Snare Wet High.wav
475,192,90927,1,0,0:0:0:75:LR3_Kick CSB.wav
109,192,91010,1,0,0:0:0:75:LR3_Kick CSB.wav
402,192,91010,1,0,0:0:0:0:
329,192,91093,1,0,0:0:0:75:LR3_Kick CSB.wav
182,192,91093,1,0,0:0:0:0:
109,192,91177,1,0,0:0:0:0:
402,192,91177,1,0,0:0:0:0:
182,192,91260,128,0,92260:0:0:0:0:
256,192,91260,128,0,92260:0:0:0:0:
36,192,91260,128,0,92260:0:0:0:0:
475,192,91260,128,0,92260:0:0:0:0:
329,192,91260,128,0,92260:0:0:0:0:
109,192,92260,1,0,0:0:0:0:
402,192,92260,1,0,0:0:0:0:
36,192,92593,1,0,0:0:0:0:
475,192,92593,1,0,0:0:0:0:
256,192,92593,1,0,0:0:0:0:
109,192,92593,1,0,0:0:0:0:
402,192,92593,1,0,0:0:0:0:
182,192,92760,1,0,0:0:0:0:
329,192,92843,1,0,0:0:0:0:
402,192,92927,1,0,0:0:0:75:LR_DS - Snare Wet High.wav
256,192,92927,1,0,0:0:0:0:
36,192,92927,1,0,0:0:0:0:
109,192,93093,1,0,0:0:0:0:
402,192,93177,1,0,0:0:0:0:
182,192,93260,1,0,0:0:0:75:LR3_Kick CSB.wav
329,192,93260,1,0,0:0:0:0:
109,192,93427,1,0,0:0:0:0:
256,192,93593,1,0,0:0:0:75:LR_DS - Snare Wet High.wav
475,192,93593,1,0,0:0:0:0:
36,192,93593,1,0,0:0:0:0:
182,192,93677,1,0,0:0:0:0:
329,192,93760,1,0,0:0:0:0:
109,192,93760,1,0,0:0:0:0:
182,192,93843,1,0,0:0:0:0:
402,192,93843,1,0,0:0:0:0:
256,192,93927,1,0,0:0:0:75:LR3_Kick CSB.wav
475,192,93927,1,0,0:0:0:0:
329,192,94093,128,0,94260:0:0:0:0:
475,192,94093,1,0,0:0:0:0:
36,192,94093,1,0,0:0:0:0:
109,192,94260,128,0,94427:0:0:0:75:LR_DS - Snare Wet High.wav
256,192,94260,1,0,0:0:0:0:
402,192,94260,1,0,0:0:0:0:
182,192,94427,128,0,94593:0:0:0:0:
36,192,94427,1,0,0:0:0:0:
475,192,94427,1,0,0:0:0:0:
329,192,94593,1,0,0:0:0:75:LR3_Kick CSB.wav
256,192,94593,128,0,94760:0:0:0:0:
402,192,94760,1,0,0:0:0:0:
36,192,94760,1,0,0:0:0:0:
182,192,94927,1,0,0:0:0:75:LR_DS - Snare Wet High.wav
475,192,94927,1,0,0:0:0:0:
256,192,95010,1,0,0:0:0:0:
182,192,95093,1,0,0:0:0:0:
256,192,95177,1,0,0:0:0:0:
329,192,95260,1,0,0:0:0:75:LR3_Kick CSB.wav
402,192,95260,1,0,0:0:0:0:
36,192,95260,1,0,0:0:0:0:
182,192,95427,1,0,0:0:0:0:
329,192,95510,1,0,0:0:0:0:
402,192,95593,1,0,0:0:0:75:LR_DS - Snare Wet High.wav
256,192,95593,1,0,0:0:0:0:
109,192,95760,1,0,0:0:0:0:
182,192,95927,1,0,0:0:0:75:LR3_Kick CSB.wav
36,192,95927,1,0,0:0:0:0:
475,192,96093,1,0,0:0:0:0:
256,192,96177,1,0,0:0:0:0:
109,192,96260,1,0,0:0:0:75:LR3_Kick CSB.wav
329,192,96260,1,0,0:0:0:75:LR_DS - Snare Wet High.wav
402,192,96343,1,0,0:0:0:0:
182,192,96343,1,0,0:0:0:0:
329,192,96427,1,0,0:0:0:75:LR3_Kick CSB.wav
109,192,96427,1,0,0:0:0:0:
402,192,96510,1,0,0:0:0:75:LR3_Kick CSB.wav
182,192,96510,1,0,0:0:0:0:
329,192,96593,1,0,0:0:0:75:LR3_Kick CSB.wav
109,192,96593,1,0,0:0:0:0:
36,192,96593,1,0,0:0:0:0:
182,192,96760,1,0,0:0:0:0:
402,192,96927,1,0,0:0:0:75:LR_DS - Snare Wet High.wav
109,192,96927,1,0,0:0:0:75:LR3_Kick CSB.wav
475,192,96927,1,0,0:0:0:0:
329,192,97093,1,0,0:0:0:0:
109,192,97260,1,0,0:0:0:75:LR3_Kick CSB.wav
36,192,97260,1,0,0:0:0:0:
256,192,97260,1,0,0:0:0:0:
182,192,97510,1,0,0:0:0:75:LR3_Kick CSB.wav
402,192,97510,1,0,0:0:0:0:
475,192,97510,1,0,0:0:0:0:
109,192,97760,1,0,0:0:0:75:LR3_Kick CSB.wav
182,192,97760,1,0,0:0:0:0:
402,192,97760,1,0,0:0:0:0:
256,192,97927,1,0,0:0:0:75:LR3_Kick CSB.wav
36,192,97927,1,0,0:0:0:0:
329,192,97927,1,0,0:0:0:0:
475,192,98093,1,0,0:0:0:0:
402,192,98177,1,0,0:0:0:0:
182,192,98260,1,0,0:0:0:75:LR_DS - Snare Wet High.wav
329,192,98260,1,0,0:0:0:0:
109,192,98427,1,0,0:0:0:0:
256,192,98593,1,0,0:0:0:75:LR3_Kick CSB.wav
475,192,98593,1,0,0:0:0:0:
402,192,98760,1,0,0:0:0:0:
329,192,98843,1,0,0:0:0:0:
109,192,98927,1,0,0:0:0:75:LR_DS - Snare Wet High.wav
256,192,98927,1,0,0:0:0:0:
475,192,99010,1,0,0:0:0:0:
182,192,99093,1,0,0:0:0:0:
402,192,99093,1,0,0:0:0:0:
329,192,99177,1,0,0:0:0:0:
109,192,99177,1,0,0:0:0:0:
36,192,99260,1,0,0:0:0:75:LR3_Kick CSB.wav
256,192,99260,1,0,0:0:0:0:
36,192,99427,1,0,0:0:0:0:
329,192,99427,1,0,0:0:0:0:
109,192,99593,1,0,0:0:0:75:LR_DS - Snare Wet High.wav
402,192,99593,1,0,0:0:0:0:
182,192,99760,1,0,0:0:0:0:
475,192,99760,1,0,0:0:0:0:
329,192,99927,1,0,0:0:0:75:LR3_Kick CSB.wav
256,192,100010,1,0,0:0:0:0:
329,192,100093,1,0,0:0:0:0:
256,192,100177,1,0,0:0:0:0:
475,192,100260,1,0,0:0:0:75:LR_DS - Snare Wet High.wav
182,192,100260,1,0,0:0:0:75:LR3_Kick CSB.wav
256,192,100343,1,0,0:0:0:0:
182,192,100427,1,0,0:0:0:75:LR3_Kick CSB.wav
402,192,100427,1,0,0:0:0:0:
109,192,100510,1,0,0:0:0:0:
36,192,100593,1,0,0:0:0:75:LR3_Kick CSB.wav
329,192,100593,1,0,0:0:0:0:
256,192,100593,1,0,0:0:0:0:
402,192,100677,1,0,0:0:0:0:
475,192,100760,1,0,0:0:0:0:
402,192,100843,1,0,0:0:0:0:
109,192,100927,1,0,0:0:0:75:LR_DS - Snare Wet High.wav
329,192,100927,1,0,0:0:0:0:
256,192,101010,1,0,0:0:0:0:
182,192,101093,1,0,0:0:0:0:
256,192,101177,1,0,0:0:0:0:
329,192,101260,1,0,0:0:0:75:LR3_Kick CSB.wav
36,192,101260,1,0,0:0:0:0:
402,192,101343,1,0,0:0:0:0:
329,192,101427,1,0,0:0:0:0:
256,192,101510,1,0,0:0:0:0:
182,192,101593,1,0,0:0:0:75:LR_DS - Snare Wet High.wav
402,192,101593,1,0,0:0:0:0:
109,192,101677,1,0,0:0:0:0:
36,192,101760,1,0,0:0:0:0:
109,192,101843,1,0,0:0:0:0:
329,192,101927,1,4,0:0:0:0:
182,192,101927,1,0,0:0:0:0:
256,192,102010,1,0,0:0:0:0:
182,192,102093,1,0,0:0:0:0:
109,192,102177,1,0,0:0:0:0:
182,192,102260,1,4,0:0:0:75:LR_DS - Snare Wet High.wav
402,192,102260,1,0,0:0:0:0:
329,192,102343,1,0,0:0:0:0:
256,192,102427,1,0,0:0:0:0:
182,192,102510,1,0,0:0:0:0:
109,192,102593,1,0,0:0:0:0:
402,192,102593,1,0,0:0:0:0:
109,192,102760,1,0,0:0:0:75:LR3_Kick CSB.wav
402,192,102760,1,0,0:0:0:0:
182,192,102927,1,0,0:0:0:75:LR_DS - Snare Wet High.wav
329,192,102927,1,0,0:0:0:100:LR3_Kick CSB.wav
109,192,103010,1,0,0:0:0:75:LR3_Kick CSB.wav
402,192,103010,1,0,0:0:0:0:
329,192,103093,1,0,0:0:0:100:LR3_Kick CSB.wav
182,192,103093,1,0,0:0:0:0:
109,192,103177,1,0,0:0:0:75:LR3_Kick CSB.wav
402,192,103177,1,0,0:0:0:0:
256,192,103260,128,4,103927:0:0:0:0:
36,192,103260,1,0,0:0:0:0:
475,192,103260,1,0,0:0:0:0:
182,192,103427,1,0,0:0:0:0:
475,192,103593,1,0,0:0:0:75:LR_DS - Snare Wet High.wav
36,192,103593,1,0,0:0:0:0:
182,192,103760,1,0,0:0:0:0:
329,192,103760,1,0,0:0:0:0:
475,192,103927,1,0,0:0:0:75:LR3_Kick CSB.wav
329,192,103927,128,0,104593:0:0:0:0:
182,192,104093,1,0,0:0:0:0:
36,192,104177,1,0,0:0:0:0:
109,192,104260,1,0,0:0:0:75:LR_DS - Snare Wet High.wav
475,192,104260,1,0,0:0:0:0:
182,192,104343,1,0,0:0:0:0:
109,192,104427,1,0,0:0:0:0:
182,192,104510,1,0,0:0:0:0:
36,192,104593,1,0,0:0:0:0:
475,192,104593,128,0,105260:0:0:0:0:
256,192,104593,1,0,0:0:0:0:
109,192,104760,128,0,104927:0:0:0:0:
182,192,104927,128,0,105093:0:0:0:75:LR_DS - Snare Wet High.wav
256,192,104927,1,0,0:0:0:0:
402,192,104927,1,0,0:0:0:0:
329,192,105093,128,0,105260:0:0:0:0:
109,192,105093,1,0,0:0:0:0:
36,192,105260,128,0,105927:0:0:0:75:LR3_Kick CSB.wav
256,192,105260,128,0,105427:0:0:0:0:
182,192,105427,128,0,105593:0:0:0:0:
402,192,105427,1,0,0:0:0:0:
475,192,105593,1,0,0:0:0:75:LR_DS - Snare Wet High.wav
109,192,105593,128,0,105677:0:0:0:0:
329,192,105593,1,0,0:0:0:0:
402,192,105677,1,0,0:0:0:0:
182,192,105677,128,0,105760:0:0:0:0:
109,192,105760,128,0,105843:0:0:0:0:
329,192,105760,1,0,0:0:0:0:
402,192,105843,1,0,0:0:0:0:
182,192,105843,128,0,105927:0:0:0:0:
256,192,105927,1,0,0:0:0:100:LR3_Kick CSB.wav
475,192,105927,128,0,106593:0:0:0:0:
329,192,105927,1,0,0:0:0:0:
109,192,106093,1,0,0:0:0:0:
256,192,106177,1,0,0:0:0:0:
182,192,106260,1,0,0:0:0:75:LR_DS - Snare Wet High.wav
402,192,106260,1,0,0:0:0:0:
109,192,106427,1,0,0:0:0:0:
182,192,106510,1,0,0:0:0:0:
256,192,106593,128,0,107260:0:0:0:75:LR3_Kick CSB.wav
329,192,106593,1,0,0:0:0:0:
36,192,106760,1,0,0:0:0:0:
475,192,106927,1,0,0:0:0:75:LR_DS - Snare Wet High.wav
36,192,106927,1,0,0:0:0:0:
402,192,107010,1,0,0:0:0:0:
109,192,107010,1,0,0:0:0:0:
329,192,107093,1,0,0:0:0:0:
182,192,107093,1,0,0:0:0:0:
109,192,107177,1,0,0:0:0:0:
402,192,107177,1,0,0:0:0:0:
329,192,107260,1,0,0:0:0:75:LR3_Kick CSB.wav
475,192,107260,1,0,0:0:0:0:
182,192,107260,1,0,0:0:0:0:
36,192,107260,1,0,0:0:0:0:
402,192,107593,1,0,0:0:0:75:LR_DS - Snare Wet High.wav
109,192,107593,1,0,0:0:0:0:
256,192,107760,1,0,0:0:0:0:
256,192,107927,128,0,108593:0:0:0:0:
109,192,108093,1,0,0:0:0:0:
402,192,108093,1,0,0:0:0:0:
36,192,108260,1,0,0:0:0:75:LR_DS - Snare Wet High.wav
475,192,108260,1,0,0:0:0:75:LR3_Kick CSB.wav
109,192,108343,1,0,0:0:0:75:LR3_Kick CSB.wav
402,192,108343,1,0,0:0:0:0:
329,192,108427,1,0,0:0:0:75:LR3_Kick CSB.wav
182,192,108427,1,0,0:0:0:0:
402,192,108510,1,0,0:0:0:75:LR3_Kick CSB.wav
109,192,108510,1,0,0:0:0:0:
182,192,108593,1,0,0:0:0:75:LR3_Kick CSB.wav
36,192,108593,128,0,109260:0:0:0:0:
329,192,108593,1,0,0:0:0:0:
475,192,108760,1,0,0:0:0:0:
402,192,108843,1,0,0:0:0:0:
182,192,108927,1,0,0:0:0:75:LR_DS - Snare Wet High.wav
329,192,108927,1,0,0:0:0:0:
256,192,109093,1,0,0:0:0:0:
402,192,109260,128,0,109927:0:0:0:0:
182,192,109260,1,0,0:0:0:0:
329,192,109427,1,0,0:0:0:0:
256,192,109510,1,0,0:0:0:0:
182,192,109593,1,0,0:0:0:75:LR_DS - Snare Wet High.wav
36,192,109593,1,0,0:0:0:0:
256,192,109677,1,0,0:0:0:0:
182,192,109760,1,0,0:0:0:0:
329,192,109843,1,0,0:0:0:0:
109,192,109843,1,0,0:0:0:0:
36,192,109927,1,0,0:0:0:75:LR3_Kick CSB.wav
256,192,109927,1,0,0:0:0:0:
475,192,109927,128,0,110593:0:0:0:0:
109,192,110093,1,0,0:0:0:0:
182,192,110093,1,0,0:0:0:0:
256,192,110260,1,0,0:0:0:75:LR_DS - Snare Wet High.wav
36,192,110260,1,0,0:0:0:0:
109,192,110427,1,0,0:0:0:0:
329,192,110427,1,0,0:0:0:0:
402,192,110593,1,0,0:0:0:0:
36,192,110593,1,0,0:0:0:0:
109,192,110677,1,0,0:0:0:0:
182,192,110760,1,0,0:0:0:0:
256,192,110843,1,0,0:0:0:0:
182,192,110927,1,0,0:0:0:75:LR_DS - Snare Wet High.wav
36,192,110927,1,0,0:0:0:0:
256,192,111010,1,0,0:0:0:0:
329,192,111093,1,0,0:0:0:75:LR3_Kick CSB.wav
36,192,111093,1,0,0:0:0:0:
402,192,111177,1,0,0:0:0:0:
475,192,111260,1,0,0:0:0:75:LR3_Kick CSB.wav
256,192,111260,1,0,0:0:0:0:
36,192,111260,1,0,0:0:0:0:
329,192,111343,1,0,0:0:0:0:
109,192,111343,1,0,0:0:0:0:
402,192,111427,1,0,0:0:0:0:
182,192,111427,1,0,0:0:0:0:
475,192,111510,1,0,0:0:0:0:
256,192,111510,1,0,0:0:0:0:
402,192,111593,1,0,0:0:0:75:LR_DS - Snare Wet High.wav
182,192,111593,1,0,0:0:0:0:
109,192,111677,1,0,0:0:0:0:
329,192,111677,1,0,0:0:0:0:
36,192,111760,1,0,0:0:0:0:
256,192,111760,1,0,0:0:0:0:
109,192,111843,1,0,0:0:0:0:
329,192,111843,1,0,0:0:0:0:
182,192,111927,1,0,0:0:0:75:LR3_Kick CSB.wav
402,192,111927,1,0,0:0:0:0:
109,192,112010,1,0,0:0:0:0:
329,192,112010,1,0,0:0:0:0:
182,192,112093,1,0,0:0:0:0:
402,192,112093,1,0,0:0:0:0:
256,192,112177,1,0,0:0:0:0:
475,192,112177,1,0,0:0:0:0:
182,192,112260,1,0,0:0:0:75:LR_DS - Snare Wet High.wav
402,192,112260,1,0,0:0:0:0:
109,192,112343,1,0,0:0:0:0:
329,192,112343,1,0,0:0:0:0:
36,192,112427,1,0,0:0:0:0:
256,192,112427,1,0,0:0:0:0:
109,192,112510,1,0,0:0:0:0:
329,192,112510,1,0,0:0:0:0:
182,192,112593,1,4,0:0:0:75:LR3_Kick CSB.wav
402,192,112593,1,4,0:0:0:0:
475,192,112593,1,0,0:0:0:0:
109,192,112760,1,4,0:0:0:75:LR3_Kick CSB.wav
36,192,112760,1,0,0:0:0:0:
329,192,112927,1,4,0:0:0:75:LR_DS - Snare Wet High.wav
475,192,112927,1,0,0:0:0:75:LR3_Kick CSB.wav
109,192,113093,1,4,0:0:0:75:LR3_Kick CSB.wav
182,192,113093,1,4,0:0:0:0:
329,192,113260,1,4,0:0:0:75:LR3_Kick CSB.wav
475,192,113260,1,0,0:0:0:0:
329,192,113427,1,4,0:0:0:75:LR3_Kick CSB.wav
475,192,113427,1,0,0:0:0:0:
256,192,113593,1,0,0:0:0:75:LR_DS - Snare Wet High.wav
109,192,113593,1,0,0:0:0:0:
329,192,113677,1,0,0:0:0:75:LR3_Kick CSB.wav
36,192,113677,1,0,0:0:0:0:
402,192,113760,1,0,0:0:0:75:LR3_Kick CSB.wav
109,192,113760,1,0,0:0:0:0:
475,192,113843,1,0,0:0:0:75:LR3_Kick CSB.wav
182,192,113843,1,0,0:0:0:0:
256,192,113927,1,0,0:0:0:50:LR3_Kick CSB.wav
402,192,113927,1,0,0:0:0:0:
182,192,114010,1,0,0:0:0:50:LR3_Kick CSB.wav
475,192,114010,1,0,0:0:0:0:
109,192,114093,1,0,0:0:0:50:LR3_Kick CSB.wav
402,192,114093,1,0,0:0:0:0:
36,192,114177,1,0,0:0:0:50:LR3_Kick CSB.wav
329,192,114177,1,0,0:0:0:0:
256,192,114260,1,0,0:0:0:75:LR_DS - Snare Wet High.wav
182,192,114343,1,0,0:0:0:50:LR3_Kick CSB.wav
475,192,114343,1,0,0:0:0:0:
109,192,114427,1,0,0:0:0:50:LR3_Kick CSB.wav
402,192,114427,1,0,0:0:0:0:
36,192,114510,1,0,0:0:0:50:LR3_Kick CSB.wav
329,192,114510,1,0,0:0:0:0:
256,192,114593,1,0,0:0:0:50:LR3_Kick CSB.wav
109,192,114593,1,0,0:0:0:0:
329,192,114677,1,0,0:0:0:50:LR3_Kick CSB.wav
36,192,114677,1,0,0:0:0:0:
402,192,114760,1,0,0:0:0:50:LR3_Kick CSB.wav
109,192,114760,1,0,0:0:0:0:
475,192,114843,1,0,0:0:0:50:LR3_Kick CSB.wav
182,192,114843,1,0,0:0:0:0:
256,192,114927,1,0,0:0:0:75:LR_DS - Snare Wet High.wav
329,192,115010,1,0,0:0:0:50:LR3_Kick CSB.wav
36,192,115010,1,0,0:0:0:0:
402,192,115093,1,0,0:0:0:50:LR3_Kick CSB.wav
109,192,115093,1,0,0:0:0:0:
475,192,115177,1,0,0:0:0:50:LR3_Kick CSB.wav
182,192,115177,1,0,0:0:0:0:
256,192,115260,1,0,0:0:0:50:LR3_Kick CSB.wav
402,192,115260,1,0,0:0:0:0:
475,192,115343,1,0,0:0:0:50:LR3_Kick CSB.wav
182,192,115343,1,0,0:0:0:0:
402,192,115427,1,0,0:0:0:50:LR3_Kick CSB.wav
109,192,115427,1,0,0:0:0:0:
329,192,115510,1,0,0:0:0:50:LR3_Kick CSB.wav
36,192,115510,1,0,0:0:0:0:
256,192,115593,1,0,0:0:0:75:LR_DS - Snare Wet High.wav
182,192,115677,1,0,0:0:0:50:LR3_Kick CSB.wav
475,192,115677,1,0,0:0:0:0:
109,192,115760,1,0,0:0:0:50:LR3_Kick CSB.wav
402,192,115760,1,0,0:0:0:0:
36,192,115843,1,0,0:0:0:50:LR3_Kick CSB.wav
329,192,115843,1,0,0:0:0:0:
256,192,115927,1,0,0:0:0:50:LR3_Kick CSB.wav
109,192,115927,1,0,0:0:0:0:
329,192,116010,1,0,0:0:0:50:LR3_Kick CSB.wav
36,192,116010,1,0,0:0:0:0:
402,192,116093,1,0,0:0:0:50:LR3_Kick CSB.wav
109,192,116093,1,0,0:0:0:0:
475,192,116177,1,0,0:0:0:50:LR3_Kick CSB.wav
182,192,116177,1,0,0:0:0:0:
256,192,116260,1,0,0:0:0:75:LR_DS - Snare Wet High.wav
329,192,116343,1,0,0:0:0:50:LR3_Kick CSB.wav
36,192,116343,1,0,0:0:0:0:
402,192,116427,1,0,0:0:0:50:LR3_Kick CSB.wav
109,192,116427,1,0,0:0:0:0:
475,192,116510,1,0,0:0:0:50:LR3_Kick CSB.wav
182,192,116510,1,0,0:0:0:0:
329,192,116593,1,0,0:0:0:40:cymbol.wav
36,192,116593,1,0,0:0:0:0:
402,192,116593,1,0,0:0:0:0:
256,192,116593,1,0,0:0:0:0:
