osu file format v13

[General]
AudioFilename: LEMON SUMMER.mp3
AudioLeadIn: 0
PreviewTime: 92594
Countdown: 0
SampleSet: Normal
StackLeniency: 0.7
Mode: 3
LetterboxInBreaks: 0
SpecialStyle: 0
WidescreenStoryboard: 0

[Editor]
DistanceSpacing: 2
BeatDivisor: 4
GridSize: 16
TimelineZoom: 1.8

[Metadata]
Title:LEMON SUMMER
TitleUnicode:LEMON SUMMER
Artist:Paitan
ArtistUnicode:パイタン
Creator:Yuutosan
Version:4K NOVICE
Source:SOUND VOLTEX II -infinite infection-
Tags:sdvx 2 bemani konami floor Zan - puxtu
BeatmapID:551775
BeatmapSetID:237212

[Difficulty]
HPDrainRate:7
CircleSize:4
OverallDifficulty:7
ApproachRate:5
SliderMultiplier:1.4
SliderTickRate:1

[Events]
//Background and Video events
0,0,"background.png",0,0
//Break Periods
//Storyboard Layer 0 (Background)
//Storyboard Layer 1 (Fail)
//Storyboard Layer 2 (Pass)
//Storyboard Layer 3 (Foreground)
//Storyboard Sound Samples

[TimingPoints]
594,333.333333333333,4,1,1,20,1,0
24593,-100,4,1,1,20,0,1
45760,-100,4,1,1,20,0,0
57927,-100,4,1,1,20,0,1
68593,-100,4,1,1,20,0,0
80593,-100,4,1,1,20,0,1
92260,-100,4,1,1,20,0,0
92593,-100,4,1,1,20,0,1
116593,-100,4,1,1,20,0,0

[HitObjects]
36,192,594,5,0,0:0:0:0:
475,192,594,1,0,0:0:0:0:
109,192,1260,1,0,0:0:0:0:
402,192,1343,1,0,0:0:0:0:
64,192,1510,1,0,0:0:0:0:
448,192,1593,1,0,0:0:0:0:
329,192,1593,1,0,0:0:0:0:
475,192,1927,1,4,0:0:0:75:LR3_Kick CSB.wav
64,192,1927,1,0,0:0:0:0:
320,192,2260,1,0,0:0:0:75:LR_DS - Snare Wet High.wav
109,192,2260,1,0,0:0:0:0:
402,192,2427,1,0,0:0:0:0:
182,192,2593,1,0,0:0:0:75:LR3_Kick CSB.wav
36,192,2760,1,0,0:0:0:0:
256,192,2927,1,0,0:0:0:75:LR_DS - Snare Wet High.wav
475,192,2927,1,0,0:0:0:0:
36,192,3260,1,0,0:0:0:75:LR3_Kick CSB.wav
192,192,3593,1,0,0:0:0:75:LR_DS - Snare Wet High.wav
402,192,3593,1,0,0:0:0:0:
109,192,3760,1,0,0:0:0:0:
329,192,3927,1,0,0:0:0:75:LR3_Kick CSB.wav
475,192,4093,1,0,0:0:0:0:
192,192,4260,1,0,0:0:0:75:LR_DS - Snare Wet High.wav
36,192,4260,1,0,0:0:0:0:
475,192,4593,1,0,0:0:0:75:LR3_Kick CSB.wav
329,192,4927,1,0,0:0:0:75:LR_DS - Snare Wet High.wav
109,192,4927,1,0,0:0:0:0:
475,192,5093,1,0,0:0:0:0:
182,192,5260,1,0,0:0:0:75:LR3_Kick CSB.wav
36,192,5427,1,0,0:0:0:0:
320,192,5593,1,0,0:0:0:75:LR_DS - Snare Wet High.wav
475,192,5593,128,0,5927:0:0:0:100:LR3_Kick CSB.wav
36,192,5927,1,4,0:0:0:75:LR3_Kick CSB.wav
182,192,5927,1,0,0:0:0:40:cymbol.wav
109,192,6260,1,0,0:0:0:75:LR_DS - Snare Wet High.wav
256,192,6260,1,0,0:0:0:0:
475,192,6593,1,0,0:0:0:75:LR3_Kick CSB.wav
320,192,6593,1,0,0:0:0:0:
182,192,6843,1,0,0:0:0:100:LR3_Kick CSB.wav
329,192,6843,1,0,0:0:0:0:
182,192,7093,1,0,0:0:0:100:LR3_Kick CSB.wav
36,192,7093,1,0,0:0:0:0:
36,192,7260,1,4,0:0:0:75:LR3_Kick CSB.wav
475,192,7260,1,4,0:0:0:0:
320,192,7593,1,0,0:0:0:75:LR_DS - Snare Wet High.wav
109,192,7593,1,0,0:0:0:0:
475,192,7927,1,0,0:0:0:75:LR3_Kick CSB.wav
109,192,8260,1,0,0:0:0:75:LR_DS - Snare Wet High.wav
256,192,8260,1,0,0:0:0:0:
475,192,8593,1,4,0:0:0:75:LR3_Kick CSB.wav
182,192,8927,1,0,0:0:0:75:LR_DS - Snare Wet High.wav
329,192,8927,1,0,0:0:0:0:
36,192,9260,1,0,0:0:0:75:LR3_Kick CSB.wav
109,192,9593,1,0,0:0:0:75:LR_DS - Snare Wet High.wav
256,192,9593,1,0,0:0:0:75:LR3_Kick CSB.wav
256,192,9760,1,0,0:0:0:75:LR3_Kick CSB.wav
402,192,9927,128,4,10260:0:0:0:75:LR3_Kick CSB.wav
192,192,9927,1,4,0:0:0:0:
109,192,10260,1,0,0:0:0:75:LR_DS - Snare Wet High.wav
182,192,10260,1,0,0:0:0:0:
320,192,10593,1,0,0:0:0:75:LR3_Kick CSB.wav
109,192,10593,128,0,10927:0:0:0:0:
329,192,10927,1,0,0:0:0:75:LR_DS - Snare Wet High.wav
402,192,10927,1,0,0:0:0:0:
109,192,11260,1,4,0:0:0:75:LR3_Kick CSB.wav
256,192,11260,1,0,0:0:0:0:
402,192,11427,1,0,0:0:0:0:
182,192,11593,1,4,0:0:0:75:LR_DS - Snare Wet High.wav
329,192,11593,1,4,0:0:0:75:LR3_Kick CSB.wav
36,192,11760,1,0,0:0:0:0:
448,192,11927,1,0,0:0:0:75:LR3_Kick CSB.wav
109,192,11927,1,0,0:0:0:0:
329,192,12093,1,0,0:0:0:75:LR3_Kick CSB.wav
182,192,12093,1,0,0:0:0:0:
448,192,12260,1,0,0:0:0:75:LR_DS - Snare Wet High.wav
64,192,12260,128,0,12593:0:0:0:75:LR3_Kick CSB.wav
320,192,12593,128,0,13593:0:0:0:75:LR3_Kick CSB.wav
448,192,12593,1,0,0:0:0:0:
64,192,13593,1,0,0:0:0:75:LR_DS - Snare Wet High.wav
448,192,13593,1,0,0:0:0:0:
109,192,13927,128,0,14593:0:0:0:10:LR_Kick Low Strong Beat.wav
320,192,14593,128,0,15093:0:0:0:0:
64,192,15093,128,0,15927:0:0:0:0:
448,192,15927,128,0,16593:0:0:0:0:
64,192,16593,128,0,17260:0:0:0:0:
192,192,17260,128,0,17760:0:0:0:0:
320,192,17760,128,0,18593:0:0:0:0:
448,192,18593,128,0,19260:0:0:0:0:
192,192,19260,128,0,19927:0:0:0:75:LR3_Kick CSB.wav
320,192,19927,128,0,20427:0:0:0:0:
36,192,20427,128,0,21260:0:0:0:0:
475,192,21260,128,0,21927:0:0:0:0:
64,192,21927,1,0,0:0:0:75:LR3_Kick CSB.wav
320,192,21927,1,0,0:0:0:0:
192,192,22260,1,0,0:0:0:75:LR3_Kick CSB.wav
448,192,22260,1,0,0:0:0:0:
36,192,22593,1,0,0:0:0:75:LR3_Kick CSB.wav
256,192,22593,1,0,0:0:0:0:
256,192,22927,1,0,0:0:0:75:LR3_Kick CSB.wav
475,192,22927,1,0,0:0:0:0:
36,192,23260,1,0,0:0:0:75:LR3_Kick CSB.wav
182,192,23260,1,0,0:0:0:0:
475,192,23593,1,0,0:0:0:75:LR3_Kick CSB.wav
329,192,23593,1,0,0:0:0:0:
448,192,23927,128,0,24093:0:0:0:75:LR3_Kick CSB.wav
182,192,24093,128,0,24260:0:0:0:0:
329,192,24260,128,0,24427:0:0:0:0:
64,192,24427,128,0,24593:0:0:0:0:
448,192,24593,1,0,0:0:0:100:LR3_Kick CSB.wav
192,192,24593,1,0,0:0:0:0:
329,192,24927,1,0,0:0:0:75:LR_DS - Snare Wet High.wav
475,192,24927,1,0,0:0:0:0:
36,192,25260,1,0,0:0:0:75:LR3_Kick CSB.wav
182,192,25593,1,0,0:0:0:75:LR_DS - Snare Wet High.wav
329,192,25593,1,0,0:0:0:0:
36,192,25927,1,0,0:0:0:75:LR3_Kick CSB.wav
329,192,26260,1,0,0:0:0:75:LR_DS - Snare Wet High.wav
475,192,26260,1,0,0:0:0:0:
109,192,26593,1,0,0:0:0:75:LR3_Kick CSB.wav
182,192,26927,1,0,0:0:0:75:LR_DS - Snare Wet High.wav
329,192,26927,1,0,0:0:0:0:
475,192,27260,1,0,0:0:0:75:LR3_Kick CSB.wav
109,192,27593,1,0,0:0:0:75:LR_DS - Snare Wet High.wav
256,192,27593,1,0,0:0:0:0:
192,192,27927,1,0,0:0:0:75:LR3_Kick CSB.wav
320,192,28260,1,0,0:0:0:75:LR_DS - Snare Wet High.wav
402,192,28260,1,0,0:0:0:0:
109,192,28593,1,0,0:0:0:75:LR3_Kick CSB.wav
320,192,28760,1,0,0:0:0:75:LR3_Kick CSB.wav
192,192,28843,1,0,0:0:0:75:LR3_Kick CSB.wav
320,192,28927,1,0,0:0:0:75:LR_DS - Snare Wet High.wav
448,192,29093,1,0,0:0:0:75:LR3_Kick CSB.wav
109,192,29260,1,0,0:0:0:75:LR3_Kick CSB.wav
402,192,29510,1,0,0:0:0:75:LR3_Kick CSB.wav
109,192,29760,1,0,0:0:0:75:LR3_Kick CSB.wav
402,192,29927,1,4,0:0:0:75:LR3_Kick CSB.wav
109,192,29927,1,4,0:0:0:0:
182,192,30260,1,0,0:0:0:75:LR_DS - Snare Wet High.wav
329,192,30260,1,0,0:0:0:0:
475,192,30593,1,0,0:0:0:75:LR3_Kick CSB.wav
36,192,30927,1,0,0:0:0:75:LR_DS - Snare Wet High.wav
182,192,30927,1,0,0:0:0:0:
402,192,31260,1,0,0:0:0:0:
320,192,31593,1,0,0:0:0:75:LR_DS - Snare Wet High.wav
182,192,31593,1,0,0:0:0:0:
448,192,31927,1,0,0:0:0:75:LR3_Kick CSB.wav
109,192,32260,1,0,0:0:0:75:LR_DS - Snare Wet High.wav
256,192,32260,1,0,0:0:0:75:LR3_Kick CSB.wav
320,192,32427,1,0,0:0:0:100:LR3_Kick CSB.wav
36,192,32593,1,0,0:0:0:75:LR3_Kick CSB.wav
182,192,32927,1,0,0:0:0:75:LR_DS - Snare Wet High.wav
448,192,32927,1,0,0:0:0:0:
320,192,33260,1,0,0:0:0:75:LR3_Kick CSB.wav
64,192,33593,1,0,0:0:0:75:LR_DS - Snare Wet High.wav
475,192,33593,1,0,0:0:0:0:
320,192,33927,1,4,0:0:0:75:LR3_Kick CSB.wav
192,192,33927,1,4,0:0:0:0:
192,192,34260,1,4,0:0:0:75:LR_DS - Snare Wet High.wav
320,192,34260,1,0,0:0:0:0:
64,192,34593,1,0,0:0:0:75:LR3_Kick CSB.wav
64,192,34760,1,0,0:0:0:75:LR3_Kick CSB.wav
320,192,34927,128,0,35260:0:0:0:75:LR_DS - Snare Wet High.wav
448,192,35260,1,0,0:0:0:75:LR3_Kick CSB.wav
64,192,35260,1,0,0:0:0:0:
192,192,35593,1,0,0:0:0:75:LR_DS - Snare Wet High.wav
402,192,35593,1,0,0:0:0:0:
320,192,35927,1,0,0:0:0:75:LR3_Kick CSB.wav
256,192,36260,1,0,0:0:0:75:LR_DS - Snare Wet High.wav
36,192,36260,1,0,0:0:0:0:
475,192,36593,1,0,0:0:0:75:LR3_Kick CSB.wav
64,192,36927,1,0,0:0:0:75:LR_DS - Snare Wet High.wav
320,192,36927,1,0,0:0:0:0:
192,192,37260,1,0,0:0:0:75:LR3_Kick CSB.wav
320,192,37593,1,0,0:0:0:75:LR_DS - Snare Wet High.wav
36,192,37593,1,0,0:0:0:0:
64,192,37760,1,0,0:0:0:75:LR3_Kick CSB.wav
256,192,37927,1,0,0:0:0:75:LR3_Kick CSB.wav
182,192,38260,1,0,0:0:0:75:LR_DS - Snare Wet High.wav
475,192,38260,1,0,0:0:0:0:
329,192,38593,1,0,0:0:0:0:
109,192,38927,1,0,0:0:0:75:LR_DS - Snare Wet High.wav
448,192,38927,1,0,0:0:0:0:
192,192,39260,1,0,0:0:0:75:LR3_Kick CSB.wav
64,192,39593,1,0,0:0:0:0:
448,192,39593,1,0,0:0:0:75:LR_DS - Snare Wet High.wav
256,192,39760,1,0,0:0:0:0:
320,192,40093,1,0,0:0:0:0:
256,192,40260,128,0,40593:0:0:0:75:LR_DS - Snare Wet High.wav
36,192,40593,1,4,0:0:0:0:
475,192,40593,1,0,0:0:0:0:
109,192,40927,1,0,0:0:0:75:LR_DS - Snare Wet High.wav
402,192,40927,1,0,0:0:0:0:
256,192,41260,1,0,0:0:0:75:LR3_Kick CSB.wav
36,192,41593,1,0,0:0:0:75:LR_DS - Snare Wet High.wav
475,192,41593,1,0,0:0:0:0:
256,192,41927,1,0,0:0:0:75:LR3_Kick CSB.wav
448,192,42260,1,0,0:0:0:75:LR_DS - Snare Wet High.wav
182,192,42260,1,0,0:0:0:0:
36,192,42593,1,0,0:0:0:0:
36,192,42760,1,0,0:0:0:75:LR3_Kick CSB.wav
475,192,42927,1,0,0:0:0:75:LR_DS - Snare Wet High.wav
192,192,42927,1,0,0:0:0:0:
475,192,43260,1,0,0:0:0:75:LR3_Kick CSB.wav
36,192,43260,1,0,0:0:0:0:
256,192,43593,1,0,0:0:0:75:LR_DS - Snare Wet High.wav
182,192,43593,1,0,0:0:0:0:
402,192,43927,1,0,0:0:0:75:LR3_Kick CSB.wav
320,192,44260,1,0,0:0:0:75:LR_DS - Snare Wet High.wav
36,192,44260,1,0,0:0:0:0:
109,192,44593,1,0,0:0:0:75:LR3_Kick CSB.wav
256,192,44760,1,0,0:0:0:100:LR3_Kick CSB.wav
402,192,44927,1,0,0:0:0:75:LR_DS - Snare Wet High.wav
36,192,45093,1,0,0:0:0:75:LR3_Kick CSB.wav
182,192,45260,1,0,0:0:0:100:LR3_Kick CSB.wav
329,192,45427,1,0,0:0:0:75:LR3_Kick CSB.wav
64,192,45593,1,0,0:0:0:75:LR_DS - Snare Wet High.wav
448,192,45677,1,0,0:0:0:75:LR3_Kick CSB.wav
64,192,45760,1,0,0:0:0:75:LR3_Kick CSB.wav
448,192,47260,1,0,0:0:0:40:cymbol.wav
36,192,47260,1,0,0:0:0:0:
192,192,47593,1,0,0:0:0:75:LR_DS - Snare Wet High.wav
329,192,47593,1,0,0:0:0:0:
109,192,47927,1,0,0:0:0:75:LR3_Kick CSB.wav
448,192,48260,1,0,0:0:0:75:LR_DS - Snare Wet High.wav
182,192,48260,1,0,0:0:0:0:
320,192,48593,1,0,0:0:0:75:LR3_Kick CSB.wav
36,192,48927,1,0,0:0:0:75:LR_DS - Snare Wet High.wav
448,192,48927,1,0,0:0:0:0:
329,192,49260,1,0,0:0:0:75:LR3_Kick CSB.wav
448,192,49593,1,0,0:0:0:75:LR_DS - Snare Wet High.wav
109,192,49593,1,0,0:0:0:0:
192,192,49927,1,0,0:0:0:75:LR3_Kick CSB.wav
320,192,50260,1,0,0:0:0:75:LR_DS - Snare Wet High.wav
402,192,50260,1,0,0:0:0:0:
36,192,50593,1,0,0:0:0:75:LR3_Kick CSB.wav
109,192,50927,1,0,0:0:0:75:LR_DS - Snare Wet High.wav
256,192,50927,128,0,51260:0:0:0:0:
475,192,51260,1,0,0:0:0:75:LR3_Kick CSB.wav
192,192,51427,1,0,0:0:0:75:LR3_Kick CSB.wav
256,192,51510,1,0,0:0:0:0:
192,192,51593,1,4,0:0:0:75:LR_DS - Snare Wet High.wav
329,192,51760,1,0,0:0:0:75:LR3_Kick CSB.wav
64,192,51927,1,0,0:0:0:75:LR3_Kick CSB.wav
402,192,52177,1,0,0:0:0:75:LR3_Kick CSB.wav
109,192,52427,1,0,0:0:0:75:LR3_Kick CSB.wav
109,192,52593,1,0,0:0:0:75:LR3_Kick CSB.wav
402,192,52593,1,0,0:0:0:0:
256,192,52927,1,0,0:0:0:75:LR_DS - Snare Wet High.wav
475,192,52927,1,0,0:0:0:0:
36,192,53260,1,0,0:0:0:75:LR3_Kick CSB.wav
182,192,53593,1,0,0:0:0:75:LR_DS - Snare Wet High.wav
402,192,53593,1,0,0:0:0:0:
329,192,53927,1,0,0:0:0:75:LR3_Kick CSB.wav
36,192,54260,1,0,0:0:0:75:LR_DS - Snare Wet High.wav
182,192,54260,1,0,0:0:0:0:
402,192,54593,1,0,0:0:0:75:LR3_Kick CSB.wav
256,192,54927,1,0,0:0:0:75:LR_DS - Snare Wet High.wav
109,192,54927,1,0,0:0:0:75:LR3_Kick CSB.wav
192,192,55093,1,0,0:0:0:75:LR3_Kick CSB.wav
448,192,55260,1,0,0:0:0:75:LR3_Kick CSB.wav
64,192,55593,1,0,0:0:0:75:LR_DS - Snare Wet High.wav
448,192,55593,1,0,0:0:0:0:
329,192,55927,1,0,0:0:0:75:LR3_Kick CSB.wav
192,192,56093,1,0,0:0:0:0:
320,192,56260,1,0,0:0:0:75:LR_DS - Snare Wet High.wav
109,192,56260,1,0,0:0:0:0:
402,192,56593,1,4,0:0:0:75:LR3_Kick CSB.wav
109,192,56843,1,4,0:0:0:100:LR3_Kick CSB.wav
402,192,57093,1,4,0:0:0:75:LR3_Kick CSB.wav
402,192,57260,1,4,0:0:0:100:LR3_Kick CSB.wav
320,192,57427,1,0,0:0:0:75:LR3_Kick CSB.wav
192,192,57593,128,0,57927:0:0:0:100:LR3_Kick CSB.wav
36,192,57927,1,0,0:0:0:75:LR3_Kick CSB.wav
475,192,57927,1,0,0:0:0:0:
182,192,58260,1,0,0:0:0:75:LR_DS - Snare Wet High.wav
329,192,58260,1,0,0:0:0:0:
256,192,58593,1,0,0:0:0:75:LR3_Kick CSB.wav
36,192,58927,1,0,0:0:0:75:LR_DS - Snare Wet High.wav
475,192,58927,1,0,0:0:0:0:
182,192,59260,1,0,0:0:0:75:LR3_Kick CSB.wav
402,192,59593,1,0,0:0:0:75:LR_DS - Snare Wet High.wav
36,192,59593,1,0,0:0:0:0:
256,192,59927,1,0,0:0:0:75:LR3_Kick CSB.wav
109,192,60260,1,0,0:0:0:75:LR_DS - Snare Wet High.wav
475,192,60260,1,0,0:0:0:0:
329,192,60593,1,0,0:0:0:75:LR3_Kick CSB.wav
36,192,60927,1,0,0:0:0:75:LR_DS - Snare Wet High.wav
182,192,60927,1,0,0:0:0:0:
402,192,61260,1,0,0:0:0:75:LR3_Kick CSB.wav
109,192,61593,1,0,0:0:0:75:LR_DS - Snare Wet High.wav
256,192,61593,128,0,61927:0:0:0:0:
402,192,61927,1,0,0:0:0:75:LR3_Kick CSB.wav
36,192,61927,1,0,0:0:0:0:
182,192,62093,1,0,0:0:0:75:LR3_Kick CSB.wav
320,192,62177,1,0,0:0:0:75:LR3_Kick CSB.wav
192,192,62260,1,0,0:0:0:75:LR_DS - Snare Wet High.wav
64,192,62427,1,0,0:0:0:75:LR3_Kick CSB.wav
448,192,62593,1,0,0:0:0:75:LR3_Kick CSB.wav
64,192,62843,1,0,0:0:0:75:LR3_Kick CSB.wav
448,192,63093,1,0,0:0:0:0:
448,192,63260,1,4,0:0:0:75:LR3_Kick CSB.wav
64,192,63260,1,0,0:0:0:0:
448,192,63593,1,0,0:0:0:75:LR_DS - Snare Wet High.wav
192,192,63593,1,0,0:0:0:80:LR3_Kick CSB.wav
64,192,63927,1,0,0:0:0:75:LR3_Kick CSB.wav
329,192,64260,1,0,0:0:0:75:LR_DS - Snare Wet High.wav
475,192,64260,1,0,0:0:0:0:
36,192,64593,1,0,0:0:0:75:LR3_Kick CSB.wav
182,192,64927,1,0,0:0:0:75:LR_DS - Snare Wet High.wav
448,192,64927,1,0,0:0:0:0:
320,192,65260,1,0,0:0:0:75:LR3_Kick CSB.wav
182,192,65593,1,0,0:0:0:75:LR_DS - Snare Wet High.wav
402,192,65593,1,0,0:0:0:75:LR3_Kick CSB.wav
320,192,65760,1,0,0:0:0:0:
36,192,65927,1,0,0:0:0:75:LR3_Kick CSB.wav
448,192,66260,1,0,0:0:0:75:LR_DS - Snare Wet High.wav
182,192,66260,1,0,0:0:0:0:
329,192,66593,1,0,0:0:0:75:LR3_Kick CSB.wav
36,192,66927,1,0,0:0:0:75:LR_DS - Snare Wet High.wav
192,192,66927,1,0,0:0:0:0:
320,192,67260,1,0,0:0:0:75:LR3_Kick CSB.wav
448,192,67260,1,0,0:0:0:0:
192,192,67593,1,4,0:0:0:75:LR_DS - Snare Wet High.wav
448,192,67593,1,0,0:0:0:0:
320,192,67927,1,0,0:0:0:75:LR3_Kick CSB.wav
320,192,68093,1,0,0:0:0:75:LR3_Kick CSB.wav
192,192,68260,128,0,68593:0:0:0:75:LR_DS - Snare Wet High.wav
448,192,68260,1,0,0:0:0:0:
448,192,68593,1,0,0:0:0:75:LR3_Kick CSB.wav
64,192,68593,1,0,0:0:0:0:
320,192,69593,1,0,0:0:0:0:
192,192,69593,1,0,0:0:0:0:
36,192,69927,1,0,2:0:0:0:
475,192,69927,1,0,2:0:0:0:
182,192,70260,1,0,0:0:0:0:
329,192,70593,1,0,0:0:0:0:
448,192,70927,1,0,0:0:0:0:
182,192,71093,1,0,2:0:0:0:
320,192,71427,1,0,2:0:0:0:
36,192,71593,1,0,0:0:0:0:
475,192,71760,1,0,2:0:0:0:
192,192,71927,1,0,0:0:0:0:
320,192,72093,1,0,2:0:0:0:
182,192,72260,128,0,72593:0:0:0:0:
448,192,72593,1,0,0:0:0:0:
329,192,72927,1,0,0:0:0:0:
182,192,73260,1,0,0:0:0:0:
182,192,73593,1,0,0:0:0:0:
329,192,73760,1,0,2:0:0:0:
192,192,73927,1,0,0:0:0:0:
475,192,74093,1,0,0:0:0:0:
36,192,74260,1,0,0:0:0:0:
402,192,74427,1,0,2:0:0:0:
109,192,74593,1,0,0:0:0:0:
329,192,74760,1,0,2:0:0:0:
182,192,74927,1,0,0:0:0:0:
256,192,75093,1,0,2:0:0:0:
448,192,75260,1,0,0:0:0:0:
329,192,75593,1,0,0:0:0:0:
182,192,75927,1,0,0:0:0:0:
182,192,76260,1,0,0:0:0:0:
475,192,76427,1,0,2:0:0:0:
256,192,76760,1,0,0:0:0:0:
109,192,76927,1,0,0:0:0:0:
402,192,77093,1,0,2:0:0:0:
182,192,77260,1,0,0:0:0:0:
320,192,77427,1,0,2:0:0:0:
448,192,77593,128,0,77927:0:0:0:0:
192,192,77927,1,0,0:0:0:0:
36,192,78260,1,0,0:0:0:0:
256,192,78593,1,0,0:0:0:0:
109,192,78927,1,0,0:0:0:0:
329,192,79093,1,0,2:0:0:0:
475,192,79427,1,0,0:0:0:0:
402,192,79593,1,0,0:0:0:0:
329,192,79760,1,0,0:0:0:0:
256,192,79927,1,0,0:0:0:0:
182,192,80093,1,0,0:0:0:0:
192,192,80260,1,0,0:0:0:0:
36,192,80427,1,0,0:0:0:0:
256,192,80593,1,0,0:0:0:10:LR_Kick Low Strong Beat.wav
475,192,80593,1,0,0:0:0:0:
36,192,80927,1,0,0:0:0:75:LR_DS - Snare Wet High.wav
182,192,80927,1,0,0:0:0:0:
402,192,81260,1,0,0:0:0:75:LR3_Kick CSB.wav
182,192,81593,1,0,0:0:0:75:LR_DS - Snare Wet High.wav
329,192,81593,1,0,0:0:0:0:
36,192,81927,1,0,0:0:0:75:LR3_Kick CSB.wav
192,192,82260,1,0,0:0:0:75:LR_DS - Snare Wet High.wav
402,192,82260,1,0,0:0:0:0:
109,192,82593,1,0,0:0:0:75:LR3_Kick CSB.wav
475,192,82927,1,0,0:0:0:75:LR_DS - Snare Wet High.wav
256,192,82927,1,0,0:0:0:0:
64,192,83260,1,0,0:0:0:75:LR3_Kick CSB.wav
192,192,83593,1,0,0:0:0:75:LR_DS - Snare Wet High.wav
448,192,83593,1,0,0:0:0:0:
320,192,83927,1,0,0:0:0:75:LR3_Kick CSB.wav
448,192,84260,1,0,0:0:0:75:LR_DS - Snare Wet High.wav
109,192,84260,1,0,0:0:0:0:
192,192,84593,1,0,0:0:0:75:LR3_Kick CSB.wav
402,192,84760,1,0,0:0:0:0:
109,192,84927,1,0,0:0:0:75:LR_DS - Snare Wet High.wav
192,192,85093,1,0,0:0:0:0:
475,192,85260,1,0,0:0:0:75:LR3_Kick CSB.wav
192,192,85427,1,0,0:0:0:0:
36,192,85593,1,0,0:0:0:75:LR_DS - Snare Wet High.wav
256,192,85593,1,0,0:0:0:0:
402,192,85760,1,0,0:0:0:0:
329,192,85927,1,0,0:0:0:75:LR3_Kick CSB.wav
36,192,86260,1,0,0:0:0:75:LR_DS - Snare Wet High.wav
329,192,86593,1,0,0:0:0:75:LR3_Kick CSB.wav
109,192,86927,1,0,0:0:0:75:LR_DS - Snare Wet High.wav
475,192,87093,1,0,0:0:0:75:LR3_Kick CSB.wav
256,192,87427,1,0,0:0:0:75:LR3_Kick CSB.wav
402,192,87593,1,0,0:0:0:75:LR_DS - Snare Wet High.wav
182,192,87760,1,0,0:0:0:75:LR3_Kick CSB.wav
329,192,87927,1,0,0:0:0:75:LR3_Kick CSB.wav
109,192,88093,1,0,0:0:0:75:LR3_Kick CSB.wav
192,192,88260,1,0,0:0:0:75:LR_DS - Snare Wet High.wav
320,192,88343,1,0,0:0:0:0:
192,192,88427,1,0,0:0:0:75:LR3_Kick CSB.wav
448,192,88593,1,0,0:0:0:75:LR3_Kick CSB.wav
64,192,88927,1,0,0:0:0:75:LR_DS - Snare Wet High.wav
320,192,89260,1,0,0:0:0:75:LR3_Kick CSB.wav
192,192,89593,1,0,0:0:0:75:LR_DS - Snare Wet High.wav
448,192,89760,1,0,0:0:0:75:LR3_Kick CSB.wav
64,192,90093,1,0,0:0:0:75:LR3_Kick CSB.wav
64,192,90260,1,0,0:0:0:75:LR_DS - Snare Wet High.wav
192,192,90427,1,0,0:0:0:75:LR3_Kick CSB.wav
192,192,90593,1,0,0:0:0:75:LR3_Kick CSB.wav
320,192,90760,1,0,0:0:0:75:LR3_Kick CSB.wav
320,192,90927,1,0,0:0:0:75:LR_DS - Snare Wet High.wav
448,192,91093,1,0,0:0:0:75:LR3_Kick CSB.wav
192,192,91260,128,0,92260:0:0:0:0:
64,192,91260,1,0,0:0:0:0:
320,192,92260,1,0,0:0:0:0:
448,192,92260,1,0,0:0:0:0:
36,192,92593,1,0,0:0:0:0:
475,192,92593,1,0,0:0:0:0:
182,192,92927,1,0,0:0:0:75:LR_DS - Snare Wet High.wav
329,192,92927,1,0,0:0:0:0:
109,192,93260,1,0,0:0:0:75:LR3_Kick CSB.wav
256,192,93593,1,0,0:0:0:75:LR_DS - Snare Wet High.wav
475,192,93593,1,0,0:0:0:0:
192,192,93927,1,0,0:0:0:75:LR3_Kick CSB.wav
36,192,94260,1,0,0:0:0:75:LR_DS - Snare Wet High.wav
256,192,94260,1,0,0:0:0:0:
329,192,94593,1,0,0:0:0:75:LR3_Kick CSB.wav
182,192,94927,1,0,0:0:0:75:LR_DS - Snare Wet High.wav
475,192,94927,1,0,0:0:0:0:
36,192,95260,1,0,0:0:0:75:LR3_Kick CSB.wav
329,192,95593,1,0,0:0:0:75:LR_DS - Snare Wet High.wav
475,192,95593,1,0,0:0:0:0:
182,192,95927,1,0,0:0:0:75:LR3_Kick CSB.wav
36,192,96260,1,0,0:0:0:75:LR_DS - Snare Wet High.wav
256,192,96260,1,0,0:0:0:75:LR3_Kick CSB.wav
448,192,96593,1,0,0:0:0:75:LR3_Kick CSB.wav
329,192,96927,1,0,0:0:0:75:LR_DS - Snare Wet High.wav
109,192,96927,1,0,0:0:0:75:LR3_Kick CSB.wav
402,192,97260,1,0,0:0:0:75:LR3_Kick CSB.wav
109,192,97510,1,0,0:0:0:75:LR3_Kick CSB.wav
402,192,97760,1,0,0:0:0:75:LR3_Kick CSB.wav
109,192,97927,1,0,0:0:0:75:LR3_Kick CSB.wav
402,192,97927,1,0,0:0:0:0:
182,192,98260,1,0,0:0:0:75:LR_DS - Snare Wet High.wav
256,192,98260,1,0,0:0:0:0:
36,192,98593,1,0,0:0:0:75:LR3_Kick CSB.wav
320,192,98927,1,0,0:0:0:75:LR_DS - Snare Wet High.wav
182,192,98927,1,0,0:0:0:0:
475,192,99260,1,0,0:0:0:75:LR3_Kick CSB.wav
64,192,99593,1,0,0:0:0:75:LR_DS - Snare Wet High.wav
256,192,99593,1,0,0:0:0:0:
320,192,99927,1,0,0:0:0:75:LR3_Kick CSB.wav
182,192,99927,1,0,0:0:0:0:
109,192,100093,1,0,0:0:0:0:
256,192,100260,1,0,0:0:0:75:LR_DS - Snare Wet High.wav
256,192,100427,1,0,0:0:0:75:LR3_Kick CSB.wav
109,192,100593,1,0,0:0:0:75:LR3_Kick CSB.wav
475,192,100593,1,0,0:0:0:0:
192,192,100927,1,0,0:0:0:75:LR_DS - Snare Wet High.wav
320,192,100927,1,0,0:0:0:0:
109,192,101260,1,0,0:0:0:75:LR3_Kick CSB.wav
320,192,101593,1,0,0:0:0:75:LR_DS - Snare Wet High.wav
109,192,101593,1,0,0:0:0:0:
192,192,101927,1,4,0:0:0:0:
320,192,101927,1,0,0:0:0:0:
320,192,102260,1,4,0:0:0:75:LR_DS - Snare Wet High.wav
402,192,102260,1,0,0:0:0:0:
64,192,102593,1,0,0:0:0:0:
192,192,102593,1,0,0:0:0:0:
320,192,102760,1,0,0:0:0:75:LR3_Kick CSB.wav
448,192,102760,1,0,0:0:0:0:
192,192,102927,128,0,103260:0:0:0:75:LR_DS - Snare Wet High.wav
64,192,103260,1,4,0:0:0:0:
475,192,103260,1,0,0:0:0:0:
36,192,103593,1,0,0:0:0:75:LR_DS - Snare Wet High.wav
329,192,103593,1,0,0:0:0:0:
182,192,103927,1,0,0:0:0:75:LR3_Kick CSB.wav
64,192,104260,1,0,0:0:0:75:LR_DS - Snare Wet High.wav
475,192,104260,1,0,0:0:0:0:
329,192,104593,1,0,0:0:0:0:
182,192,104927,1,0,0:0:0:75:LR_DS - Snare Wet High.wav
475,192,104927,1,0,0:0:0:0:
36,192,105260,1,0,0:0:0:75:LR3_Kick CSB.wav
192,192,105593,1,0,0:0:0:75:LR_DS - Snare Wet High.wav
475,192,105593,1,0,0:0:0:0:
64,192,105760,1,0,0:0:0:0:
109,192,105927,1,0,0:0:0:100:LR3_Kick CSB.wav
402,192,105927,1,0,0:0:0:0:
182,192,106260,1,0,0:0:0:75:LR_DS - Snare Wet High.wav
329,192,106260,1,0,0:0:0:0:
36,192,106593,1,0,0:0:0:75:LR3_Kick CSB.wav
256,192,106927,128,0,107260:0:0:0:75:LR_DS - Snare Wet High.wav
448,192,106927,1,0,0:0:0:0:
192,192,107260,1,0,0:0:0:75:LR3_Kick CSB.wav
109,192,107260,1,0,0:0:0:0:
402,192,107593,1,0,0:0:0:75:LR_DS - Snare Wet High.wav
109,192,107760,1,0,0:0:0:0:
64,192,108093,1,0,0:0:0:0:
329,192,108260,128,0,108593:0:0:0:75:LR_DS - Snare Wet High.wav
36,192,108593,1,0,0:0:0:75:LR3_Kick CSB.wav
475,192,108593,1,0,0:0:0:0:
109,192,108927,1,0,0:0:0:75:LR_DS - Snare Wet High.wav
402,192,108927,1,0,0:0:0:0:
256,192,109260,1,0,0:0:0:0:
36,192,109593,1,0,0:0:0:75:LR_DS - Snare Wet High.wav
475,192,109593,1,0,0:0:0:0:
109,192,109927,1,0,0:0:0:75:LR3_Kick CSB.wav
182,192,110260,1,0,0:0:0:75:LR_DS - Snare Wet High.wav
402,192,110260,1,0,0:0:0:0:
329,192,110593,1,0,0:0:0:0:
109,192,110927,1,0,0:0:0:75:LR_DS - Snare Wet High.wav
402,192,110927,1,0,0:0:0:0:
64,192,111093,1,0,0:0:0:75:LR3_Kick CSB.wav
256,192,111260,1,0,0:0:0:75:LR3_Kick CSB.wav
192,192,111593,1,0,0:0:0:75:LR_DS - Snare Wet High.wav
402,192,111593,1,0,0:0:0:0:
109,192,111927,1,0,0:0:0:75:LR3_Kick CSB.wav
256,192,112260,1,0,0:0:0:75:LR_DS - Snare Wet High.wav
475,192,112260,1,0,0:0:0:0:
36,192,112593,1,4,0:0:0:75:LR3_Kick CSB.wav
402,192,112760,1,4,0:0:0:75:LR3_Kick CSB.wav
192,192,112927,1,4,0:0:0:75:LR_DS - Snare Wet High.wav
402,192,113093,1,4,0:0:0:75:LR3_Kick CSB.wav
109,192,113260,1,4,0:0:0:75:LR3_Kick CSB.wav
448,192,113427,1,4,0:0:0:75:LR3_Kick CSB.wav
192,192,113593,128,0,116593:0:0:0:75:LR_DS - Snare Wet High.wav
64,192,113593,1,0,0:0:0:0:
36,192,114260,1,0,0:0:0:75:LR_DS - Snare Wet High.wav
475,192,114927,1,0,0:0:0:75:LR_DS - Snare Wet High.wav
109,192,115593,1,0,0:0:0:75:LR_DS - Snare Wet High.wav
402,192,116260,1,0,0:0:0:75:LR_DS - Snare Wet High.wav
36,192,116593,1,0,0:0:0:40:cymbol.wav
448,192,116593,1,0,0:0:0:0:
