osu file format v12

[General]
AudioFilename: The Pirate and Kids.mp3
AudioLeadIn: 0
PreviewTime: 1190
Countdown: 0
SampleSet: Soft
StackLeniency: 0.7
Mode: 0
LetterboxInBreaks: 0
WidescreenStoryboard: 0

[Editor]
DistanceSpacing: 1.5
BeatDivisor: 3
GridSize: 4

[Metadata]
Title:SpongeBob SquarePants Theme
TitleUnicode:SpongeBob SquarePants Theme
Artist:Painty the Pirate & Kids
ArtistUnicode:Painty the Pirate & Kids
Creator:S o a p
Version:Hard
Source:SpongeBob SquarePants
Tags:rinsukir Nickelodeon
BeatmapID:357801
BeatmapSetID:143939

[Difficulty]
HPDrainRate:6
CircleSize:3
OverallDifficulty:7
ApproachRate:8
SliderMultiplier:1.8
SliderTickRate:1

[Events]
//Background and Video events
0,0,"BG.jpg",0,0
//Break Periods
//Storyboard Layer 0 (Background)
//Storyboard Layer 1 (Fail)
//Storyboard Layer 2 (Pass)
//Storyboard Layer 3 (Foreground)
//Storyboard Sound Samples
//Background Colour Transformations
3,100,163,162,255

[TimingPoints]
1196,499.583680266445,4,2,1,65,1,0
13186,-66.6666666666667,4,2,1,65,0,0
13685,-58.8235294117647,4,2,1,65,0,0
14185,-52.6315789473684,4,2,1,65,0,0
14684,-50,4,2,1,65,0,0
15184,-100,4,2,1,30,0,0
15267,-100,4,2,1,65,0,0
17182,-66.6666666666667,4,2,1,65,0,0
17682,-58.8235294117647,4,2,1,65,0,0
18181,-52.6315789473684,4,2,1,65,0,0
18681,-50,4,2,1,50,0,0
18931,-50,4,2,1,30,0,0
19181,-100,4,2,1,65,0,0
21179,-66.6666666666667,4,2,1,65,0,0
21678,-58.8235294117647,4,2,1,65,0,0
22178,-52.6315789473684,4,2,1,65,0,0
22678,-50,4,2,1,65,0,0
22927,-50,4,2,1,30,0,0
23195,499.583680266445,4,2,1,65,1,0
25193,-66.6666666666667,4,2,1,65,0,0
25692,-58.8235294117647,4,2,1,65,0,0
26192,-52.6315789473684,4,2,1,65,0,0
26692,-100,4,2,1,65,0,0
27174,508.474576271186,4,2,1,40,1,0
27174,-66.6666666666667,4,2,1,65,0,0
29207,498.183680266445,4,2,1,50,1,0
29207,-58.8235294117647,4,2,1,70,0,0
31199,491.083680266445,4,2,1,60,1,0
31199,-50,4,2,1,55,0,0
31280,-50,4,2,1,75,0,0
33163,513.520512820513,4,2,1,65,1,0
33676,-181.818181818181,4,2,1,60,0,0
34446,-100,4,2,1,65,0,0
35045,-100,4,2,1,65,0,0
35214,486.795918367347,4,2,1,65,1,0
35376,-100,4,2,1,70,0,0
35944,-100,4,2,1,75,0,0
38134,465.795918367347,4,2,1,65,1,0
39065,476.190476190476,4,2,1,65,1,0
39838,535.090476190476,4,2,1,65,1,0
40016,476.190476190476,4,2,1,65,1,0

[Colours]
Combo1 : 255,172,181
Combo2 : 254,254,54
Combo3 : 240,210,2
Combo4 : 174,218,1
SliderBorder : 255,255,255

[HitObjects]
256,192,8106,12,0,10688,0:0:0:0:
136,144,11187,6,0,P|160:80|196:60,1,90
224,152,11687,2,0,P|200:216|172:232,1,90,8|0,0:0|0:0,0:0:0:0:
272,64,12186,2,0,L|324:36,2,45
168,56,12686,2,0,P|104:56|72:84,1,90,8|0,0:0|0:0,0:0:0:0:
124,188,13186,6,0,P|120:296|168:320,1,135.000005149842,2|0,0:0|0:0,0:0:0:0:
336,248,13685,6,0,P|248:216|176:256,1,153.000002918243,0|0,0:0|0:0,0:0:0:0:
268,312,14185,6,0,P|388:328|424:272,1,170.999995433807,8|0,0:0|0:0,0:0:0:0:
496,64,14684,6,0,P|424:96|432:208,1,180,0|0,0:0|0:0,0:0:0:0:
224,128,15184,6,0,L|136:64,1,90,4|0,0:0|0:0,0:0:0:0:
256,32,15683,2,0,L|344:96,1,90,8|0,0:0|0:0,0:0:0:0:
192,224,16183,2,0,L|144:260,2,45
304,200,16683,2,0,P|336:144|320:80,1,90,8|0,0:0|0:0,0:0:0:0:
136,56,17182,6,0,P|56:96|64:192,1,135.000005149842,2|0,0:0|0:0,0:0:0:0:
80,232,17682,6,0,P|160:272|176:368,1,153.000002918243
88,328,18181,6,0,P|176:244|264:260,1,170.999995433807,8|0,0:0|0:0,0:0:0:0:
288,312,18681,6,0,P|384:248|376:144,1,180,2|4,0:0|0:0,0:0:0:0:
286,62,19181,6,0,P|240:80|216:120,1,90
248,224,19680,2,0,P|287:204|310:166,1,90,8|0,0:0|0:0,0:0:0:0:
144,184,20180,2,0,L|80:160,2,45
152,288,20679,2,0,P|104:312|80:364,1,90,8|0,0:0|0:0,0:0:0:0:
24,248,21179,6,0,P|40:144|8:88,1,135.000005149842,2|0,0:0|0:0,0:0:0:0:
120,80,21678,6,0,P|192:40|272:64,1,153.000002918243
352,80,22178,6,0,P|256:152|184:128,1,170.999995433807,8|0,0:0|0:0,0:0:0:0:
258,55,22678,6,0,L|336:232,1,180,0|4,0:0|0:0,0:0:0:0:
392,340,23195,5,0,0:0:0:0:
304,364,23361,1,0,0:0:0:0:
228,320,23528,1,0,0:0:0:0:
160,248,23694,2,0,L|80:176,1,90
112,80,24194,2,0,L|192:152,1,90
227,156,24568,1,0,0:0:0:0:
272,136,24693,2,0,L|352:200,1,90
144,56,25193,6,0,P|120:152|56:176,1,135.000005149842,2|0,0:0|0:0,0:0:0:0:
88,264,25692,6,0,L|264:208,1,153.000002918243
384,256,26192,6,0,L|208:324,1,170.999995433807,8|0,0:0|0:0,0:0:0:0:
234,218,26692,6,0,P|210:170|154:154,1,90
88,200,27174,6,0,P|80:112|136:64,1,135.000005149842,4|0,0:0|0:0,0:0:0:0:
303,135,27682,2,0,P|175:151|148:124,1,135.000005149842,2|0,0:0|0:0,0:0:0:0:
352,48,28190,2,0,L|448:176,1,135.000005149842
448,328,28699,2,0,L|360:208,1,135.000005149842,2|0,0:0|0:0,0:0:0:0:
128,88,29207,6,0,P|80:200|112:280,1,153.000002918243,4|0,0:0|0:0,0:0:0:0:
200,264,29705,2,0,P|248:152|216:72,1,153.000002918243,2|0,0:0|0:0,0:0:0:0:
200,264,30203,2,0,P|272:304|360:280,1,153.000002918243
480,176,30701,2,0,P|408:136|320:160,1,153.000002918243,2|0,0:0|0:0,0:0:0:0:
184,308,31199,6,0,P|112:244|56:164,1,180,4|0,0:0|0:0,0:0:0:0:
312,48,31690,2,0,P|408:136|456:208,1,180,2|0,0:0|0:0,0:0:0:0:
226,24,32181,2,0,P|139:45|60:88,1,180
264,334,32672,2,0,P|349:305|424:255,1,180,2|0,0:0|0:0,0:0:0:0:
96,120,33163,6,0,P|56:176|64:216,1,90
84,288,33676,6,2,P|156:312|176:336,1,99.0000030212403,4|0,0:0|0:0,0:0:0:0:
256,192,34703,5,0,0:0:0:0:
256,192,35214,12,0,38134,0:0:0:0:
168,120,39065,5,0,0:0:0:0:
132,184,39223,2,0,P|132:236|124:264,2,60
248,312,39838,5,0,0:0:0:0:
312,280,40016,1,2,0:0:0:0:
368,168,40333,5,0,0:0:0:0:
432,144,40492,1,2,0:0:0:0:
