osu file format v14

[General]
AudioFilename: How 2 make krabby patty.mp3
AudioLeadIn: 0
PreviewTime: 27174
Countdown: 0
SampleSet: Soft
StackLeniency: 0.7
Mode: 2
LetterboxInBreaks: 0
WidescreenStoryboard: 0

[Editor]
DistanceSpacing: 1.5
BeatDivisor: 6
GridSize: 4
TimelineZoom: 1.9

[Metadata]
Title:SpongeBob SquarePants Theme
TitleUnicode:SpongeBob SquarePants Theme
Artist:Painty the Pirate & Kids
ArtistUnicode:Painty the Pirate & Kids
Creator:Riari
Version:KrabbyPlatty
Source:SpongeBob SquarePants
Tags:Nickelodeon
BeatmapID:672677
BeatmapSetID:299903

[Difficulty]
HPDrainRate:6
CircleSize:3
OverallDifficulty:8
ApproachRate:8
SliderMultiplier:1.8
SliderTickRate:1

[Events]
//Background and Video events
0,0,"homosponge.jpg",0,0
//Break Periods
//Storyboard Layer 0 (Background)
//Storyboard Layer 1 (Fail)
//Storyboard Layer 2 (Pass)
//Storyboard Layer 3 (Foreground)
//Storyboard Sound Samples

[TimingPoints]
8097,500,4,2,1,70,1,0
11187,498.338870431894,4,2,1,70,1,0
19186,468.75,4,2,1,70,1,0
19420,545.454545454546,4,2,1,70,1,0
19694,498.338870431894,4,2,1,70,1,0
19914,498.338870431894,4,2,1,70,1,0
21187,500,4,2,1,70,1,0
23195,499.583680266445,4,2,1,70,1,0
27174,508.474576271186,4,2,1,70,1,0
29207,495.867768595041,4,2,1,70,1,0
31190,495.867768595041,4,2,1,70,1,0
33173,508.474576271186,4,2,1,70,1,0
35206,485.82995951417,4,2,1,70,1,0
39065,476.190476190476,4,2,1,70,1,0
39838,535.714285714286,4,2,1,70,1,0
40327,483.870967741935,4,2,1,70,1,0

[HitObjects]
256,192,8097,12,0,10597,0:0:0:0:
172,244,10930,5,0,0:0:0:0:
352,292,11187,2,0,L|448:240,1,90,0|8,0:0|0:0,0:0:0:0:
272,168,11685,2,0,L|160:168,1,90,0|8,0:0|0:0,0:0:0:0:
80,88,12183,2,0,L|192:88,1,90,0|8,0:0|0:0,0:0:0:0:
408,292,12682,2,0,L|300:316,1,90,0|8,0:0|0:0,0:0:0:0:
96,216,13180,6,0,L|96:320,1,90,2|8,0:0|0:0,0:0:0:0:
340,168,13678,2,0,L|336:60,1,90,2|8,0:0|0:0,0:0:0:0:
124,85,14177,2,0,L|164:176,1,90,2|8,0:0|0:0,0:0:0:0:
480,256,14675,1,2,0:0:0:0:
312,300,14924,6,0,L|220:300,2,90,0|0|8,0:0|0:0|0:0,0:0:0:0:
196,152,15672,2,0,L|80:152,1,90,0|8,0:0|0:0,0:0:0:0:
276,152,16170,2,0,L|392:152,1,90,0|8,0:0|0:0,0:0:0:0:
156,152,16668,2,0,L|40:152,1,90,0|8,0:0|0:0,0:0:0:0:
319,32,17167,6,0,L|316:144,1,90,2|8,0:0|0:0,0:0:0:0:
96,64,17665,2,0,L|132:176,1,90,2|8,0:0|0:0,0:0:0:0:
384,96,18163,2,0,L|348:200,1,90,2|8,0:0|0:0,0:0:0:0:
20,56,18662,1,2,0:0:0:0:
144,280,18911,5,0,0:0:0:0:
234,280,19186,2,0,L|136:280,1,90,0|8,0:0|0:0,0:0:0:0:
288,132,19694,1,0,0:0:0:0:
408,132,19914,1,8,0:0:0:0:
236,140,20163,2,0,L|120:136,1,90,0|8,0:0|0:0,0:0:0:0:
400,256,20661,2,0,L|351:331,1,90,0|8,0:0|0:0,0:0:0:0:
68,284,21187,6,0,P|20:248|8:188,1,90,2|8,0:0|0:0,0:0:0:0:
352,80,21687,2,0,P|400:116|408:160,1,90,2|8,0:0|0:0,0:0:0:0:
64,72,22187,2,0,P|16:108|8:152,1,90,2|8,0:0|0:0,0:0:0:0:
428,288,22687,1,2,0:0:0:0:
268,292,22937,5,8,0:0:0:0:
152,104,23195,2,0,L|56:148,1,90,0|8,0:0|0:0,0:0:0:0:
336,152,23694,2,0,L|240:196,1,90,0|8,0:0|0:0,0:0:0:0:
48,304,24194,2,0,L|148:304,1,90,0|8,0:0|0:0,0:0:0:0:
492,120,24693,2,0,L|468:228,1,90,0|8,0:0|0:0,0:0:0:0:
232,236,25193,5,4,0:0:0:0:
512,208,25692,1,4,0:0:0:0:
140,148,26192,1,4,0:0:0:0:
512,120,26692,1,4,0:0:0:0:
360,168,27174,6,0,L|336:284,1,90,2|8,0:0|0:0,0:0:0:0:
118,60,27682,2,0,L|146:176,1,90,2|8,0:0|0:0,0:0:0:0:
360,168,28190,2,0,L|336:284,1,90,2|8,0:0|0:0,0:0:0:0:
16,192,28699,2,0,L|44:308,1,90,2|8,0:0|0:0,0:0:0:0:
288,32,29207,6,0,L|198:32,1,90,2|8,0:0|0:0,0:0:0:0:
376,112,29702,2,0,L|286:112,1,90,2|8,0:0|0:0,0:0:0:0:
464,192,30198,2,0,L|374:192,1,90,2|8,0:0|0:0,0:0:0:0:
24,192,30694,2,0,L|114:192,1,90,2|8,0:0|0:0,0:0:0:0:
372,80,31190,6,0,L|308:168,1,90,2|8,0:0|0:0,0:0:0:0:
112,80,31685,2,0,L|176:168,1,90,2|8,0:0|0:0,0:0:0:0:
348,152,32181,2,0,L|440:152,1,90,2|8,0:0|0:0,0:0:0:0:
75,152,32677,2,0,L|165:152,1,90,2|8,0:0|0:0,0:0:0:0:
324,332,33173,6,0,L|396:272,1,90,2|0,0:0|0:0,0:0:0:0:
108,328,33596,2,0,P|60:268|96:112,1,240,2|0,0:0|0:0,0:0:0:0:
432,88,34613,2,0,P|476:168|476:200,1,120,2|0,0:0|0:0,0:0:0:0:
256,192,35206,12,2,38849,0:0:0:0:
312,152,39065,5,2,0:0:0:0:
216,152,39223,1,2,0:0:0:0:
312,232,39382,1,2,0:0:0:0:
56,132,39541,1,2,0:0:0:0:
200,232,39838,5,2,0:0:0:0:
312,232,40016,1,2,0:0:0:0:
112,308,40327,1,2,0:0:0:0:
452,196,40488,1,2,0:0:0:0:
