osu file format v12

[General]
AudioFilename: CANCION BOB ESPONJA (INTRO ESPAOL LATINO).mp3
AudioLeadIn: 0
PreviewTime: 1400
Countdown: 0
SampleSet: Soft
StackLeniency: 0.7
Mode: 3
LetterboxInBreaks: 0
SpecialStyle: 0
WidescreenStoryboard: 0

[Editor]
DistanceSpacing: 1.5
BeatDivisor: 4
GridSize: 4

[Metadata]
Title:La Cancion de Bob Esponja
TitleUnicode:La Canción de Bob Esponja
Artist:Painty el pirata y los niños
ArtistUnicode:Painty el pirata y los niños
Creator:NaxelCL
Version:7K HD
Source:BobEsponja
Tags:nickelodeon
BeatmapID:376580
BeatmapSetID:152425

[Difficulty]
HPDrainRate:7
CircleSize:7
OverallDifficulty:8
ApproachRate:5
SliderMultiplier:1.4
SliderTickRate:1

[Events]
//Background and Video events
0,0,"bob-esponja-3.jpg",0,0
//Break Periods
//Storyboard Layer 0 (Background)
//Storyboard Layer 1 (Fail)
//Storyboard Layer 2 (Pass)
//Storyboard Layer 3 (Foreground)
//Storyboard Sound Samples
//Background Colour Transformations
3,100,163,162,255

[TimingPoints]
11060,499.633602025182,4,2,0,15,1,0
27048,500,4,2,0,15,1,0

[HitObjects]
36,192,11060,128,0,11309:0:0:0:0:
256,192,11309,128,0,11559:0:0:0:0:
402,192,11309,1,0,0:0:0:0:
475,192,11559,128,0,11809:0:0:0:0:
329,192,11559,1,0,0:0:0:0:
109,192,11809,128,0,12059:0:0:0:0:
182,192,11809,1,0,0:0:0:0:
329,192,12059,128,0,12309:0:0:0:0:
256,192,12059,1,0,0:0:0:0:
182,192,12184,1,0,0:0:0:0:
402,192,12309,128,0,12558:0:0:0:0:
36,192,12309,1,0,0:0:0:0:
182,192,12558,128,0,13058:0:0:0:0:
256,192,12808,1,0,0:0:0:0:
402,192,12933,1,0,0:0:0:0:
475,192,13058,1,0,0:0:0:0:
36,192,13058,128,0,13308:0:0:0:0:
109,192,13308,1,0,0:0:0:0:
329,192,13308,128,0,13558:0:0:0:0:
256,192,13558,128,0,13807:0:0:0:0:
182,192,13807,1,0,0:0:0:0:
475,192,13807,128,0,14057:0:0:0:0:
109,192,14057,128,0,14307:0:0:0:0:
36,192,14307,1,0,0:0:0:0:
402,192,14557,1,0,0:0:0:0:
256,192,14807,1,0,0:0:0:0:
329,192,15057,128,0,15306:0:0:0:0:
182,192,15306,128,0,15556:0:0:0:0:
402,192,15306,1,0,0:0:0:0:
256,192,15556,1,0,0:0:0:0:
109,192,15806,1,0,0:0:0:0:
475,192,15806,128,0,16056:0:0:0:0:
329,192,16056,1,0,0:0:0:0:
402,192,16056,128,0,16306:0:0:0:0:
109,192,16181,1,0,0:0:0:0:
182,192,16306,128,0,16555:0:0:0:0:
36,192,16306,1,0,0:0:0:0:
329,192,16555,1,0,0:0:0:0:
475,192,16555,128,0,17055:0:0:0:0:
256,192,16805,1,0,0:0:0:0:
36,192,17055,1,0,0:0:0:0:
109,192,17055,1,0,0:0:0:0:
402,192,17305,128,0,17555:0:0:0:0:
182,192,17305,1,0,0:0:0:0:
475,192,17555,1,0,0:0:0:0:
109,192,17805,1,0,0:0:0:0:
329,192,17805,1,0,0:0:0:0:
402,192,18054,1,0,0:0:0:0:
256,192,18054,128,0,18304:0:0:0:0:
182,192,18304,1,0,0:0:0:0:
109,192,18304,128,0,18554:0:0:0:0:
36,192,18554,1,0,0:0:0:0:
329,192,18804,1,0,0:0:0:0:
402,192,18804,1,0,0:0:0:0:
475,192,18804,128,0,19054:0:0:0:0:
182,192,19054,128,0,19303:0:0:0:0:
256,192,19303,128,0,19553:0:0:0:0:
109,192,19553,128,0,19803:0:0:0:0:
329,192,19553,1,0,0:0:0:0:
402,192,19803,128,0,20053:0:0:0:0:
36,192,19803,1,0,0:0:0:0:
329,192,20053,128,0,20303:0:0:0:0:
256,192,20053,1,0,0:0:0:0:
109,192,20178,1,0,0:0:0:0:
182,192,20303,1,0,0:0:0:0:
256,192,20553,1,0,0:0:0:0:
36,192,20553,128,0,21052:0:0:0:0:
329,192,20802,1,0,0:0:0:0:
182,192,21052,1,0,0:0:0:0:
109,192,21052,1,0,0:0:0:0:
402,192,21302,1,0,0:0:0:0:
329,192,21302,128,0,21552:0:0:0:0:
36,192,21552,1,0,0:0:0:0:
475,192,21552,128,0,21802:0:0:0:0:
256,192,21802,1,0,0:0:0:0:
109,192,21802,128,0,22051:0:0:0:0:
475,192,22051,1,0,0:0:0:0:
182,192,22051,128,0,22301:0:0:0:0:
402,192,22301,128,0,22551:0:0:0:0:
256,192,22301,1,0,0:0:0:0:
329,192,22551,1,0,0:0:0:0:
36,192,22676,1,0,0:0:0:0:
109,192,22801,1,0,0:0:0:0:
256,192,22926,1,0,0:0:0:0:
329,192,23051,1,0,0:0:0:0:
475,192,23051,128,0,23301:0:0:0:0:
182,192,23301,1,0,0:0:0:0:
36,192,23301,128,0,23550:0:0:0:0:
402,192,23550,128,0,23800:0:0:0:0:
329,192,23550,1,0,0:0:0:0:
109,192,23800,1,0,0:0:0:0:
182,192,23925,1,0,0:0:0:0:
475,192,24050,1,0,0:0:0:0:
329,192,24175,1,0,0:0:0:0:
36,192,24300,128,0,24550:0:0:0:0:
402,192,24300,1,0,0:0:0:0:
329,192,24550,128,0,25049:0:0:0:0:
109,192,24550,1,0,0:0:0:0:
256,192,24799,1,0,0:0:0:0:
182,192,25049,128,0,25299:0:0:0:0:
109,192,25049,1,0,0:0:0:0:
402,192,25299,128,0,25549:0:0:0:0:
475,192,25299,1,0,0:0:0:0:
36,192,25549,128,0,25799:0:0:0:0:
109,192,25549,1,0,0:0:0:0:
256,192,25799,1,0,0:0:0:0:
329,192,25799,128,0,26049:0:0:0:0:
182,192,26049,128,0,26298:0:0:0:0:
475,192,26298,128,0,26548:0:0:0:0:
109,192,26298,1,0,0:0:0:0:
256,192,26423,1,0,0:0:0:0:
36,192,26423,1,0,0:0:0:0:
402,192,26548,1,0,0:0:0:0:
182,192,26673,1,0,0:0:0:0:
256,192,26798,1,0,0:0:0:0:
329,192,26923,1,0,0:0:0:0:
36,192,27048,1,0,0:0:0:0:
109,192,27048,128,0,27298:0:0:0:0:
329,192,27298,128,0,27548:0:0:0:0:
402,192,27298,1,0,0:0:0:0:
475,192,27548,128,0,27798:0:0:0:0:
256,192,27548,1,0,0:0:0:0:
36,192,27673,1,0,0:0:0:0:
182,192,27798,128,0,28048:0:0:0:0:
402,192,28048,128,0,28298:0:0:0:0:
329,192,28048,1,0,0:0:0:0:
256,192,28173,1,0,0:0:0:0:
109,192,28298,1,0,0:0:0:0:
36,192,28548,1,0,0:0:0:0:
182,192,28673,1,0,0:0:0:0:
329,192,28798,1,0,0:0:0:0:
109,192,29048,128,0,29298:0:0:0:0:
182,192,29048,1,0,0:0:0:0:
256,192,29298,128,0,29548:0:0:0:0:
36,192,29298,1,0,0:0:0:0:
402,192,29548,128,0,29798:0:0:0:0:
475,192,29548,1,0,0:0:0:0:
182,192,29798,128,0,30048:0:0:0:0:
109,192,29798,1,0,0:0:0:0:
329,192,30048,1,0,0:0:0:0:
36,192,30298,1,0,0:0:0:0:
475,192,30423,1,0,0:0:0:0:
402,192,30548,1,0,0:0:0:0:
256,192,30673,1,0,0:0:0:0:
182,192,30798,1,0,0:0:0:0:
475,192,31048,128,0,31298:0:0:0:0:
36,192,31048,1,0,0:0:0:0:
109,192,31298,128,0,31548:0:0:0:0:
402,192,31298,1,0,0:0:0:0:
402,192,31548,128,0,31798:0:0:0:0:
182,192,31548,1,0,0:0:0:0:
256,192,31798,128,0,32048:0:0:0:0:
475,192,31798,1,0,0:0:0:0:
329,192,32048,128,0,32298:0:0:0:0:
36,192,32048,1,0,0:0:0:0:
109,192,32298,128,0,32548:0:0:0:0:
475,192,32298,1,0,0:0:0:0:
182,192,32548,1,0,0:0:0:0:
402,192,32798,1,0,0:0:0:0:
256,192,33048,128,0,33548:0:0:0:0:
329,192,33048,1,0,0:0:0:0:
475,192,33298,1,0,0:0:0:0:
36,192,33548,128,0,34048:0:0:0:0:
402,192,33673,1,0,0:0:0:0:
182,192,34048,128,0,34548:0:0:0:0:
109,192,34048,1,0,0:0:0:0:
329,192,34173,1,0,0:0:0:0:
402,192,34298,1,0,0:0:0:0:
329,192,34423,1,0,0:0:0:0:
256,192,34548,1,0,0:0:0:0:
475,192,34548,128,0,35048:0:0:0:0:
402,192,34673,1,0,0:0:0:0:
329,192,34798,1,0,0:0:0:0:
256,192,34923,1,0,0:0:0:0:
109,192,35048,128,0,35548:0:0:0:0:
402,192,35048,1,0,0:0:0:0:
182,192,35173,1,0,0:0:0:0:
329,192,35423,1,0,0:0:0:0:
36,192,35548,128,0,36048:0:0:0:0:
182,192,35673,1,0,0:0:0:0:
256,192,35923,1,0,0:0:0:0:
109,192,36048,1,0,0:0:0:0:
329,192,36173,1,0,0:0:0:0:
402,192,36298,1,0,0:0:0:0:
256,192,36423,1,0,0:0:0:0:
329,192,36548,1,0,0:0:0:0:
475,192,36673,1,0,0:0:0:0:
402,192,36798,1,0,0:0:0:0:
182,192,36923,1,0,0:0:0:0:
256,192,37048,1,0,0:0:0:0:
329,192,37173,1,0,0:0:0:0:
182,192,37298,1,0,0:0:0:0:
109,192,37423,1,0,0:0:0:0:
36,192,37548,1,0,0:0:0:0:
402,192,37673,1,0,0:0:0:0:
329,192,37798,1,0,0:0:0:0:
182,192,37923,1,0,0:0:0:0:
182,192,39048,1,0,0:0:0:0:
475,192,39298,1,0,0:0:0:0:
36,192,39423,1,0,0:0:0:0:
182,192,39548,1,0,0:0:0:0:
256,192,39798,1,0,0:0:0:0:
329,192,40048,1,0,0:0:0:0:
182,192,40298,1,0,0:0:0:0:
475,192,40298,128,0,40548:0:0:0:0:
109,192,40423,1,0,0:0:0:0:
36,192,40548,1,0,0:0:0:0:
