osu file format v12

[General]
AudioFilename: CANCION BOB ESPONJA (INTRO ESPAOL LATINO).mp3
AudioLeadIn: 0
PreviewTime: 1400
Countdown: 0
SampleSet: Soft
StackLeniency: 0.7
Mode: 3
LetterboxInBreaks: 0
SpecialStyle: 0
WidescreenStoryboard: 0

[Editor]
DistanceSpacing: 1.5
BeatDivisor: 4
GridSize: 4

[Metadata]
Title:La Cancion de Bob Esponja
TitleUnicode:La Canci坦n de Bob Esponja
Artist:Painty el pirata y los niños
ArtistUnicode:Painty el pirata y los niños
Creator:NaxelCL
Version:4K NM
Source:BobEsponja
Tags:nickelodeon
BeatmapID:375149
BeatmapSetID:152425

[Difficulty]
HPDrainRate:6
CircleSize:4
OverallDifficulty:6
ApproachRate:5
SliderMultiplier:1.4
SliderTickRate:1

[Events]
//Background and Video events
0,0,"fondo-bob-esponja.jpg",0,0
//Break Periods
//Storyboard Layer 0 (Background)
//Storyboard Layer 1 (Fail)
//Storyboard Layer 2 (Pass)
//Storyboard Layer 3 (Foreground)
//Storyboard Sound Samples
//Background Colour Transformations
3,100,163,162,255

[TimingPoints]
11060,499.633602025182,4,2,0,40,1,0
27048,500,4,2,0,40,1,0

[HitObjects]
448,192,11184,1,0,0:0:0:0:
64,192,11434,1,0,0:0:0:0:
192,192,11684,1,0,0:0:0:0:
320,192,11934,1,0,0:0:0:0:
448,192,12184,1,0,0:0:0:0:
64,192,12433,1,0,0:0:0:0:
320,192,12683,128,0,13058:0:0:0:0:
192,192,12683,1,0,0:0:0:0:
64,192,13183,128,0,13433:0:0:0:0:
448,192,13183,1,0,0:0:0:0:
192,192,13683,1,0,0:0:0:0:
448,192,13683,128,0,13932:0:0:0:0:
64,192,14182,1,0,0:0:0:0:
320,192,14182,128,0,14432:0:0:0:0:
448,192,14682,1,0,0:0:0:0:
192,192,14682,128,0,14932:0:0:0:0:
320,192,14932,1,0,0:0:0:0:
64,192,15181,1,0,0:0:0:0:
320,192,15431,1,0,0:0:0:0:
448,192,15681,1,0,0:0:0:0:
320,192,15931,1,0,0:0:0:0:
192,192,16181,1,0,0:0:0:0:
64,192,16431,1,0,0:0:0:0:
320,192,16680,1,0,0:0:0:0:
448,192,16680,128,0,17055:0:0:0:0:
192,192,16680,1,0,0:0:0:0:
320,192,17180,128,0,17430:0:0:0:0:
64,192,17180,1,0,0:0:0:0:
448,192,17680,1,0,0:0:0:0:
192,192,17680,128,0,17929:0:0:0:0:
320,192,18179,1,0,0:0:0:0:
64,192,18179,128,0,18429:0:0:0:0:
192,192,18679,1,0,0:0:0:0:
448,192,18679,128,0,18929:0:0:0:0:
320,192,18929,1,0,0:0:0:0:
64,192,19179,1,0,0:0:0:0:
192,192,19428,1,0,0:0:0:0:
320,192,19678,1,0,0:0:0:0:
448,192,19928,1,0,0:0:0:0:
64,192,20178,1,0,0:0:0:0:
320,192,20428,1,0,0:0:0:0:
64,192,20677,1,0,0:0:0:0:
192,192,20927,1,0,0:0:0:0:
320,192,21177,1,0,0:0:0:0:
64,192,21177,128,0,21427:0:0:0:0:
448,192,21677,128,0,21927:0:0:0:0:
192,192,21677,1,0,0:0:0:0:
320,192,22176,128,0,22426:0:0:0:0:
64,192,22176,1,0,0:0:0:0:
448,192,22676,1,0,0:0:0:0:
320,192,22926,1,0,0:0:0:0:
64,192,23176,1,0,0:0:0:0:
192,192,23425,1,0,0:0:0:0:
320,192,23675,1,0,0:0:0:0:
192,192,23925,1,0,0:0:0:0:
448,192,24175,1,0,0:0:0:0:
320,192,24425,1,0,0:0:0:0:
192,192,24675,1,0,0:0:0:0:
448,192,24924,1,0,0:0:0:0:
64,192,25174,128,0,25424:0:0:0:0:
320,192,25174,1,0,0:0:0:0:
192,192,25674,128,0,25924:0:0:0:0:
448,192,25674,1,0,0:0:0:0:
320,192,26173,128,0,26423:0:0:0:0:
64,192,26173,1,0,0:0:0:0:
448,192,26673,128,0,26923:0:0:0:0:
192,192,26673,1,0,0:0:0:0:
320,192,27173,1,0,0:0:0:0:
64,192,27173,128,0,27673:0:0:0:0:
448,192,27673,1,0,0:0:0:0:
192,192,27673,128,0,28173:0:0:0:0:
64,192,28173,1,0,0:0:0:0:
320,192,28173,128,0,28673:0:0:0:0:
448,192,28673,1,0,0:0:0:0:
64,192,28673,128,0,29173:0:0:0:0:
448,192,29173,128,0,29673:0:0:0:0:
192,192,29173,1,0,0:0:0:0:
320,192,29673,128,0,30173:0:0:0:0:
64,192,29673,1,0,0:0:0:0:
448,192,30173,1,0,0:0:0:0:
192,192,30173,128,0,30673:0:0:0:0:
448,192,30673,128,0,31173:0:0:0:0:
64,192,30673,1,0,0:0:0:0:
64,192,31173,128,0,31673:0:0:0:0:
320,192,31173,1,0,0:0:0:0:
448,192,31673,1,0,0:0:0:0:
192,192,31673,128,0,32173:0:0:0:0:
64,192,32173,1,0,0:0:0:0:
320,192,32173,128,0,32673:0:0:0:0:
448,192,32673,128,0,33173:0:0:0:0:
192,192,32673,1,0,0:0:0:0:
64,192,33173,128,0,33423:0:0:0:0:
320,192,33423,128,0,33673:0:0:0:0:
448,192,33673,128,0,34673:0:0:0:0:
192,192,33673,1,0,0:0:0:0:
64,192,34173,1,0,0:0:0:0:
192,192,34423,1,0,0:0:0:0:
320,192,34673,128,0,35173:0:0:0:0:
192,192,35173,1,0,0:0:0:0:
448,192,35423,1,0,0:0:0:0:
64,192,35673,1,0,0:0:0:0:
320,192,35923,1,0,0:0:0:0:
64,192,36173,1,0,0:0:0:0:
192,192,36423,1,0,0:0:0:0:
448,192,36673,1,0,0:0:0:0:
320,192,36923,1,0,0:0:0:0:
192,192,37173,1,0,0:0:0:0:
64,192,37423,1,0,0:0:0:0:
192,192,37673,1,0,0:0:0:0:
448,192,37923,1,0,0:0:0:0:
320,192,38173,1,0,0:0:0:0:
192,192,38423,1,0,0:0:0:0:
320,192,38673,1,0,0:0:0:0:
64,192,38673,128,0,39048:0:0:0:0:
192,192,39048,1,0,0:0:0:0:
320,192,39173,1,0,0:0:0:0:
448,192,39298,1,0,0:0:0:0:
64,192,39548,1,0,0:0:0:0:
320,192,39798,1,0,0:0:0:0:
192,192,40048,1,0,0:0:0:0:
64,192,40298,128,0,40548:0:0:0:0:
448,192,40548,1,0,0:0:0:0:
