osu file format v13

[General]
AudioFilename: Pachelbel - Canon.mp3
AudioLeadIn: 0
PreviewTime: 122399
Countdown: 0
SampleSet: Soft
StackLeniency: 0.7
Mode: 0
LetterboxInBreaks: 1
WidescreenStoryboard: 0

[Editor]
Bookmarks: 1087,14801,28496,42210,68983,122459,160606,173061,197584,203738,210084,222360,235292,248397
DistanceSpacing: 1.5
BeatDivisor: 8
GridSize: 8
TimelineZoom: 1

[Metadata]
Title:Canon in D
TitleUnicode:
Artist:Pachelbel
ArtistUnicode:
Creator:1on
Version:Insane
Source:
Tags:Classical
BeatmapID:95376
BeatmapSetID:26882

[Difficulty]
HPDrainRate:7
CircleSize:5
OverallDifficulty:6
ApproachRate:8
SliderMultiplier:2.6
SliderTickRate:2

[Events]
//Background and Video events
0,0,"bg.jpg",0,0
//Break Periods
2,185153,196855
//Storyboard Layer 0 (Background)
//Storyboard Layer 1 (Fail)
//Storyboard Layer 2 (Pass)
//Storyboard Layer 3 (Foreground)
Sprite,Foreground,TopLeft,"speedx2.png",320,240 F,0,232877,233485,0,1 F,0,233485,233891,1 M,0,233891,,222,45 S,0,233891,,0.7200001 F,0,233891,234499,1,0 F,0,234499,235107,0,1 F,0,235107,235513,1 F,0,235513,236121,1,0
//Storyboard Sound Samples
//Background Colour Transformations
3,100,163,162,255

[TimingPoints]
1110,841.514726507714,4,2,1,25,1,0
14813,859.431049250534,4,2,1,15,1,0
35439,847.831049250533,4,2,1,15,1,0
42221,842.308891374249,4,2,1,20,1,0
69098,845.070422535211,4,2,1,20,1,0
99520,804.375824175824,4,2,1,20,1,0
102737,826.775824175824,4,2,1,20,1,0
112681,822.575824175824,4,2,1,20,1,0
122597.27251977,805.893947545393,4,2,1,30,1,1
138656,795.454029572398,4,2,1,25,1,1
148221,779.468578878747,4,2,1,20,1,0
163810,763.263427109974,4,2,1,15,1,0
173061,767.230769230769,4,2,1,20,1,0
197605,775.293350548741,4,2,1,20,1,0
222455,806.451612903226,4,2,1,20,1,0
235358,813.251612903226,4,2,1,20,1,0
235358,-50,4,2,1,20,0,0
247556,-100,4,2,1,20,0,0
248380,796.812749003984,4,2,1,20,1,0

[Colours]
Combo1 : 92,129,169
Combo2 : 217,72,17
Combo3 : 114,133,50
Combo4 : 128,67,38
Combo5 : 218,147,58

[HitObjects]
112,328,14813,5,8,0:0:0:0:
72,200,15242,2,0,B|72:120|160:88,1,130
256,48,16102,1,0,0:0:0:0:
384,72,16531,2,0,B|467:96|451:214,1,130
400,288,17391,1,0,0:0:0:0:
272,320,17821,1,0,0:0:0:0:
152,280,18250,2,8,B|111:218|168:136,1,130
248,80,19110,5,0,0:0:0:0:
344,168,19539,1,0,0:0:0:0:
240,248,19969,2,0,B|149:248|149:100|290:106|290:197,1,260
224,304,21258,1,0,0:0:0:0:
128,224,21688,2,8,B|67:202|35:105|128:36|184:48,1,260
312,48,22977,1,0,0:0:0:0:
376,56,23192,1,0,0:0:0:0:
416,104,23407,5,0,0:0:0:0:
424,232,23837,1,0,0:0:0:0:
304,288,24266,1,0,0:0:0:0:
184,240,24696,1,0,0:0:0:0:
152,112,25126,2,0,B|168:32|360:40|360:128,1,260
368,248,26415,1,0,0:0:0:0:
256,192,26845,1,4,0:0:0:0:
56,48,28563,5,8,0:0:0:0:
119,32,28778,1,0,0:0:0:0:
101,93,28993,1,0,0:0:0:0:
193,185,29423,1,0,0:0:0:0:
101,93,29853,1,0,0:0:0:0:
104,352,30712,1,0,0:0:0:0:
243,213,31142,1,0,0:0:0:0:
381,74,31571,1,0,0:0:0:0:
381,74,32001,5,8,0:0:0:0:
336,119,32431,1,0,0:0:0:0:
246,209,32861,1,0,0:0:0:0:
338,118,33290,1,0,0:0:0:0:
448,192,33720,1,0,0:0:0:0:
304,192,34150,2,0,B|336:192,2,32.5
272,96,34579,1,0,0:0:0:0:
272,290,35009,1,8,0:0:0:0:
304,192,35439,6,0,B|256:192,2,32.5
208,160,35862,2,0,B|208:224,1,65
288,288,36286,1,0,0:0:0:0:
288,96,36710,1,0,0:0:0:0:
96,104,37134,5,0,0:0:0:0:
56,192,37346,1,0,0:0:0:0:
104,280,37558,1,0,0:0:0:0:
56,192,37770,1,0,0:0:0:0:
96,104,37982,1,0,0:0:0:0:
272,192,38406,1,8,0:0:0:0:
272,192,38830,6,0,B|208:192,2,65
112,224,39678,2,0,B|112:152,1,65
208,192,40102,1,0,0:0:0:0:
376,288,40525,5,0,0:0:0:0:
408,192,40737,1,0,0:0:0:0:
376,96,40949,1,0,0:0:0:0:
408,192,41161,1,0,0:0:0:0:
376,288,41373,1,0,0:0:0:0:
208,192,41797,1,4,0:0:0:0:
40,352,42221,6,0,B|16:304|56:264,1,65
96,208,42642,1,0,0:0:0:0:
184,240,42852,1,0,0:0:0:0:
264,296,43063,2,0,B|317:334|376:315|400:264,1,130
432,216,43695,1,0,0:0:0:0:
440,120,43905,2,0,B|442:79|400:48,1,65
320,40,44326,1,0,0:0:0:0:
256,112,44537,1,0,0:0:0:0:
320,40,44747,2,0,B|393:31|445:69|440:128,1,130
437,274,45590,6,8,B|445:330|413:362|368:368,1,130
280,328,46221,1,0,0:0:0:0:
172,340,46432,2,0,B|129:343|115:278,1,65
208,264,46853,1,0,0:0:0:0:
280,328,47064,1,0,0:0:0:0:
320,240,47274,5,0,0:0:0:0:
328,144,47696,1,0,0:0:0:0:
256,88,48117,1,0,0:0:0:0:
184,144,48538,1,0,0:0:0:0:
192,240,48959,1,0,0:0:0:0:
288,240,49380,6,0,B|368:240|384:144,2,130
256,152,50433,1,8,0:0:0:0:
336,96,50644,2,0,B|294:37|221:58|200:104,1,130
256,152,51275,1,0,0:0:0:0:
176,200,51486,2,0,B|217:258|290:237|320:192,1,130
256,152,52328,5,0,0:0:0:0:
256,152,52539,1,0,0:0:0:0:
256,152,52749,1,0,0:0:0:0:
64,112,53171,1,0,0:0:0:0:
256,64,53592,1,0,0:0:0:0:
416,176,54013,2,0,B|368:192|312:184|288:136,1,130
112,192,54855,2,0,B|160:176|216:184|240:232,1,130
231,217,55697,6,0,B|127:313,2,130
368,80,56961,1,8,0:0:0:0:
184,144,57382,1,0,0:0:0:0:
304,296,57803,1,0,0:0:0:0:
184,144,58224,1,0,0:0:0:0:
344,248,58646,1,0,0:0:0:0:
392,56,59067,6,0,B|288:160,1,130,0|0,0:0|0:0,0:0:0:0:
162,285,59909,1,0,0:0:0:0:
299,147,60330,1,8,0:0:0:0:
160,288,60751,2,0,B|160:240|232:200|304:256,1,130
440,168,61594,2,0,B|478:212|438:268|410:275,1,130
224,256,62436,2,0,B|304:245|318:138,1,130
238,180,63068,1,0,0:0:0:0:
145,258,63278,2,0,B|165:179|273:178,1,130
239,181,64121,5,0,0:0:0:0:
432,184,64542,1,0,0:0:0:0:
304,40,64963,2,0,B|288:0|208:0|192:48,1,130
256,120,65595,1,0,0:0:0:0:
256,216,65805,5,0,0:0:0:0:
256,120,66016,1,0,0:0:0:0:
256,216,66226,1,0,0:0:0:0:
72,280,66647,1,0,0:0:0:0:
32,192,66858,1,0,0:0:0:0:
72,104,67069,1,2,0:0:0:0:
256,192,67490,12,8,68749,0:0:0:0:
48,40,69098,6,0,B|16:80|40:160|128:168,1,130
168,176,69731,1,0,0:0:0:0:
224,96,69943,1,0,0:0:0:0:
256,288,70365,1,0,0:0:0:0:
368,128,70788,6,0,B|416:168|480:128|448:40,1,130
368,128,71421,1,0,0:0:0:0:
456,85,71633,1,0,0:0:0:0:
440,184,71844,1,0,0:0:0:0:
352,227,72055,1,0,0:0:0:0:
192,336,72478,1,8,0:0:0:0:
440,184,72900,5,0,0:0:0:0:
304,40,73323,1,0,0:0:0:0:
208,208,73745,1,0,0:0:0:0:
272,24,74168,1,0,0:0:0:0:
256,216,74590,1,0,0:0:0:0:
232,24,75013,1,0,0:0:0:0:
40,24,75436,1,0,0:0:0:0:
40,216,75858,6,8,B|32:264|120:288|160:240,1,130
216,200,76492,1,0,0:0:0:0:
304,152,76703,1,0,0:0:0:0:
360,336,77126,1,0,0:0:0:0:
304,152,77548,1,8,0:0:0:0:
488,208,77971,1,0,0:0:0:0:
360,336,78393,1,0,0:0:0:0:
304,152,78816,1,0,0:0:0:0:
360,336,79238,5,8,0:0:0:0:
336,240,79450,1,0,0:0:0:0:
304,152,79661,1,0,0:0:0:0:
216,320,80083,1,0,0:0:0:0:
184,232,80295,1,0,0:0:0:0:
120,304,80506,1,0,0:0:0:0:
216,320,80717,5,0,0:0:0:0:
120,304,80928,1,8,0:0:0:0:
96,208,81140,2,0,B|64:176,8,32.5
24,136,82196,1,4,0:0:0:0:
200,40,82619,6,0,B|336:40,2,130
208,184,83886,2,0,B|208:248|264:288|336:240,1,130
472,184,84731,2,0,B|472:248|416:288|344:240,1,130
296,88,85576,1,0,0:0:0:0:
224,152,85788,1,0,0:0:0:0:
192,248,85999,1,8,0:0:0:0:
256,64,86421,6,0,B|184:64|144:152|192:176,3,130
264,168,87901,1,0,0:0:0:0:
352,120,88112,1,0,0:0:0:0:
360,216,88323,1,0,0:0:0:0:
304,136,88534,5,0,0:0:0:0:
256,64,88957,1,8,0:0:0:0:
152,144,89379,2,0,B|144:48|224:-8,2,130
344,144,90647,2,0,B|352:48|272:-8,2,130
256,320,91914,1,0,0:0:0:0:
256,224,92126,1,0,0:0:0:0:
256,128,92337,1,0,0:0:0:0:
256,320,92759,6,0,B|256:256,1,65
216,168,93182,2,0,B|160:104,1,65
304,168,93605,2,0,B|360:104,1,65
256,40,94027,5,8,0:0:0:0:
216,232,94450,2,0,B|192:184|208:136,1,65
296,160,94872,2,0,B|320:208|304:256,1,65
265,313,95295,1,0,0:0:0:0:
256,192,95717,5,0,0:0:0:0:
256,192,96140,1,4,0:0:0:0:
112,216,96985,2,0,B|44:182|16:109|64:58,2,130
136,88,98252,2,0,B|221:42|309:98,1,130
256,208,99098,2,0,B|171:254|83:198,1,130
400,216,100324,2,0,B|468:182|496:109|448:58,2,130
256,344,101530,6,0,B|208:328|224:256,1,65
256,208,101933,2,0,B|304:192|288:120,1,65
256,64,102335,2,0,B|208:48|224:-24,1,65
256,104,102737,2,8,B|192:152|328:160|248:216,1,130
256,16,103563,5,0,0:0:0:0:
208,96,103770,1,0,0:0:0:0:
305,96,103977,1,0,0:0:0:0:
256,288,104390,2,8,B|192:240|328:232|248:176,1,130
256,376,105217,5,0,0:0:0:0:
208,296,105424,1,0,0:0:0:0:
305,296,105630,1,0,0:0:0:0:
136,192,106044,2,8,B|184:128|192:264|248:184,3,130
432,192,107697,5,0,0:0:0:0:
336,192,107904,1,0,0:0:0:0:
240,192,108111,1,0,0:0:0:0:
432,192,108524,1,0,0:0:0:0:
336,192,108731,1,0,0:0:0:0:
240,192,108937,1,0,0:0:0:0:
256,96,109144,5,0,0:0:0:0:
256,96,109247,1,0,0:0:0:0:
256,96,109351,1,4,0:0:0:0:
208,256,110177,1,0,0:0:0:0:
304,256,110384,1,0,0:0:0:0:
256,336,110591,1,0,0:0:0:0:
256,144,111004,1,8,0:0:0:0:
256,144,111108,1,8,0:0:0:0:
256,144,111211,1,8,0:0:0:0:
256,240,111418,5,0,0:0:0:0:
256,48,111831,1,0,0:0:0:0:
80,128,112244,2,0,B|32:160|40:232|93:255,2,130
256,192,113503,1,0,0:0:0:0:
256,289,113709,1,0,0:0:0:0:
256,192,113914,1,0,0:0:0:0:
440,128,114326,6,0,B|488:160|480:232|426:255,2,130
256,192,115560,1,0,0:0:0:0:
118,54,115971,1,0,0:0:0:0:
256,192,116382,1,8,0:0:0:0:
408,312,116793,6,0,B|366:341|317:286,1,65
291,227,117205,2,0,B|306:178|238:149,1,65
175,142,117616,2,0,B|133:171|84:116,1,65
64,62,118027,2,0,B|105:32|154:87,1,65
175,142,118439,2,0,B|159:190|227:219,1,65
285,222,118850,2,0,B|326:192|375:247,1,65
416,280,119261,5,8,0:0:0:0:
416,280,119364,1,8,0:0:0:0:
416,280,119467,1,8,0:0:0:0:
416,280,119570,1,8,0:0:0:0:
416,280,119672,1,8,0:0:0:0:
192,88,120084,5,0,0:0:0:0:
192,88,120187,1,0,0:0:0:0:
192,88,120289,1,0,0:0:0:0:
456,208,120906,5,0,0:0:0:0:
456,208,121009,1,0,0:0:0:0:
456,208,121112,1,0,0:0:0:0:
456,208,121215,1,0,0:0:0:0:
456,208,121318,1,0,0:0:0:0:
232,24,121729,5,0,0:0:0:0:
232,24,121832,1,0,0:0:0:0:
232,24,121934,1,0,0:0:0:0:
32,40,122597,5,4,0:0:0:0:
160,176,123000,2,0,B|205:130,2,65
256,344,123806,1,0,0:0:0:0:
344,312,124007,1,0,0:0:0:0:
408,240,124209,1,0,0:0:0:0:
424,144,124410,1,0,0:0:0:0:
400,48,124612,1,0,0:0:0:0:
304,56,124813,6,0,B|320:120,1,65
320,216,125216,2,0,B|272:272,1,65
184,240,125619,1,0,0:0:0:0:
184,144,125820,1,4,0:0:0:0:
320,280,126223,5,0,0:0:0:0:
252,212,126425,1,0,0:0:0:0:
184,144,126626,1,0,0:0:0:0:
280,136,126828,1,0,0:0:0:0:
320,160,126929,1,0,0:0:0:0:
336,208,127030,1,0,0:0:0:0:
256,264,127231,1,0,0:0:0:0:
136,256,127432,6,0,B|168:320,4,65
88,160,128440,1,0,0:0:0:0:
112,64,128641,2,0,B|151:23|192:40,2,65
136,160,129245,1,0,0:0:0:0:
136,208,129346,1,0,0:0:0:0:
160,248,129447,1,0,0:0:0:0:
232,312,129648,1,0,0:0:0:0:
328,312,129850,2,8,B|376:320|416:296|432:248,1,130
440,152,130454,6,0,B|408:96,3,65
336,48,131260,2,0,B|256:32,1,65
184,72,131663,1,0,0:0:0:0:
168,168,131865,1,0,0:0:0:0:
232,240,132066,1,0,0:0:0:0:
328,232,132267,6,0,B|368:208|352:152|304:120|264:160,1,130
216,200,132872,1,0,0:0:0:0:
264,280,133073,2,0,B|288:304|336:280,1,65
408,240,133476,1,0,0:0:0:0:
416,144,133678,1,0,0:0:0:0:
360,56,133879,6,0,B|384:24,2,32.5
264,24,134282,1,0,0:0:0:0:
168,40,134484,1,0,0:0:0:0:
96,104,134685,2,0,B|40:80,2,32.5
72,200,135088,1,0,0:0:0:0:
256,240,135491,6,8,B|256:176,1,65
208,256,135894,1,0,0:0:0:0:
192,168,136095,1,0,0:0:0:0:
256,96,136297,1,4,0:0:0:0:
304,256,136700,1,0,0:0:0:0:
320,168,136901,1,0,0:0:0:0:
256,96,137103,1,0,0:0:0:0:
256,192,137304,5,0,0:0:0:0:
184,120,137506,1,0,0:0:0:0:
264,64,137707,1,0,0:0:0:0:
360,72,137909,2,0,B|392:56,2,32.5
416,152,138312,2,0,B|448:152,2,32.5
432,248,138656,2,12,B|440:288|392:352|344:328,1,130,0|0,0:0|0:0,0:0:0:0:
256,344,139252,1,0,0:0:0:0:
160,328,139451,2,0,B|96:296,1,65
35,226,139849,2,0,B|27:154,6,65
72,112,141241,5,0,0:0:0:0:
144,40,141440,1,0,0:0:0:0:
72,112,141638,1,0,0:0:0:0:
168,128,141837,1,8,0:0:0:0:
72,112,142235,5,0,0:0:0:0:
168,128,142434,1,0,0:0:0:0:
72,112,142633,1,8,0:0:0:0:
264,80,143030,2,0,B|306:56|334:105,1,65
352,184,143428,2,0,B|357:232|301:240,1,65
224,216,143826,2,0,B|193:177|237:141,1,65
312,128,144224,5,0,0:0:0:0:
304,224,144423,1,0,0:0:0:0:
216,264,144621,1,0,0:0:0:0:
144,200,144820,1,0,0:0:0:0:
192,120,145019,1,8,0:0:0:0:
376,56,145417,2,0,B|440:96,2,65
440,240,146212,2,0,B|432:304|376:352|272:336|248:320|216:304,1,260
56,216,147405,2,0,B|16:160|56:80,1,130
256,192,148201,5,4,0:0:0:0:
256,64,148610,2,0,B|296:48|368:88|352:144,1,130
256,319,149390,2,0,B|216:335|144:296|160:239,1,130
160,192,149974,5,0,0:0:0:0:
200,136,150169,1,0,0:0:0:0:
264,120,150364,1,0,0:0:0:0:
320,160,150559,1,0,0:0:0:0:
312,224,150754,1,0,0:0:0:0:
248,232,150948,1,0,0:0:0:0:
200,184,151143,1,0,0:0:0:0:
256,144,151338,1,8,0:0:0:0:
256,344,151728,5,0,0:0:0:0:
352,328,151923,1,0,0:0:0:0:
424,264,152118,1,8,0:0:0:0:
416,72,152507,5,0,0:0:0:0:
320,40,152702,1,0,0:0:0:0:
224,40,152897,1,0,0:0:0:0:
128,64,153092,1,0,0:0:0:0:
224,40,153287,1,0,0:0:0:0:
320,40,153482,1,0,0:0:0:0:
224,40,153676,1,0,0:0:0:0:
208,232,154066,5,0,0:0:0:0:
304,232,154261,1,0,0:0:0:0:
208,232,154456,1,8,0:0:0:0:
400,232,154846,2,0,B|416:272|384:296,1,65
312,352,155235,1,0,0:0:0:0:
120,352,155625,5,0,0:0:0:0:
40,288,155820,2,0,B|16:248|40:200,1,65
56,136,156210,1,0,0:0:0:0:
144,96,156404,2,0,B|208:80,3,65
305,80,157184,2,0,B|352:32,1,65
400,80,157574,5,2,0:0:0:0:
384,216,157963,2,0,B|360:152,2,65
296,40,158743,1,0,0:0:0:0:
200,40,158938,1,0,0:0:0:0:
152,128,159133,1,0,0:0:0:0:
240,160,159328,1,0,0:0:0:0:
328,120,159522,1,0,0:0:0:0:
240,160,159717,5,0,0:0:0:0:
152,128,159912,1,0,0:0:0:0:
240,160,160107,1,0,0:0:0:0:
248,96,160302,1,0,0:0:0:0:
328,120,160496,1,0,0:0:0:0:
128,248,160692,5,8,0:0:0:0:
128,248,160789,1,8,0:0:0:0:
128,248,160887,1,8,0:0:0:0:
216,296,161082,2,0,B|248:328|288:296,1,65
344,240,161471,1,0,0:0:0:0:
344,240,161568,1,0,0:0:0:0:
344,240,161666,1,0,0:0:0:0:
368,144,161861,2,0,B|384:104|344:72,1,65
272,40,162251,5,0,0:0:0:0:
280,144,162446,1,0,0:0:0:0:
200,88,162641,1,0,0:0:0:0:
104,96,162836,1,0,0:0:0:0:
176,160,163030,1,0,0:0:0:0:
104,232,163225,1,0,0:0:0:0:
104,328,163420,1,0,0:0:0:0:
176,264,163615,1,0,0:0:0:0:
256,200,163810,6,8,B|256:256,2,32.5,8|8|8,0:0|0:0|0:0,0:0:0:0:
256,297,164191,2,0,B|248:345|304:345,1,65
385,343,164573,2,0,B|378:304,2,32.5
464,280,164954,1,0,0:0:0:0:
472,192,165145,1,0,0:0:0:0:
464,96,165336,2,0,B|416:40,2,65
376,136,165908,1,0,0:0:0:0:
464,96,166099,1,0,0:0:0:0:
376,56,166290,2,8,B|304:24,3,65
120,48,167244,5,0,0:0:0:0:
56,120,167435,1,0,0:0:0:0:
64,216,167626,1,0,0:0:0:0:
104,192,167721,1,0,0:0:0:0:
128,232,167816,1,0,0:0:0:0:
216,192,168007,5,0,0:0:0:0:
304,192,168198,1,0,0:0:0:0:
352,280,168389,1,0,0:0:0:0:
288,352,168580,1,0,0:0:0:0:
192,336,168771,1,0,0:0:0:0:
128,264,168962,1,0,0:0:0:0:
120,168,169152,2,0,B|152:112,3,65
224,48,169916,2,0,B|224:8,2,32.5
256,144,170297,5,0,0:0:0:0:
304,224,170488,1,0,0:0:0:0:
206,224,170679,1,8,0:0:0:0:
256,32,171061,2,0,B|256:104,1,65
256,192,171442,5,0,0:0:0:0:
344,152,171633,1,0,0:0:0:0:
344,249,171824,1,0,0:0:0:0:
344,152,172015,1,0,0:0:0:0:
256,192,172205,5,8,0:0:0:0:
168,152,172396,1,0,0:0:0:0:
168,248,172587,1,0,0:0:0:0:
256,192,172779,1,0,0:0:0:0:
80,352,173061,5,8,0:0:0:0:
152,288,173252,1,0,0:0:0:0:
64,240,173444,1,0,0:0:0:0:
144,184,173636,1,0,0:0:0:0:
64,128,173828,1,0,0:0:0:0:
152,80,174020,1,0,0:0:0:0:
64,32,174211,1,0,0:0:0:0:
224,152,174595,5,8,0:0:0:0:
400,64,174979,1,0,0:0:0:0:
400,256,175362,1,0,0:0:0:0:
224,336,175746,1,0,0:0:0:0:
296,152,176129,5,8,0:0:0:0:
120,232,176513,1,0,0:0:0:0:
80,40,176897,1,0,0:0:0:0:
216,184,177280,1,0,0:0:0:0:
24,136,177664,5,8,0:0:0:0:
56,224,177856,1,0,0:0:0:0:
125,293,178048,1,0,0:0:0:0:
194,223,178239,1,0,0:0:0:0:
263,292,178431,1,0,0:0:0:0:
331,223,178623,1,0,0:0:0:0:
400,292,178815,1,0,0:0:0:0:
469,222,179007,1,0,0:0:0:0:
399,152,179198,1,8,0:0:0:0:
176,168,179582,5,0,0:0:0:0:
432,216,179966,1,0,0:0:0:0:
192,312,180349,1,0,0:0:0:0:
296,72,180733,1,8,0:0:0:0:
80,224,181116,5,0,0:0:0:0:
328,152,181500,1,0,0:0:0:0:
88,48,181884,1,0,0:0:0:0:
264,240,182267,1,8,0:0:0:0:
32,352,182651,5,0,0:0:0:0:
176,136,183035,1,0,0:0:0:0:
392,288,183418,1,0,0:0:0:0:
464,40,183802,1,8,0:0:0:0:
304,248,184185,5,0,0:0:0:0:
128,56,184569,1,0,0:0:0:0:
144,312,184953,1,0,0:0:0:0:
104,160,197605,6,0,B|104:24,1,130
104,160,198186,1,0,0:0:0:0:
192,272,198380,2,8,B|328:272,1,130
408,160,198961,1,0,0:0:0:0:
408,160,199155,2,0,B|408:24,1,130
384,288,199930,5,0,0:0:0:0:
128,304,200318,1,0,0:0:0:0:
152,176,200512,1,8,0:0:0:0:
256,96,200706,1,8,0:0:0:0:
408,304,201093,2,0,B|408:168,2,130
408,43,202256,1,0,0:0:0:0:
216,224,202644,2,0,B|320:144,1,130
216,224,203419,2,0,B|152:160,2,65
216,224,204194,6,0,B|112:304,1,130,0|0,0:0|0:0,0:0:0:0:
216,224,204970,2,0,B|288:288,2,65
192,128,205745,2,0,B|336:128,5,130
168,248,208071,1,0,0:0:0:0:
312,248,208362,1,8,0:0:0:0:
360,248,208459,1,8,0:0:0:0:
256,80,208846,5,0,0:0:0:0:
64,40,209234,2,0,B|16:56|40:120,1,65
128,104,209622,2,0,B|104:144,2,32.5
197,173,210009,2,0,B|181:221|117:197,1,65
51,182,210397,6,0,B|32:229|96:251,1,65,0|0,0:0|0:0,0:0:0:0:
160,216,210784,2,0,B|208:232|184:296,1,65
104,304,211172,2,0,B|117:352|182:332,1,65,0|0,0:0|0:0,0:0:0:0:
248,328,211560,1,0,0:0:0:0:
296,336,211657,1,0,0:0:0:0:
344,328,211754,1,0,0:0:0:0:
432,296,211947,2,8,B|474:268|435:212,1,65,0|0,0:0|0:0,0:0:0:0:
363,203,212335,2,0,B|333:161|390:124,1,65
460,164,212723,2,0,B|477:116|412:95,1,65,0|0,0:0|0:0,0:0:0:0:
360,56,213110,5,0,0:0:0:0:
312,48,213207,1,0,0:0:0:0:
264,48,213304,1,0,0:0:0:0:
176,88,213498,1,0,0:0:0:0:
136,112,213595,1,0,0:0:0:0:
104,152,213692,1,0,0:0:0:0:
144,240,213886,2,0,B|153:289|220:275,1,65,0|0,0:0|0:0,0:0:0:0:
272,232,214273,2,0,B|308:195|354:244,1,65
416,264,214661,2,0,B|464:247|440:183,1,65,0|0,0:0|0:0,0:0:0:0:
384,136,215049,5,0,0:0:0:0:
192,168,215436,1,0,0:0:0:0:
330,306,215824,1,0,0:0:0:0:
152,224,216212,5,8,0:0:0:0:
152,224,216308,1,8,0:0:0:0:
152,224,216405,1,0,0:0:0:0:
224,152,216599,1,0,0:0:0:0:
320,320,216987,1,0,0:0:0:0:
152,224,217374,1,0,0:0:0:0:
344,192,217762,1,8,0:0:0:0:
152,224,218150,2,0,B|152:168|240:176|240:224,3,130
72,128,219700,5,0,0:0:0:0:
96,88,219797,1,0,0:0:0:0:
144,80,219894,1,0,0:0:0:0:
232,120,220088,1,0,0:0:0:0:
192,152,220185,1,0,0:0:0:0:
144,160,220282,1,0,0:0:0:0:
232,120,220476,1,0,0:0:0:0:
144,160,220669,1,4,0:0:0:0:
144,160,220766,1,4,0:0:0:0:
144,160,220863,1,4,0:0:0:0:
256,192,221251,12,0,222025,0:0:0:0:
256,192,222455,5,0,0:0:0:0:
104,312,222858,1,0,0:0:0:0:
173,242,223060,1,0,0:0:0:0:
103,172,223262,1,0,0:0:0:0:
297,172,223665,2,8,B|352:224|296:304,1,130
480,200,224471,5,0,0:0:0:0:
424,120,224673,1,0,0:0:0:0:
480,40,224875,1,0,0:0:0:0:
424,120,225278,2,8,B|416:72|360:40|304:72,1,130
424,120,225883,1,0,0:0:0:0:
424,216,226084,6,0,B|384:288,2,65
456,304,226689,1,0,0:0:0:0:
360,288,226891,2,0,B|312:304,2,32.5
424,216,227294,1,4,0:0:0:0:
336,40,227697,6,0,B|232:40,1,65
176,48,228100,2,0,B|104:96,1,65
64,160,228504,2,0,B|72:232,1,65
144,296,228907,2,8,B|248:336,1,97.5
264,288,229310,2,8,B|368:328,1,97.5
384,280,229713,2,8,B|488:320,1,97.5
488,264,230117,2,8,B|439:163,1,97.5
416,136,230520,6,8,B|384:99,3,32.5,0|0|0|0,0:0|0:0|0:0|0:0,0:0:0:0:
352,80,230923,2,8,B|306:65,3,32.5,0|0|0|0,0:0|0:0|0:0|0:0,0:0:0:0:
272,64,231325,2,8,B|224:64,3,32.5,0|0|0|0,0:0|0:0|0:0|0:0,0:0:0:0:
192,72,231730,2,8,B|148:93,3,32.5,0|0|0|0,0:0|0:0|0:0|0:0,0:0:0:0:
128,120,232132,5,0,0:0:0:0:
184,304,232535,1,0,0:0:0:0:
272,344,232737,1,0,0:0:0:0:
360,296,232938,1,0,0:0:0:0:
304,112,233342,1,0,0:0:0:0:
256,192,233543,1,8,0:0:0:0:
256,192,233644,1,0,0:0:0:0:
256,192,233745,1,8,0:0:0:0:
72,248,234148,5,0,0:0:0:0:
256,320,234551,1,0,0:0:0:0:
400,192,234955,1,0,0:0:0:0:
256,192,235156,1,4,0:0:0:0:
256,192,235257,1,4,0:0:0:0:
256,192,235358,1,4,0:0:0:0:
72,120,235764,6,0,B|56:72|120:24|176:48,2,130
336,128,236577,2,8,B|352:200|208:320|144:288,1,260
24,72,237391,1,0,0:0:0:0:
152,48,237594,1,0,0:0:0:0:
280,24,237797,1,0,0:0:0:0:
96,208,238204,2,4,B|111:135|293:88|337:144,1,260
448,360,239017,6,0,B|360:296|456:200,1,130
472,128,239424,1,0,0:0:0:0:
328,344,239830,1,0,0:0:0:0:
288,216,240034,1,8,0:0:0:0:
288,216,240135,1,8,0:0:0:0:
288,216,240237,1,8,0:0:0:0:
104,32,240644,2,0,B|55:28|15:93|59:153,1,130
88,248,241050,2,0,B|120:320|304:336|344:240,2,260
328,152,242270,6,0,B|240:136|208:224,1,130
288,312,242677,2,0,B|235:384|151:343,1,130
112,240,243083,2,0,B|91:152|177:116,1,130
272,64,243490,1,4,0:0:0:0:
488,104,243897,1,0,0:0:0:0:
384,184,244100,1,0,0:0:0:0:
280,104,244303,1,0,0:0:0:0:
384,184,244507,2,8,B|344:320,3,130
96,248,245523,6,0,B|41:176|105:108,1,130
192,48,245930,2,0,B|281:50|295:142,1,130
312,248,246336,2,0,B|258:320|175:277,1,130
192,160,246743,1,12,0:0:0:0:
104,336,247150,1,0,0:0:0:0:
200,96,247556,1,0,0:0:0:0:
304,336,247963,1,0,0:0:0:0:
256,192,248380,12,0,251567,0:0:0:0:
