osu file format v13

[General]
AudioFilename: Pachelbel - Canon.mp3
AudioLeadIn: 0
PreviewTime: 122399
Countdown: 0
SampleSet: Soft
StackLeniency: 0.7
Mode: 0
LetterboxInBreaks: 1
WidescreenStoryboard: 0

[Editor]
Bookmarks: 1087,14801,28496,30230,42210,68983,122459,160606,173061,197584,203738,210084,222360,235292,248397
DistanceSpacing: 1.4
BeatDivisor: 4
GridSize: 8
TimelineZoom: 1

[Metadata]
Title:Canon in D
TitleUnicode:
Artist:Pachelbel
ArtistUnicode:
Creator:1on
Version:Easy
Source:
Tags:Classical
BeatmapID:95847
BeatmapSetID:26882

[Difficulty]
HPDrainRate:3
CircleSize:4
OverallDifficulty:3
ApproachRate:4
SliderMultiplier:0.999999999999999
SliderTickRate:2

[Events]
//Background and Video events
0,0,"bg.jpg",0,0
//Break Periods
//Storyboard Layer 0 (Background)
//Storyboard Layer 1 (Fail)
//Storyboard Layer 2 (Pass)
//Storyboard Layer 3 (Foreground)
//Storyboard Sound Samples
//Background Colour Transformations
3,100,163,162,255

[TimingPoints]
1110,841.514726507714,4,2,1,15,1,0
14813,859.431049250534,4,2,1,10,1,0
35439,847.831049250533,4,2,1,10,1,0
42221,842.308891374249,4,2,1,15,1,0
69098,845.070422535211,4,2,1,15,1,0
99520,804.375824175824,4,2,1,15,1,0
102737,826.775824175824,4,2,1,15,1,0
112681,822.575824175824,4,2,1,15,1,0
122597.27251977,805.893947545393,4,2,1,25,1,1
138656,795.454029572398,4,2,1,20,1,1
148221,779.468578878747,4,2,1,15,1,0
163810,763.263427109974,4,2,1,10,1,0
173061,767.230769230769,4,2,1,15,1,0
197605,775.293350548741,4,2,1,15,1,0
222455,806.451612903226,4,2,1,15,1,0
235358,813.251612903226,4,2,1,15,1,0
235358,-50,4,2,1,15,0,0
247556,-100,4,2,1,15,0,0
248380,796.812749003984,4,2,1,15,1,0

[Colours]
Combo1 : 92,129,169
Combo2 : 217,72,17
Combo3 : 114,133,50
Combo4 : 128,67,38
Combo5 : 218,147,58

[HitObjects]
16,176,14813,6,8,B|0:56|224:-24|296:80,1,350
320,120,18250,2,0,B|352:176|304:248|136:184|72:224|80:312,1,350,0|0,0:0|0:0,0:0:0:0:
112,360,21688,2,0,B|154:398|222:356|206:300,1,150
184,232,23407,5,8,0:0:0:0:
312,184,24266,1,0,0:0:0:0:
440,128,25126,2,0,B|480:80|416:16|360:64,1,150
304,88,26845,1,4,0:0:0:0:
24,48,28563,5,8,0:0:0:0:
152,104,29423,1,0,0:0:0:0:
216,128,29853,1,0,0:0:0:0:
280,152,30282,1,8,0:0:0:0:
400,88,31142,5,0,0:0:0:0:
344,128,31571,1,0,0:0:0:0:
280,152,32001,1,8,0:0:0:0:
216,136,32431,1,0,0:0:0:0:
264,80,32861,1,0,0:0:0:0:
264,208,33720,6,8,B|264:272,1,50
48,256,35439,5,0,0:0:0:0:
72,320,35862,1,0,0:0:0:0:
136,344,36286,1,0,0:0:0:0:
208,352,36710,1,0,0:0:0:0:
280,336,37134,1,0,0:0:0:0:
384,240,37982,5,8,0:0:0:0:
304,128,38830,2,0,B|200:128,2,99.9999999999999
168,176,41373,1,0,0:0:0:0:
168,248,41797,1,4,0:0:0:0:
240,248,42221,6,0,B|296:256|328:240|344:200|328:160,1,150
304,104,43905,2,0,B|360:96|384:120|400:152|392:192,1,150
392,264,45590,2,0,B|448:256|480:272|496:312|480:352,1,150
416,336,47274,2,0,B|360:344|328:328|312:288|328:248,1,150
336,184,48959,5,8,0:0:0:0:
248,296,49801,1,0,0:0:0:0:
256,152,50644,1,0,0:0:0:0:
120,152,51486,2,0,B|66:131|18:174|32:200,1,99.9999999999999
40,248,52749,5,0,0:0:0:0:
72,312,53171,1,0,0:0:0:0:
128,352,53592,1,0,0:0:0:0:
200,352,54013,2,0,B|257:344,1,50
312,312,54855,2,0,B|349:278,1,50
392,224,55697,6,8,B|416:168,5,50
448,112,58224,1,0,0:0:0:0:
408,56,58646,1,0,0:0:0:0:
336,40,59067,2,0,B|224:24,1,99.9999999999999
168,32,60330,1,0,0:0:0:0:
96,32,60751,6,4,B|32:40|40:112,1,99.9999999999999,4|0,0:0|0:0,0:0:0:0:
48,168,62015,1,0,0:0:0:0:
72,232,62436,2,0,B|91:309|185:332|248:280,2,200
112,176,66226,1,0,0:0:0:0:
160,120,66647,1,0,0:0:0:0:
232,104,67069,1,0,0:0:0:0:
216,32,67490,2,0,B|192:40|192:40|168:32|168:32|144:40|144:40|120:32|120:32|72:32|72:32,1,150
16,56,69098,6,0,B|16:120|80:128,2,99.9999999999999
88,40,71210,1,0,0:0:0:0:
160,40,71633,1,0,0:0:0:0:
224,56,72055,1,0,0:0:0:0:
264,112,72478,5,8,0:0:0:0:
272,184,72900,1,0,0:0:0:0:
288,248,73323,2,0,B|304:192|360:152|432:128|496:152,1,250
472,216,75858,6,0,B|456:264,2,50
440,152,77126,1,0,0:0:0:0:
408,88,77548,1,8,0:0:0:0:
336,72,77971,1,0,0:0:0:0:
272,96,78393,6,0,B|214:124|232:200,2,99.9999999999999
304,160,80506,1,0,0:0:0:0:
360,200,80928,1,8,0:0:0:0:
424,216,81351,2,0,B|424:264,2,50
424,144,82619,6,0,B|496:233,1,99.9999999999999
424,248,83886,1,8,0:0:0:0:
472,296,84309,2,0,B|401:385,1,99.9999999999999,0|0,0:0|0:0,0:0:0:0:
344,368,85576,1,8,0:0:0:0:
304,312,85999,2,0,B|233:222,1,99.9999999999999,0|0,0:0|0:0,0:0:0:0:
296,192,87267,5,8,0:0:0:0:
344,144,87689,2,0,B|350:80|320:40|248:32,1,150
200,48,89379,2,0,B|144:64,1,50
96,104,90224,2,0,B|72:152,1,50
112,208,91069,1,8,0:0:0:0:
168,248,91492,1,0,0:0:0:0:
120,304,91914,1,0,0:0:0:0:
168,352,92337,1,0,0:0:0:0:
232,328,92759,1,0,0:0:0:0:
296,352,93182,6,0,B|344:344,4,50
224,352,95295,1,0,0:0:0:0:
208,280,95717,1,0,0:0:0:0:
256,224,96140,1,12,0:0:0:0:
120,224,96985,6,0,B|112:160,1,50
112,104,97830,2,0,B|128:40|208:8|296:32,1,200
416,64,100324,2,0,B|424:128,1,50
424,184,101128,2,0,B|408:248|328:280|296:264,1,150
240,248,102737,6,0,B|208:200,1,50
192,136,103563,1,0,0:0:0:0:
264,144,103977,1,0,0:0:0:0:
280,216,104390,2,0,B|240:248,1,50
200,192,105217,1,0,0:0:0:0:
56,192,106044,6,0,B|16:224|16:224|48:264|48:264|8:296|8:296|40:352|40:352,2,200,4|0|4,0:0|0:0|0:0,0:0:0:0:
112,152,109764,1,0,0:0:0:0:
184,144,110177,2,0,B|256:128|288:184,2,99.9999999999999
152,80,112244,2,0,B|176:24,2,50
136,152,113503,1,4,0:0:0:0:
104,288,114326,6,0,B|89:360|130:407|217:374|224:309,1,200
256,272,116382,1,0,0:0:0:0:
296,216,116793,1,0,0:0:0:0:
304,152,117205,1,0,0:0:0:0:
280,88,117616,6,0,B|240:40,4,50
328,136,119672,1,0,0:0:0:0:
352,200,120084,1,0,0:0:0:0:
320,264,120495,1,0,0:0:0:0:
248,256,120906,2,8,B|176:232|152:192,1,99.9999999999999
16,200,122597,5,12,0:0:0:0:
56,144,123000,2,0,B|88:96,1,50
136,56,123806,1,0,0:0:0:0:
200,32,124209,1,0,0:0:0:0:
272,32,124612,2,0,B|352:48|408:104|400:128,1,150
408,176,126223,6,0,B|408:240,2,50
408,105,127432,2,0,B|408:33,4,50
408,175,129447,1,0,0:0:0:0:
408,248,129850,2,0,B|392:296|328:304,1,99.9999999999999
264,304,131059,2,0,B|216:288|208:224,1,99.9999999999999
208,160,132267,6,8,B|224:104,1,50
256,48,133073,1,0,0:0:0:0:
328,48,133476,1,0,0:0:0:0:
384,88,133879,2,0,B|432:136,2,50
328,48,135088,1,0,0:0:0:0:
256,48,135491,6,4,B|184:48,1,50,4|0,0:0|0:0,0:0:0:0:
136,64,136297,2,0,B|80:88,2,50
192,104,137506,1,0,0:0:0:0:
128,128,137909,1,0,0:0:0:0:
128,200,138312,1,0,0:0:0:0:
128,264,138656,6,8,B|128:336|192:352,1,99.9999999999999
248,352,139849,2,0,B|304:360,5,50
368,360,142235,1,0,0:0:0:0:
432,328,142633,1,0,0:0:0:0:
464,264,143030,2,0,B|507:216|477:150,1,99.9999999999999
472,104,144224,2,0,B|462:48|400:24,1,99.9999999999999
344,24,145417,6,0,B|288:24,2,50
352,96,146610,1,0,0:0:0:0:
288,128,147008,1,0,0:0:0:0:
328,184,147405,1,0,0:0:0:0:
264,216,147803,1,0,0:0:0:0:
264,216,148221,5,4,0:0:0:0:
224,160,148610,2,0,B|168:128,1,50
144,192,149390,2,0,B|200:224,1,50
168,288,150169,1,0,0:0:0:0:
224,328,150559,1,0,0:0:0:0:
296,320,150949,1,0,0:0:0:0:
344,264,151338,1,8,0:0:0:0:
360,200,151728,6,0,B|360:128,1,50
344,80,152508,2,0,B|320:32,2,50
384,136,153677,2,0,B|432:176,2,50
312,144,154846,1,0,0:0:0:0:
344,80,155236,1,0,0:0:0:0:
280,48,155625,2,0,B|200:24|152:64|136:104,1,150
104,144,157184,6,0,B|88:208,1,50
88,264,157964,2,0,B|144:264,2,50
80,336,159133,1,0,0:0:0:0:
144,368,159523,1,0,0:0:0:0:
144,296,159913,1,0,0:0:0:0:
200,336,160302,1,0,0:0:0:0:
272,328,160692,6,8,B|336:296,1,50
376,272,161471,2,0,B|402:261|444:221|432:176,2,99.9999999999999
312,256,163420,1,0,0:0:0:0:
304,184,163810,1,0,0:0:0:0:
296,112,164191,2,0,B|240:112,2,50
368,112,165336,2,0,B|440:112,2,50
320,64,166481,5,0,0:0:0:0:
264,24,166863,1,0,0:0:0:0:
192,40,167244,1,0,0:0:0:0:
128,72,167626,2,0,B|75:111|49:174|64:216,1,150
64,272,169152,2,0,B|104:320,3,50
152,352,170679,1,8,0:0:0:0:
256,192,171442,12,4,172972,0:0:0:0:
