osu file format v14

[General]
AudioFilename: Pokemon_GO_PUNYASO_Dubstep_Remix[grabfrom.com].mp3
AudioLeadIn: 0
PreviewTime: 40672
Countdown: 0
SampleSet: Soft
StackLeniency: 0.7
Mode: 0
LetterboxInBreaks: 1
WidescreenStoryboard: 0

[Editor]
DistanceSpacing: 0.8
BeatDivisor: 1
GridSize: 32
TimelineZoom: 1

[Metadata]
Title:Pokemon GO
TitleUnicode:Pokemon GO
Artist:PUNYASO
ArtistUnicode:PUNYASO
Creator:RikiH_
Version:Aspire
Source:
Tags:
BeatmapID:1249573
BeatmapSetID:590422

[Difficulty]
HPDrainRate:6
CircleSize:3.7
OverallDifficulty:8
ApproachRate:9.3
SliderMultiplier:3.59999990463257
SliderTickRate:1

[Events]
//Background and Video events
0,0,"aa469ae08e91b5f571dac3b2a14f6e66.jpg",0,0
//Break Periods
//Storyboard Layer 0 (Background)
//Storyboard Layer 1 (Fail)
//Storyboard Layer 2 (Pass)
//Storyboard Layer 3 (Foreground)
//Storyboard Sound Samples

[TimingPoints]
1672,375,4,2,0,50,1,0
1672,-50,4,2,0,50,0,0
4672,1500,4,2,0,50,1,0
4672,-200,4,2,0,50,0,0
10297,93.75,4,2,0,50,1,0
10297,-50,4,2,0,50,0,0
10672,375,4,2,0,50,1,0
13297,-50,4,2,0,50,0,0
13672,3000,4,2,0,50,1,0
13672,-200,4,2,0,50,0,0
15172,375,4,2,0,50,1,0
15172,-50,4,2,0,50,0,0
16672,3000,4,2,0,50,1,0
16672,-1000,4,2,0,50,0,0
19672,375,4,2,0,50,1,0
20422,-50,4,2,0,50,0,0
21172,187.5,4,2,0,50,1,0
21172,-50,4,2,0,50,0,0
21922,93.75,4,2,0,50,1,0
21922,-50,4,2,0,50,0,0
22672,375,4,2,0,50,1,0
25672,3000,4,2,0,50,1,0
25672,-3000,4,2,0,50,0,0
28672,375,4,2,0,50,1,0
28672,-50,4,2,0,50,0,0
30172,187.5,4,2,0,50,1,0
30172,-50,4,2,0,50,0,0
31672,93.75,4,2,0,50,1,0
31672,-50,4,2,0,50,0,0
33922,46.875,4,2,0,50,1,0
33922,-50,4,2,0,50,0,0
34672,375,4,2,0,50,1,0
36172,187.5,4,2,0,50,1,0
39172,3000,4,2,0,50,1,0
39172,-200,4,2,0,50,0,0
40672,93.75,4,2,0,50,1,0
40672,-50,4,2,0,50,0,0

[Colours]
Combo1 : 72,72,255
Combo2 : 0,112,166
Combo3 : 210,19,57
Combo4 : 0,111,55

[HitObjects]
490,40,1672,6,0,L|286:28,1,179.999995231628
483,50,1859,6,0,L|279:38,1,179.999995231628
476,59,2047,6,0,L|272:47,1,179.999995231628
469,69,2234,6,0,L|265:57,1,179.999995231628
461,78,2422,6,0,L|257:66,1,179.999995231628
454,88,2609,6,0,L|250:76,1,179.999995231628
447,97,2797,6,0,L|243:85,1,179.999995231628
440,107,2984,6,0,L|236:95,1,179.999995231628
433,115,3172,6,0,L|229:103,1,179.999995231628
426,125,3359,6,0,L|222:113,1,179.999995231628
419,134,3547,6,0,L|215:122,1,179.999995231628
412,144,3734,6,0,L|208:132,1,179.999995231628
404,153,3922,6,0,L|200:141,1,179.999995231628
397,163,4109,6,0,L|193:151,1,179.999995231628
390,172,4297,6,0,L|186:160,1,179.999995231628
383,182,4484,6,0,L|179:170,1,179.999995231628
382,190,4672,6,0,B|202:180|202:180|394:190,1,359.999990463257
377,189,8234,5,0,0:0:0:0:
340,265,8797,1,0,0:0:0:0:
85,66,9172,5,0,0:0:0:0:
157,32,9359,1,0,0:0:0:0:
119,288,9734,5,0,0:0:0:0:
119,288,10297,6,0,B|163:218|163:218|231:193|231:193|319:111|324:21|324:21|290:53|269:101|258:132|255:155|255:187|256:203|259:224|267:240|277:254|286:271|304:292|326:313|344:324|367:339|389:349|407:356|428:364|446:370|463:377|521:377|540:370|559:362|572:351|585:335|599:315|611:296|624:263|630:241|637:205|635:173|632:154|622:137|610:117|591:97|568:82|542:72|513:62|489:56|474:58|452:62|433:68|421:77|408:89|389:119|375:152|369:184|470:231,1,1439.99996185303
402,180,10672,5,0,0:0:0:0:
262,214,10859,1,0,0:0:0:0:
306,76,11047,1,0,0:0:0:0:
414,190,11234,5,0,0:0:0:0:
254,224,11422,1,0,0:0:0:0:
301,61,11609,1,0,0:0:0:0:
322,158,11797,5,0,0:0:0:0:
109,122,11984,1,0,0:0:0:0:
28,144,12172,5,0,0:0:0:0:
169,178,12359,1,0,0:0:0:0:
125,40,12547,1,0,0:0:0:0:
17,154,12734,5,0,0:0:0:0:
177,188,12922,1,0,0:0:0:0:
130,25,13109,1,0,0:0:0:0:
1,169,13297,5,0,0:0:0:0:
494,20,13484,1,0,0:0:0:0:
1,169,13672,6,0,L|9:137,2,33.7499991059303
9,181,15172,6,0,L|42:363,1,179.999995231629
41,358,15359,2,0,P|51:230|245:117,1,359.999990463257
451,339,15922,5,0,0:0:0:0:
451,339,16109,1,0,0:0:0:0:
451,339,16297,2,0,B|488:147|488:147|488:145|488:145|491:148|491:148|484:148|484:148|489:151|489:151|484:143|484:143|489:143|489:143|487:148|487:148|491:146|491:146|484:146|484:146|485:151|485:151|490:151|490:151|487:143|487:143|481:146|481:146|484:141|484:141|486:153|486:153|488:140|488:140|490:153|490:153|480:145|480:145|492:144|492:144|482:149|482:149|492:149|492:149|303:47,1,539.999985694885
40,30,16672,6,0,L|44:62,1,31.499999165535
43,61,19672,6,0,L|18:245,3,179.999995231629
136,67,20422,6,0,P|162:117|142:60,1,179.999995231629
144,67,20609,6,0,P|167:118|150:60,1,179.999995231629
151,66,20797,6,0,P|171:118|157:59,1,179.999995231629
158,66,20984,6,0,P|178:118|164:59,1,179.999995231629
94,192,21172,6,0,L|453:253,1,359.999990463257
102,205,21359,6,0,L|469:213,1,359.999990463257
110,218,21547,6,0,L|476:175,1,359.999990463257
118,233,21734,6,0,L|475:132,1,359.999990463257
95,288,21922,6,0,B|497:171|497:171|345:2|345:2|306:69,1,719.999980926514
96,309,22109,6,0,B|498:192|498:192|346:23|346:23|307:90,1,719.999980926514
93,334,22297,6,0,B|495:217|495:217|343:48|343:48|304:115,1,719.999980926514
94,355,22484,6,0,B|496:238|496:238|344:69|344:69|305:136,1,719.999980926514
12,58,22672,6,0,L|35:258,1,179.999995231629
184,356,23047,2,0,L|207:156,1,179.999995231629
339,36,23422,1,0,0:0:0:0:
453,203,23609,1,0,0:0:0:0:
308,26,23797,1,0,0:0:0:0:
460,234,23984,1,0,0:0:0:0:
338,167,24172,5,0,0:0:0:0:
331,166,24547,5,0,0:0:0:0:
324,165,24922,5,0,0:0:0:0:
316,164,25297,5,0,0:0:0:0:
310,164,25672,6,0,L|276:161,1,33.7499991059303
26,33,28672,6,0,L|-6:234,1,179.999995231629
91,292,28859,6,0,L|57:116,1,179.999995231629
108,186,29047,6,0,L|241:339,1,179.999995231629
361,280,29234,6,0,L|191:222,1,179.999995231629
486,33,29422,6,0,L|518:234,1,179.999995231629
420,292,29609,6,0,L|455:116,1,179.999995231629
404,186,29797,6,0,L|270:339,1,179.999995231629
150,280,29984,6,0,L|321:222,1,179.999995231629
256,21,30172,6,0,B|118:69|118:69|203:123|203:123|256:21,1,359.999990463257
85,192,30359,6,0,B|133:330|133:330|187:245|187:245|85:192,1,359.999990463257
256,363,30547,6,0,B|394:315|394:315|309:261|309:261|256:363,1,359.999990463257
427,192,30734,6,0,B|379:54|379:54|325:139|325:139|427:192,1,359.999990463257
113,61,30922,6,0,B|47:22|47:22|21:46|20:47|20:53|21:61|23:64|36:66|42:68|48:72|45:79|32:80|17:80|13:81|12:83|12:84|17:88|33:89|44:89|49:90|47:95|31:95|19:93|10:93|13:97|20:99|38:98|55:98|55:102|33:102|12:102|10:104|19:113|51:112|63:114|38:117|7:114|0:114|27:123|47:119|55:119|40:127|10:127|10:127|33:166|33:166|108:74,1,359.999990463257
125,335,31109,6,0,B|86:401|86:401|110:427|111:428|117:428|125:427|128:425|130:412|132:406|136:400|143:403|144:416|144:431|145:435|147:436|148:436|152:431|153:415|153:404|154:399|159:401|159:417|157:429|157:438|161:435|163:428|162:410|162:393|166:393|166:415|166:436|168:438|177:429|176:397|178:385|181:410|178:441|178:448|187:421|183:401|183:393|191:408|191:438|191:438|230:415|230:415|138:340,1,359.999990463257
399,323,31297,6,0,B|465:362|465:362|491:338|492:337|492:331|491:323|489:320|476:318|470:316|464:312|467:305|480:304|495:304|499:303|500:301|500:300|495:296|479:295|468:295|463:294|465:289|481:289|493:291|502:291|499:287|492:285|474:286|457:286|457:282|479:282|500:282|502:280|493:271|461:272|449:270|474:267|505:270|512:270|485:261|465:265|457:265|472:257|502:257|502:257|479:218|479:218|404:310,1,359.999990463257
387,49,31484,6,0,B|426:-17|426:-17|402:-43|401:-44|395:-44|387:-43|384:-41|382:-28|380:-22|376:-16|369:-19|368:-32|368:-47|367:-51|365:-52|364:-52|360:-47|359:-31|359:-20|358:-15|353:-17|353:-33|355:-45|355:-54|351:-51|349:-44|350:-26|350:-9|346:-9|346:-31|346:-52|344:-54|335:-45|336:-13|334:-1|331:-26|334:-57|334:-64|325:-37|329:-17|329:-9|321:-24|321:-54|321:-54|282:-31|282:-31|374:44,1,359.999990463257
77,228,31672,6,0,B|76:200|75:191|67:185|51:183|38:184|26:192|21:204|22:213|28:222|45:228|74:228|120:209|144:182|145:172|156:133|158:104|156:86|148:62|144:51|144:51|123:28|108:19|83:16|48:18|15:39|6:60|7:87|26:113|59:131|96:142|173:145|229:131|312:78|344:45|356:22|362:-12|339:-29,1,719.999980926514
136,283,31859,6,0,B|125:257|121:248|111:246|96:249|84:254|75:266|75:279|79:287|87:294|105:293|133:284|169:250|183:216|180:207|177:166|169:138|161:122|145:102|138:93|138:93|110:79|93:76|69:81|36:95|13:126|11:149|21:174|48:192|85:198|124:195|197:172|245:139|305:61|324:19|327:-6|321:-40|294:-48,1,719.999980926514
211,315,32047,6,0,B|192:294|185:287|175:288|162:297|152:306|148:320|152:332|159:338|169:341|186:335|208:316|231:272|232:236|227:228|210:191|193:167|180:155|158:142|148:136|148:136|117:132|100:134|79:148|53:172|42:210|48:231|66:251|98:259|134:252|170:236|231:189|265:142|294:49|297:3|292:-22|275:-52|246:-50,1,719.999980926514
292,319,32234,6,0,B|267:305|258:302|249:306|240:319|234:330|235:345|243:355|251:359|262:358|276:346|290:321|297:272|285:237|277:232|249:203|225:186|208:179|183:174|172:172|172:172|141:179|126:187|111:207|95:239|97:278|111:296|134:309|166:305|198:286|227:259|268:194|283:138|279:40|267:-3|253:-25|226:-47|200:-36,1,719.999980926514
489,25,32422,6,0,B|261:85|261:85|161:326|161:326|104:85,1,719.999980926514
23,25,32609,6,0,B|251:85|251:85|351:326|351:326|408:85,1,719.999980926514
23,359,32797,6,0,B|251:299|251:299|351:58|351:58|408:299,1,719.999980926514
489,359,32984,6,0,B|261:299|261:299|161:58|161:58|104:299,1,719.999980926514
33,31,33172,6,0,B|130:30|130:30|135:115|135:115|45:119|45:119|31:26,1,359.999990463257
48,40,33265,6,0,B|145:39|145:39|150:124|150:124|60:128|60:128|46:35,1,359.999990463257
63,49,33359,6,0,B|160:48|160:48|165:133|165:133|75:137|75:137|61:44,1,359.999990463257
78,58,33453,6,0,B|175:57|175:57|180:142|180:142|90:146|90:146|76:53,1,359.999990463257
90,67,33547,6,0,B|187:66|187:66|192:151|192:151|102:155|102:155|88:62,1,359.999990463257
105,76,33640,6,0,B|202:75|202:75|207:160|207:160|117:164|117:164|103:71,1,359.999990463257
120,85,33734,6,0,B|217:84|217:84|222:169|222:169|132:173|132:173|118:80,1,359.999990463257
135,94,33828,6,0,B|232:93|232:93|237:178|237:178|147:182|147:182|133:89,1,359.999990463257
154,106,33922,6,0,B|465:329|465:329|589:195|589:195|355:473|355:473|587:195|587:195|349:473|349:473|589:192|589:192|344:472|344:472|591:188|591:188|338:470|338:470|595:188|595:188|329:469|329:469|593:194|593:194|319:468|319:468|595:191|595:191|310:469|310:469|601:189|601:189|303:467|303:467|597:186|597:186|291:463|291:463|597:195|597:195|274:457|274:457|602:186|602:186|460:327|460:327|379:270,1,8639.99977111817
256,192,34672,12,0,34765,0:0:0:0:
256,192,34859,12,0,34953,0:0:0:0:
256,192,35047,12,0,35140,0:0:0:0:
256,192,35234,12,0,35328,0:0:0:0:
256,192,35422,12,0,35515,0:0:0:0:
256,192,35609,12,0,35703,0:0:0:0:
256,192,35797,12,0,35890,0:0:0:0:
256,192,35984,12,0,36078,0:0:0:0:
256,192,36172,12,0,36218,0:0:0:0:
256,192,36265,12,0,36312,0:0:0:0:
256,192,36359,12,0,36406,0:0:0:0:
256,192,36453,12,0,36500,0:0:0:0:
256,192,36547,12,0,36593,0:0:0:0:
256,192,36640,12,0,36687,0:0:0:0:
256,192,36734,12,0,36781,0:0:0:0:
256,192,36828,12,0,36875,0:0:0:0:
256,192,36922,12,0,36968,0:0:0:0:
256,192,37015,12,0,37062,0:0:0:0:
256,192,37109,12,0,37156,0:0:0:0:
256,192,37203,12,0,37250,0:0:0:0:
256,192,37297,12,0,37343,0:0:0:0:
256,192,37390,12,0,37437,0:0:0:0:
256,192,37484,12,0,37531,0:0:0:0:
256,192,37578,12,0,37625,0:0:0:0:
256,192,37672,12,0,37695,0:0:0:0:
256,192,37718,12,0,37742,0:0:0:0:
256,192,37765,12,0,37789,0:0:0:0:
256,192,37812,12,0,37836,0:0:0:0:
256,192,37859,12,0,37882,0:0:0:0:
256,192,37906,12,0,37929,0:0:0:0:
256,192,37953,12,0,37976,0:0:0:0:
256,192,38000,12,0,38023,0:0:0:0:
256,192,38047,12,0,38070,0:0:0:0:
256,192,38093,12,0,38117,0:0:0:0:
256,192,38140,12,0,38164,0:0:0:0:
256,192,38187,12,0,38211,0:0:0:0:
256,192,38234,12,0,38257,0:0:0:0:
256,192,38281,12,0,38304,0:0:0:0:
256,192,38328,12,0,38351,0:0:0:0:
256,192,38375,12,0,38398,0:0:0:0:
256,192,38422,12,0,38445,0:0:0:0:
256,192,38468,12,0,38492,0:0:0:0:
256,192,38515,12,0,38539,0:0:0:0:
256,192,38562,12,0,38586,0:0:0:0:
256,192,38609,12,0,38632,0:0:0:0:
256,192,38656,12,0,38679,0:0:0:0:
256,192,38703,12,0,38726,0:0:0:0:
256,192,38750,12,0,38773,0:0:0:0:
256,192,38797,12,0,38820,0:0:0:0:
256,192,38843,12,0,38867,0:0:0:0:
256,192,38890,12,0,38914,0:0:0:0:
256,192,38937,12,0,38961,0:0:0:0:
256,192,38984,12,0,39007,0:0:0:0:
256,192,39031,12,0,39054,0:0:0:0:
256,192,39078,12,0,39101,0:0:0:0:
256,192,39125,12,0,39148,0:0:0:0:
308,96,39172,6,0,L|393:106,1,78.7499979138375
480,36,40672,6,0,B|562:79|574:84|574:84|596:115|596:115|610:175|610:175|588:233|588:233|527:269|527:269|450:268|450:268|373:211|373:211|-41:345|-41:345|10:353|34:345|60:334|92:321|131:304|159:284|182:256|207:212|216:179|218:143|215:101|205:73|187:47|169:34|144:26|113:23|78:23|48:24|11:35|-18:56|-49:82|-70:116|-77:147|-77:168|-69:190|-58:208|-45:229|-30:245|-14:258|-1:262|20:267|44:269|73:268|101:250|133:216|148:184|148:153|131:114|112:97|95:94|73:94|56:94|32:99|-1:115|-10:129|-15:153|-11:187|-4:201|13:207|36:210|71:197|88:173|90:149|59:124|25:130|16:156|16:165|19:177|40:187|47:189|58:187|70:174|73:166|73:161|68:158|68:158|226:121,1,2159.99994277954
32,36,41047,6,0,B|-50:79|-62:84|-62:84|-84:115|-84:115|-98:175|-98:175|-76:233|-76:233|-15:269|-15:269|62:268|62:268|139:211|139:211|553:345|553:345|502:353|478:345|452:334|420:321|381:304|353:284|330:256|305:212|296:179|294:143|297:101|307:73|325:47|343:34|368:26|399:23|434:23|464:24|501:35|530:56|561:82|582:116|589:147|589:168|581:190|570:208|557:229|542:245|526:258|513:262|492:267|468:269|439:268|411:250|379:216|364:184|364:153|381:114|400:97|417:94|439:94|456:94|480:99|513:115|522:129|527:153|523:187|516:201|499:207|476:210|441:197|424:173|422:149|453:124|487:130|496:156|496:165|493:177|472:187|465:189|454:187|442:174|439:166|439:161|444:158|444:158|286:121,1,2159.99994277954
256,298,41422,6,0,B|257:12|257:12|10:368,1,719.999980926514
255,298,41609,6,0,B|255:12|255:12|502:368,1,719.999980926514
43,369,41797,6,0,B|110:168|110:168|488:21|488:21|505:139|505:139|502:116|502:116|503:138|503:138|505:117|505:117|500:139|500:139|509:119|509:119|497:139|497:139|511:123|511:123|495:136|495:136|513:127|513:127|492:133|492:133|515:130|515:130|493:131|493:131|516:133|516:133|492:127|492:127|516:135|516:135|492:124|492:124|514:138|514:138|493:122|493:122|517:138|517:138|495:119|495:119|507:141|507:141|498:117|498:117|512:141|512:141|498:114|498:114|506:143|506:143|509:116|509:116|500:142|500:142|514:123|514:123|494:140|494:140|70:287|70:287|-3:24,1,2159.99994277954
