osu file format v9

[General]
AudioFilename: Usagi Drop Opening 1 Sweet Drops by _PUFFY_ English Subbed - 720p.mp3
AudioLeadIn: 0
PreviewTime: -1
Countdown: 1
SampleSet: Normal
StackLeniency: 0.7
Mode: 0
LetterboxInBreaks: 1

[Editor]
Bookmarks: 20226
DistanceSpacing: 0.8
BeatDivisor: 2
GridSize: 16

[Metadata]
Title:Sweet Drops (TV Size)
Artist:PUFFY
Creator:DarkEmerl123
Version:Hard
Source:Usagi Drop
Tags:usagi drop summer 2011 anime sweet drops puffy

[Difficulty]
HPDrainRate:9
CircleSize:6
OverallDifficulty:8
ApproachRate:8
SliderMultiplier:0.700000005960464
SliderTickRate:1

[Events]
//Background and Video events
Video,0,"Usagi-Drop-Opening-1-「Sweet-Drops」-by--PUFFY--English-Subbed---720p.avi"
0,0,"611078.jpg"
//Break Periods
//Storyboard Layer 0 (Background)
//Storyboard Layer 1 (Fail)
//Storyboard Layer 2 (Pass)
//Storyboard Layer 3 (Foreground)
//Storyboard Sound Samples
//Background Colour Transformations
3,100,163,162,255

[TimingPoints]
3083.32756760092,428.571428571429,4,1,0,100,1,0

[Colours]
Combo1 : 255,193,164
Combo2 : 217,255,217
Combo3 : 255,255,196

[HitObjects]
64,96,8011,2,0,B|80:192,1,70.0000005960464
80,192,8654,1,8
128,208,9083,1,0
160,208,9297,1,8
192,208,9511,1,0
208,192,9726,1,8
240,80,10369,2,0,B|160:32,1,70.0000005960464
80,64,11654,5,8
80,144,11869,2,0,B|80:224,1,70.0000005960464
192,208,12511,1,8
192,128,12940,2,0,B|192:32,1,70.0000005960464
336,96,13583,1,8
336,176,13797,2,0,B|336:256,1,70.0000005960464
80,192,14654,6,8,B|176:192,3,70.0000005960464
272,256,16369,2,0,B|256:144,1,105.00000089407
240,80,17440,5,8
256,192,17869,12,0,20226
96,112,20869,5,0
96,176,21297,2,8,B|176:256,2,105.00000089407
256,256,23226,1,0
288,224,23654,2,8,B|320:160,2,70.0000005960464
240,192,24940,2,0,B|112:192|112:208,2,105.00000089407
384,144,26654,2,8,B|384:64,3,70.0000005960464
80,128,28369,6,0,B|160:224,1,105.00000089407
208,256,29226,1,8
240,256,29440,1,0
256,192,29869,12,0,31154
96,240,32869,6,0,B|96:128,1,105.00000089407
96,64,33726,2,8,B|192:64,1,70.0000005960464
256,64,34583,1,0
336,64,35011,1,8
64,112,35654,1,0
80,160,36083,1,8
96,176,36297,1,0
128,192,36511,1,8
176,192,36940,1,0
208,192,37154,1,8
224,176,37369,1,0
256,128,37797,1,8
64,80,39511,6,0,B|160:80,1,70.0000005960464
224,80,40154,2,8,B|320:80|320:80,1,105.00000089407
416,80,41011,1,0
416,192,41440,1,8
400,288,42297,6,0,B|320:288,1,70.0000005960464
240,288,42940,2,8,B|160:288,1,70.0000005960464
176,208,43797,2,0,B|256:208,1,70.0000005960464
336,208,44440,2,8,B|416:208,1,70.0000005960464
256,32,45940,6,0,B|256:128,1,70.0000005960464
192,160,46583,1,8
320,224,47011,1,0
192,304,47226,1,8
320,336,47440,1,0
64,176,47869,2,8,B|192:176,1,105.00000089407
256,32,49154,6,0,B|256:128,1,70.0000005960464
176,176,50226,1,8
336,224,50440,1,0
160,288,50654,1,8
352,320,50869,1,0
192,96,51511,2,8,B|320:96,1,105.00000089407
256,192,52583,12,0,55369
256,48,56226,6,0,B|256:144,1,70.0000005960464
192,192,57083,1,8
336,240,57297,1,0
192,304,57511,1,8
336,336,57726,1,0
192,96,58369,2,8,B|320:96,1,105.00000089407
256,336,59654,6,0,B|256:256,1,70.0000005960464
160,192,60511,1,8
336,192,60726,1,0
160,80,60940,1,8
336,80,61154,1,0
160,144,61797,2,8,B|336:144,1,175.000001490116
256,32,63083,6,0,B|256:112,1,70.0000005960464
128,192,63940,1,8
208,192,64154,1,0
288,192,64369,1,8
368,192,64583,1,0
256,192,65226,12,0,68226
256,192,70583,12,0,73797
256,192,77654,12,0,81083
