osu file format v9

[General]
AudioFilename: PUFFY - SWEET DROPS (TV Size).mp3
AudioLeadIn: 1500
PreviewTime: 45747
Countdown: 0
SampleSet: Normal
StackLeniency: 0.7
Mode: 0
LetterboxInBreaks: 0

[Editor]
DistanceSpacing: 1
BeatDivisor: 4
GridSize: 8

[Metadata]
Title:SWEET DROPS (TV Size)
Artist:PUFFY
Creator:Colin Hou
Version:Normal
Source:Usagi Drop
Tags:Ami Yumi KanbeKotori tq04t46 Usagi-Doroppu ProductionI.G Kaga Rin Kawachi Daikichi

[Difficulty]
HPDrainRate:2
CircleSize:3
OverallDifficulty:3
ApproachRate:4
SliderMultiplier:1
SliderTickRate:1

[Events]
//Background and Video events
0,0,"BG.jpg"
Video,0,"BGV.avi"
//Break Periods
//Storyboard Layer 0 (Background)
//Storyboard Layer 1 (Fail)
//Storyboard Layer 2 (Pass)
//Storyboard Layer 3 (Foreground)
//Storyboard Sound Samples
//Background Colour Transformations
3,100,255,255,255

[TimingPoints]
1359,428.571428571429,4,1,1,70,1,0
32216,447.761194029851,4,1,1,70,1,0
33111,-100,4,2,1,70,0,0
33335,428.571428571429,4,2,1,70,1,0
38477,-100,4,2,1,60,0,0
38692,-100,4,2,1,50,0,0
38906,-100,4,2,1,70,0,0
39768,428.571428571429,4,2,1,70,1,0
42105,428.571428571429,4,1,1,70,1,0
42962,-100,4,2,1,70,0,0
43069,-100,4,1,1,70,0,0
43819,-100,4,2,1,70,0,0
43926,-100,4,1,1,70,0,0
44676,-100,4,2,1,70,0,0
44783,-100,4,1,1,70,0,0
55605,408.163265306122,4,1,1,70,1,0
56247,428.571428571429,4,1,1,70,1,0
70818,428.571428571429,4,1,1,70,1,0
81521,441.176470588235,4,1,1,70,1,0
81962,476.190476190476,4,1,1,70,1,0
82438,461.538461538462,4,1,1,70,1,0
82899,545.454545454546,4,1,1,70,1,0
83444,697.674418604651,4,1,1,70,1,0

[Colours]
Combo1 : 238,248,48
Combo2 : 189,48,197
Combo3 : 22,187,222
Combo4 : 251,49,49

[HitObjects]
216,136,1359,6,0,B|264:120|320:128,1,100,0|0
400,184,2216,1,0
392,280,2644,1,0
296,320,3073,2,0,B|248:296|240:240,1,100
256,144,3930,2,0,B|256:88,2,50
352,112,4787,6,0,B|384:160|384:224,1,100
320,280,5644,1,0
224,240,6073,1,0
136,288,6501,2,0,B|85:308|33:285,1,100
88,200,7358,2,0,B|88:144,2,50
184,176,8216,6,0,B|240:184|288:168,1,100,4|0
352,96,9073,2,0,B|408:88,1,50
432,128,9501,2,0,B|408:176,1,50
424,272,10144,1,0
424,272,10358,2,0,B|392:320|344:328,1,100
256,280,11216,6,0,B|152:264,1,100
144,168,12073,2,0,B|242:183,1,100
232,80,12930,2,0,B|133:64,1,100,0|4
56,128,13787,2,0,B|8:136,2,50
144,168,14644,6,0,B|136:224,1,50,0|0
128,272,15073,2,0,B|144:328|200:336,1,100
288,288,15930,2,0,B|344:296,2,50
256,192,16787,6,0,B|304:160|352:160,1,100
448,176,17644,2,0,B|472:224,1,50
403,295,18287,2,0,B|380:250,2,50
304,320,19144,2,0,B|256:288|208:288,1,100
184,248,19787,2,0,B|176:200,1,50
208,160,20216,6,0,B|248:192|304:190,1,100,4|0
384,136,21073,2,0,B|440:128,2,50
392,232,21930,1,0
400,328,22359,5,0
400,328,22787,1,0
310,284,23216,1,0
310,284,23644,6,0,B|205:304,1,100
154,220,24501,2,0,B|252:201,1,100
202,114,25359,2,0,B|103:132,1,100,4|0
34,60,26216,6,0,B|76:31,2,50
12,157,27073,2,0,B|28:206,1,50
123,233,27716,1,0
123,233,27930,2,0,B|168:266|224:248,1,100
294,184,28787,6,0,B|332:153|336:91,1,100
416,96,29430,2,0,B|419:152|457:183,2,100
374,167,30501,6,0,B|374:247,2,75
318,98,31359,2,0,B|262:98,2,50,0|0|0
215,162,32216,5,4
360,288,33111,2,0,B|416:280,1,50
448,192,33763,2,0,B|416:152|408:96,1,100,0|2
320,64,34620,2,0,B|272:64|224:96,1,100,0|2
216,144,35263,2,0,B|224:192,2,50,0|0|4
80,88,36334,5,8
80,88,36549,2,0,B|56:144|64:192,1,100,0|0
136,256,37406,2,0,B|192:248,1,50,8|0
288,136,38263,2,0,B|240:128,2,50,8|8|8
384,160,39120,5,4
480,184,39549,1,0
455,280,39982,1,0
357,257,40410,1,0
260,232,40839,2,0,B|206:232|162:268,2,100,0|2|0
328,163,42105,6,0,B|332:115,2,50
425,187,42962,2,0,B|435:240|430:291,1,100
336,320,43819,2,0,B|274:325|225:317,1,100
159,254,44676,2,0,B|138:204|138:151,2,100
256,229,45962,5,0
338,172,46390,2,0,B|388:173,1,50
381,73,47033,1,0
381,73,47247,2,0,B|333:48|279:55,1,100
205,116,48104,2,0,B|154:142|105:134,2,100
285,175,49390,5,0
263,272,49819,2,0,B|265:328,1,50
362,301,50462,2,0,B|352:251,1,50
452,245,51104,2,0,B|483:204|473:142,1,100
430,60,51962,1,0
343,109,52390,2,0,B|286:116|239:113,1,100
152,70,53247,6,0,B|97:80,1,50
45,160,53890,1,0
45,160,54104,2,0,B|64:208|58:272,2,100
144,164,55390,6,0,B|149:221|178:261|233:274|288:261,1,200
368,203,56675,5,0
419,116,57104,2,0,B|468:119,2,50
349,44,57961,2,0,B|316:83|258:86,1,100
164,59,58818,1,0
88,124,59246,6,0,B|81:178,1,50
121,204,59675,2,0,B|157:247|154:304,1,100
249,266,60532,2,0,B|304:266,1,50
338,296,60961,2,0,B|390:294,1,50
462,227,61604,1,0
462,227,61818,2,0,B|482:181|472:124,2,100
381,167,63104,6,0,B|352:124|295:110,1,100,4|0
208,152,63961,2,0,B|155:154,2,50
287,212,64818,1,0
362,277,65246,6,0,B|401:310|459:304,1,100,0|0
435,206,66104,2,0,B|405:157|420:102,1,100
337,50,66961,2,0,B|284:45|235:53,2,100
315,147,68246,1,0
315,147,68675,2,0,B|312:205,1,50,0|4
148,296,69961,6,0,B|93:303,2,50
232,241,70818,1,0
325,274,71246,1,0
409,220,71675,2,0,B|440:179|439:119,1,100
345,91,72532,2,0,B|289:95|235:110,1,100
152,71,73389,2,0,B|101:68,2,50
179,167,74246,6,0,B|200:217|243:240,1,100
337,205,75103,1,0
437,206,75532,1,0
439,305,75960,1,0
338,307,76389,6,0,B|283:307,2,50
337,205,77246,2,0,B|341:149,1,50,0|0
275,79,77889,1,0
275,79,78103,2,0,B|232:109|175:104,1,100
93,154,78960,1,0
171,215,79389,2,0,B|195:260|186:316,1,100
86,320,80246,2,0,B|37:318,2,50
186,312,81103,6,0,B|246:304|298:314,1,97.44
376,258,81962,2,0,B|411:217|420:161,1,100
369,78,82899,6,0,B|316:74,1,50
235,128,83444,2,0,B|243:187,1,50,0|4
