osu file format v14

[General]
AudioFilename: audio.mp3
AudioLeadIn: 0
PreviewTime: 91573
Countdown: 0
SampleSet: Normal
StackLeniency: 0.2
Mode: 1
LetterboxInBreaks: 0
WidescreenStoryboard: 0

[Editor]
Bookmarks: 24596,48317,70643,92969,115294,143201,165527,187852
DistanceSpacing: 0.5
BeatDivisor: 4
GridSize: 32
TimelineZoom: 2.899999

[Metadata]
Title:Still in my heart feat. Punipuni Denki
TitleUnicode:Still in my heart feat. ぷにぷに電機
Artist:PSYQUI
ArtistUnicode:PSYQUI
Creator:Sebola
Version:Genjuro's Oni
Source:
Tags:Cychloryn Genjuro Hardcore FUGENE Future Core Bass J-Core Electronic FÜGENE 03 lapix mrx-037 megarex english japanese fiscia h_o_n_e_y honey
BeatmapID:2907345
BeatmapSetID:1394539

[Difficulty]
HPDrainRate:5
CircleSize:2
OverallDifficulty:5
ApproachRate:10
SliderMultiplier:1.4
SliderTickRate:1

[Events]
//Background and Video events
0,0,"family_friendly_filename.jpg",0,0
//Break Periods
2,70843,81311
//Storyboard Layer 0 (Background)
//Storyboard Layer 1 (Fail)
//Storyboard Layer 2 (Pass)
//Storyboard Layer 3 (Foreground)
//Storyboard Sound Samples

[TimingPoints]
831,348.837209302326,4,1,0,100,1,0
25772,-100,4,1,0,100,0,1
35365,-100,4,1,0,100,0,0
36063,-100,4,1,0,100,0,1
40598,-100,4,1,0,100,0,0
41296,-100,4,1,0,100,0,1
45482,-100,4,1,0,100,0,0
45656,-100,4,1,0,50,0,0
48098,-100,4,1,0,85,0,0
57953,-100,4,1,0,100,0,0
70772,-100,4,1,0,50,0,0
81586,-100,4,1,0,85,0,0
92400,-100,4,1,0,100,0,0
115249,-100,4,1,0,100,0,1
136877,-100,4,1,0,100,0,0
137749,-100,4,1,0,75,0,0
142982,-100,4,1,0,100,0,0
166703,-100,4,1,0,100,0,1
176296,-100,4,1,0,100,0,0
177342,-100,4,1,0,100,0,1
181528,-100,4,1,0,100,0,0
182226,-100,4,1,0,100,0,1
186412,-100,4,1,0,100,0,0
187633,-100,4,1,0,70,0,0

[HitObjects]
256,192,2226,5,4,0:0:0:0:
256,192,2924,1,8,0:0:0:0:
256,192,3621,1,4,0:0:0:0:
256,192,4144,1,4,0:0:0:0:
256,192,4319,1,8,0:0:0:0:
256,192,4668,1,4,0:0:0:0:
256,192,5714,1,8,0:0:0:0:
256,192,6412,1,4,0:0:0:0:
256,192,7110,1,12,0:0:0:0:
256,192,7807,1,4,0:0:0:0:
256,192,8505,1,8,0:0:0:0:
256,192,9203,1,4,0:0:0:0:
256,192,9726,1,4,0:0:0:0:
256,192,9900,1,8,0:0:0:0:
256,192,10249,1,4,0:0:0:0:
256,192,11296,1,8,0:0:0:0:
256,192,11557,1,0,0:0:0:0:
256,192,11644,1,8,0:0:0:0:
256,192,11819,1,8,0:0:0:0:
256,192,11993,1,4,0:0:0:0:
256,192,12342,1,4,0:0:0:0:
256,192,12691,1,12,0:0:0:0:
256,192,13040,1,12,0:0:0:0:
256,192,13389,1,4,0:0:0:0:
256,192,13737,1,0,0:0:0:0:
256,192,13912,1,8,0:0:0:0:
256,192,14086,1,0,0:0:0:0:
256,192,14174,1,0,0:0:0:0:
256,192,14261,1,8,0:0:0:0:
256,192,14435,1,0,0:0:0:0:
256,192,14784,1,0,0:0:0:0:
256,192,14871,1,8,0:0:0:0:
256,192,15133,1,0,0:0:0:0:
256,192,15307,1,8,0:0:0:0:
256,192,15482,1,8,0:0:0:0:
256,192,15569,1,8,0:0:0:0:
256,192,15656,1,0,0:0:0:0:
256,192,15831,1,0,0:0:0:0:
256,192,15918,1,0,0:0:0:0:
256,192,16005,1,8,0:0:0:0:
256,192,16179,1,0,0:0:0:0:
256,192,16528,1,0,0:0:0:0:
256,192,16703,1,8,0:0:0:0:
256,192,16877,1,0,0:0:0:0:
256,192,16964,1,0,0:0:0:0:
256,192,17051,1,8,0:0:0:0:
256,192,17226,1,0,0:0:0:0:
256,192,17575,1,0,0:0:0:0:
256,192,17662,1,8,0:0:0:0:
256,192,17924,1,0,0:0:0:0:
256,192,18098,1,8,0:0:0:0:
256,192,18272,1,0,0:0:0:0:
256,192,18621,1,8,0:0:0:0:
256,192,18796,1,8,0:0:0:0:
256,192,18883,1,8,0:0:0:0:
256,192,18970,1,0,0:0:0:0:
256,192,19144,1,8,0:0:0:0:
256,192,19232,1,0,0:0:0:0:
256,192,19406,1,8,0:0:0:0:
256,192,19493,1,0,0:0:0:0:
256,192,19668,1,8,0:0:0:0:
256,192,19842,1,0,0:0:0:0:
256,192,19929,1,8,0:0:0:0:
256,192,20104,1,0,0:0:0:0:
256,192,20191,1,8,0:0:0:0:
256,192,20365,1,0,0:0:0:0:
256,192,20540,1,8,0:0:0:0:
256,192,20627,1,0,0:0:0:0:
256,192,20801,1,0,0:0:0:0:
256,192,20889,1,8,0:0:0:0:
256,192,21063,1,8,0:0:0:0:
256,192,21237,1,0,0:0:0:0:
256,192,21325,1,8,0:0:0:0:
256,192,21499,1,8,0:0:0:0:
256,192,21586,1,0,0:0:0:0:
256,192,21761,1,0,0:0:0:0:
256,192,21935,1,8,0:0:0:0:
256,192,22022,1,0,0:0:0:0:
256,192,22110,1,8,0:0:0:0:
256,192,22284,1,0,0:0:0:0:
256,192,22458,1,8,0:0:0:0:
256,192,22546,1,8,0:0:0:0:
256,192,22633,1,0,0:0:0:0:
256,192,22720,1,0,0:0:0:0:
256,192,22807,1,8,0:0:0:0:
256,192,22982,1,8,0:0:0:0:
256,192,23156,1,0,0:0:0:0:
256,192,23505,1,8,0:0:0:0:
256,192,23854,1,8,0:0:0:0:
256,192,24028,1,0,0:0:0:0:
256,192,24203,1,12,0:0:0:0:
256,192,25249,1,4,0:0:0:0:
256,192,25511,1,4,0:0:0:0:
256,192,25772,1,12,0:0:0:0:
256,192,25947,1,0,0:0:0:0:
256,192,26121,1,8,0:0:0:0:
256,192,26208,1,8,0:0:0:0:
256,192,26296,1,0,0:0:0:0:
256,192,26470,1,8,0:0:0:0:
256,192,26644,1,0,0:0:0:0:
256,192,26819,1,0,0:0:0:0:
256,192,26906,1,0,0:0:0:0:
256,192,26993,1,8,0:0:0:0:
256,192,27081,1,8,0:0:0:0:
256,192,27168,1,0,0:0:0:0:
256,192,27342,1,8,0:0:0:0:
256,192,27517,1,0,0:0:0:0:
256,192,27691,1,8,0:0:0:0:
256,192,27778,1,0,0:0:0:0:
256,192,27865,1,8,0:0:0:0:
256,192,28040,1,0,0:0:0:0:
256,192,28214,1,8,0:0:0:0:
256,192,28301,1,0,0:0:0:0:
256,192,28476,1,0,0:0:0:0:
256,192,28563,1,8,0:0:0:0:
256,192,28737,1,0,0:0:0:0:
256,192,28912,1,8,0:0:0:0:
256,192,29086,1,0,0:0:0:0:
256,192,29174,1,8,0:0:0:0:
256,192,29261,1,0,0:0:0:0:
256,192,29435,1,8,0:0:0:0:
256,192,29610,1,0,0:0:0:0:
256,192,29784,1,8,0:0:0:0:
256,192,30133,1,0,0:0:0:0:
256,192,30220,1,0,0:0:0:0:
256,192,30307,1,8,0:0:0:0:
256,192,30482,1,8,0:0:0:0:
256,192,30569,1,8,0:0:0:0:
256,192,30656,1,0,0:0:0:0:
256,192,30831,1,8,0:0:0:0:
256,192,31005,1,0,0:0:0:0:
256,192,31092,1,8,0:0:0:0:
256,192,31267,1,8,0:0:0:0:
256,192,31354,1,0,0:0:0:0:
256,192,31528,1,8,0:0:0:0:
256,192,31703,1,0,0:0:0:0:
256,192,31790,1,8,0:0:0:0:
256,192,31877,1,0,0:0:0:0:
256,192,32051,1,8,0:0:0:0:
256,192,32226,1,8,0:0:0:0:
256,192,32313,1,8,0:0:0:0:
256,192,32400,1,0,0:0:0:0:
256,192,32487,1,0,0:0:0:0:
256,192,32575,1,8,0:0:0:0:
256,192,32749,1,8,0:0:0:0:
256,192,32924,1,4,0:0:0:0:
256,192,33272,1,8,0:0:0:0:
256,192,33360,1,8,0:0:0:0:
256,192,33447,1,0,0:0:0:0:
256,192,33621,1,8,0:0:0:0:
256,192,33796,1,0,0:0:0:0:
256,192,33883,1,8,0:0:0:0:
256,192,34057,1,0,0:0:0:0:
256,192,34144,1,8,0:0:0:0:
256,192,34319,1,4,0:0:0:0:
256,192,34668,1,12,0:0:0:0:
256,192,35017,1,12,0:0:0:0:
256,192,35365,1,4,0:0:0:0:
256,192,36063,1,12,0:0:0:0:
256,192,36237,1,0,0:0:0:0:
256,192,36412,1,8,0:0:0:0:
256,192,36586,1,0,0:0:0:0:
256,192,36674,1,8,0:0:0:0:
256,192,36848,1,8,0:0:0:0:
256,192,36935,1,0,0:0:0:0:
256,192,37110,1,8,0:0:0:0:
256,192,37284,1,0,0:0:0:0:
256,192,37371,1,0,0:0:0:0:
256,192,37458,1,8,0:0:0:0:
256,192,37633,1,0,0:0:0:0:
256,192,37807,1,8,0:0:0:0:
256,192,37894,1,8,0:0:0:0:
256,192,37982,1,0,0:0:0:0:
256,192,38069,1,0,0:0:0:0:
256,192,38156,1,8,0:0:0:0:
256,192,38331,1,8,0:0:0:0:
256,192,38505,1,0,0:0:0:0:
256,192,38679,1,8,0:0:0:0:
256,192,38854,1,0,0:0:0:0:
256,192,38941,1,8,0:0:0:0:
256,192,39028,1,0,0:0:0:0:
256,192,39203,1,8,0:0:0:0:
256,192,39377,1,0,0:0:0:0:
256,192,39464,1,8,0:0:0:0:
256,192,39639,1,8,0:0:0:0:
256,192,39726,1,0,0:0:0:0:
256,192,39900,1,8,0:0:0:0:
256,192,40075,1,0,0:0:0:0:
256,192,40162,1,0,0:0:0:0:
256,192,40249,1,8,0:0:0:0:
256,192,40336,1,0,0:0:0:0:
256,192,40424,1,8,0:0:0:0:
256,192,40598,1,0,0:0:0:0:
256,192,41121,1,8,0:0:0:0:
256,192,41208,1,8,0:0:0:0:
256,192,41296,1,0,0:0:0:0:
256,192,41470,1,8,0:0:0:0:
256,192,41644,1,0,0:0:0:0:
256,192,41732,1,0,0:0:0:0:
256,192,41819,1,8,0:0:0:0:
256,192,41993,1,0,0:0:0:0:
256,192,42168,1,8,0:0:0:0:
256,192,42255,1,0,0:0:0:0:
256,192,42429,1,0,0:0:0:0:
256,192,42517,1,8,0:0:0:0:
256,192,42691,1,0,0:0:0:0:
256,192,42865,1,8,0:0:0:0:
256,192,42953,1,0,0:0:0:0:
256,192,43040,1,8,0:0:0:0:
256,192,43214,1,0,0:0:0:0:
256,192,43301,1,0,0:0:0:0:
256,192,43389,1,8,0:0:0:0:
256,192,43476,1,8,0:0:0:0:
256,192,43563,1,0,0:0:0:0:
256,192,43737,1,8,0:0:0:0:
256,192,43912,1,8,0:0:0:0:
256,192,44086,1,4,0:0:0:0:
256,192,44435,1,8,0:0:0:0:
256,192,44610,1,0,0:0:0:0:
256,192,44784,1,8,0:0:0:0:
256,192,44871,1,0,0:0:0:0:
256,192,44958,1,8,0:0:0:0:
256,192,45046,1,8,0:0:0:0:
256,192,45133,1,0,0:0:0:0:
256,192,45307,1,0,0:0:0:0:
256,192,45482,1,12,0:0:0:0:
256,192,45831,8,0,47051,0:0:0:0:
256,192,48272,5,4,0:0:0:0:
256,192,48534,1,8,0:0:0:0:
256,192,48621,1,0,0:0:0:0:
256,192,48796,1,8,0:0:0:0:
256,192,48970,1,0,0:0:0:0:
256,192,49057,1,8,0:0:0:0:
256,192,49319,1,0,0:0:0:0:
256,192,49493,1,8,0:0:0:0:
256,192,49581,1,8,0:0:0:0:
256,192,49668,1,0,0:0:0:0:
256,192,49842,1,8,0:0:0:0:
256,192,50017,1,0,0:0:0:0:
256,192,50104,1,0,0:0:0:0:
256,192,50191,1,8,0:0:0:0:
256,192,50365,1,0,0:0:0:0:
256,192,50714,1,0,0:0:0:0:
256,192,50889,1,8,0:0:0:0:
256,192,51063,1,0,0:0:0:0:
256,192,51150,1,8,0:0:0:0:
256,192,51412,1,0,0:0:0:0:
256,192,51499,1,0,0:0:0:0:
256,192,51586,1,8,0:0:0:0:
256,192,51761,1,0,0:0:0:0:
256,192,51848,1,8,0:0:0:0:
256,192,52110,1,0,0:0:0:0:
256,192,52284,1,8,0:0:0:0:
256,192,52458,1,0,0:0:0:0:
256,192,52633,1,8,0:0:0:0:
256,192,52720,1,8,0:0:0:0:
256,192,52807,1,0,0:0:0:0:
256,192,52982,1,8,0:0:0:0:
256,192,53156,1,0,0:0:0:0:
256,192,53505,1,8,0:0:0:0:
256,192,53854,1,0,0:0:0:0:
256,192,54115,1,8,0:0:0:0:
256,192,54203,1,0,0:0:0:0:
256,192,54377,1,8,0:0:0:0:
256,192,54551,1,0,0:0:0:0:
256,192,54639,1,8,0:0:0:0:
256,192,54900,1,0,0:0:0:0:
256,192,55075,1,8,0:0:0:0:
256,192,55162,1,8,0:0:0:0:
256,192,55249,1,0,0:0:0:0:
256,192,55336,1,0,0:0:0:0:
256,192,55424,1,8,0:0:0:0:
256,192,55598,1,0,0:0:0:0:
256,192,55772,1,8,0:0:0:0:
256,192,55947,1,0,0:0:0:0:
256,192,56034,1,8,0:0:0:0:
256,192,56208,1,8,0:0:0:0:
256,192,56296,1,0,0:0:0:0:
256,192,56470,1,8,0:0:0:0:
256,192,56644,1,0,0:0:0:0:
256,192,56732,1,8,0:0:0:0:
256,192,56993,1,0,0:0:0:0:
256,192,57081,1,0,0:0:0:0:
256,192,57168,1,8,0:0:0:0:
256,192,57342,1,0,0:0:0:0:
256,192,57429,1,8,0:0:0:0:
256,192,57691,1,0,0:0:0:0:
256,192,57865,1,8,0:0:0:0:
256,192,58040,1,4,0:0:0:0:
256,192,58389,1,4,0:0:0:0:
256,192,58737,1,12,0:0:0:0:
256,192,59086,1,12,0:0:0:0:
256,192,59435,1,4,0:0:0:0:
256,192,59610,1,8,0:0:0:0:
256,192,59697,1,8,0:0:0:0:
256,192,59784,1,0,0:0:0:0:
256,192,59958,1,8,0:0:0:0:
256,192,60133,1,0,0:0:0:0:
256,192,60220,1,8,0:0:0:0:
256,192,60307,1,0,0:0:0:0:
256,192,60482,1,8,0:0:0:0:
256,192,60656,1,8,0:0:0:0:
256,192,60831,1,0,0:0:0:0:
256,192,61005,1,8,0:0:0:0:
256,192,61092,1,8,0:0:0:0:
256,192,61179,1,0,0:0:0:0:
256,192,61267,1,0,0:0:0:0:
256,192,61354,1,8,0:0:0:0:
256,192,61528,1,0,0:0:0:0:
256,192,61703,1,0,0:0:0:0:
256,192,61877,1,8,0:0:0:0:
256,192,62226,1,8,0:0:0:0:
256,192,62400,1,0,0:0:0:0:
256,192,62487,1,0,0:0:0:0:
256,192,62575,1,8,0:0:0:0:
256,192,62749,1,0,0:0:0:0:
256,192,62924,1,8,0:0:0:0:
256,192,63011,1,0,0:0:0:0:
256,192,63098,1,8,0:0:0:0:
256,192,63272,1,0,0:0:0:0:
256,192,63447,1,0,0:0:0:0:
256,192,63621,1,8,0:0:0:0:
256,192,63796,1,0,0:0:0:0:
256,192,63883,1,0,0:0:0:0:
256,192,63970,1,8,0:0:0:0:
256,192,64057,1,8,0:0:0:0:
256,192,64144,1,0,0:0:0:0:
256,192,64319,1,8,0:0:0:0:
256,192,64493,1,8,0:0:0:0:
256,192,64668,1,0,0:0:0:0:
256,192,65017,1,0,0:0:0:0:
256,192,65191,1,8,0:0:0:0:
256,192,65278,1,8,0:0:0:0:
256,192,65365,1,0,0:0:0:0:
256,192,65540,1,8,0:0:0:0:
256,192,65714,1,0,0:0:0:0:
256,192,65801,1,8,0:0:0:0:
256,192,65889,1,0,0:0:0:0:
256,192,66063,1,8,0:0:0:0:
256,192,66237,1,8,0:0:0:0:
256,192,66412,1,0,0:0:0:0:
256,192,66586,1,8,0:0:0:0:
256,192,66674,1,8,0:0:0:0:
256,192,66761,1,0,0:0:0:0:
256,192,66848,1,0,0:0:0:0:
256,192,66935,1,8,0:0:0:0:
256,192,67110,1,0,0:0:0:0:
256,192,67284,1,0,0:0:0:0:
256,192,67458,1,8,0:0:0:0:
256,192,67807,1,8,0:0:0:0:
256,192,67982,1,0,0:0:0:0:
256,192,68069,1,0,0:0:0:0:
256,192,68156,1,8,0:0:0:0:
256,192,68331,1,0,0:0:0:0:
256,192,68505,1,8,0:0:0:0:
256,192,68592,1,0,0:0:0:0:
256,192,68679,1,8,0:0:0:0:
256,192,68767,1,0,0:0:0:0:
256,192,68854,1,8,0:0:0:0:
256,192,69028,1,8,0:0:0:0:
256,192,69203,1,4,0:0:0:0:
256,192,69551,1,8,0:0:0:0:
256,192,69726,1,0,0:0:0:0:
256,192,70075,1,0,0:0:0:0:
256,192,70249,1,8,0:0:0:0:
256,192,70598,1,4,0:0:0:0:
256,192,81761,5,4,0:0:0:0:
256,192,82110,1,8,0:0:0:0:
256,192,82284,1,0,0:0:0:0:
256,192,82458,1,8,0:0:0:0:
256,192,82546,1,0,0:0:0:0:
256,192,82633,1,0,0:0:0:0:
256,192,82807,1,8,0:0:0:0:
256,192,82982,1,8,0:0:0:0:
256,192,83156,1,0,0:0:0:0:
256,192,83418,1,0,0:0:0:0:
256,192,83505,1,8,0:0:0:0:
256,192,83679,1,0,0:0:0:0:
256,192,83854,1,8,0:0:0:0:
256,192,83941,1,8,0:0:0:0:
256,192,84028,1,0,0:0:0:0:
256,192,84203,1,8,0:0:0:0:
256,192,84377,1,8,0:0:0:0:
256,192,84551,1,0,0:0:0:0:
256,192,84900,1,8,0:0:0:0:
256,192,85075,1,0,0:0:0:0:
256,192,85249,1,8,0:0:0:0:
256,192,85336,1,0,0:0:0:0:
256,192,85424,1,0,0:0:0:0:
256,192,85598,1,8,0:0:0:0:
256,192,85772,1,8,0:0:0:0:
256,192,85947,1,0,0:0:0:0:
256,192,86208,1,0,0:0:0:0:
256,192,86296,1,8,0:0:0:0:
256,192,86470,1,0,0:0:0:0:
256,192,86644,1,8,0:0:0:0:
256,192,86732,1,8,0:0:0:0:
256,192,86819,1,0,0:0:0:0:
256,192,86993,1,8,0:0:0:0:
256,192,87081,1,0,0:0:0:0:
256,192,87168,1,8,0:0:0:0:
256,192,87342,1,4,0:0:0:0:
256,192,87691,1,8,0:0:0:0:
256,192,87865,1,0,0:0:0:0:
256,192,88040,1,8,0:0:0:0:
256,192,88214,1,0,0:0:0:0:
256,192,88301,1,0,0:0:0:0:
256,192,88389,1,8,0:0:0:0:
256,192,88476,1,8,0:0:0:0:
256,192,88563,1,0,0:0:0:0:
256,192,88737,1,8,0:0:0:0:
256,192,88912,1,0,0:0:0:0:
256,192,88999,1,8,0:0:0:0:
256,192,89086,1,0,0:0:0:0:
256,192,89261,1,8,0:0:0:0:
256,192,89435,1,0,0:0:0:0:
256,192,89522,1,0,0:0:0:0:
256,192,89610,1,8,0:0:0:0:
256,192,89784,1,8,0:0:0:0:
256,192,89871,1,8,0:0:0:0:
256,192,89958,1,0,0:0:0:0:
256,192,90133,1,8,0:0:0:0:
256,192,90307,1,8,0:0:0:0:
256,192,90482,1,8,0:0:0:0:
256,192,90656,1,8,0:0:0:0:
256,192,90831,1,8,0:0:0:0:
256,192,90918,1,8,0:0:0:0:
256,192,91005,1,8,0:0:0:0:
256,192,91092,1,8,0:0:0:0:
256,192,91179,1,0,0:0:0:0:
256,192,91354,1,8,0:0:0:0:
256,192,91528,1,0,0:0:0:0:
256,192,91877,1,8,0:0:0:0:
256,192,92226,1,8,0:0:0:0:
256,192,92575,1,4,0:0:0:0:
256,192,92924,1,8,0:0:0:0:
256,192,93272,1,8,0:0:0:0:
256,192,93621,1,8,0:0:0:0:
256,192,93883,1,8,0:0:0:0:
256,192,94144,1,8,0:0:0:0:
256,192,94319,1,0,0:0:0:0:
256,192,94493,1,8,0:0:0:0:
256,192,94668,1,8,0:0:0:0:
256,192,95017,1,0,0:0:0:0:
256,192,95278,1,8,0:0:0:0:
256,192,95540,1,8,0:0:0:0:
256,192,95714,1,0,0:0:0:0:
256,192,96063,1,0,0:0:0:0:
256,192,96412,1,0,0:0:0:0:
256,192,96674,1,0,0:0:0:0:
256,192,96935,1,0,0:0:0:0:
256,192,97110,1,8,0:0:0:0:
256,192,97284,1,0,0:0:0:0:
256,192,97458,1,0,0:0:0:0:
256,192,97807,1,8,0:0:0:0:
256,192,98069,1,0,0:0:0:0:
256,192,98331,1,0,0:0:0:0:
256,192,98505,1,8,0:0:0:0:
256,192,98854,1,8,0:0:0:0:
256,192,99203,1,8,0:0:0:0:
256,192,99464,1,8,0:0:0:0:
256,192,99726,1,0,0:0:0:0:
256,192,99900,1,8,0:0:0:0:
256,192,100249,1,0,0:0:0:0:
256,192,100598,1,8,0:0:0:0:
256,192,100860,1,0,0:0:0:0:
256,192,101121,1,0,0:0:0:0:
256,192,101296,1,8,0:0:0:0:
256,192,101644,1,8,0:0:0:0:
256,192,101993,1,8,0:0:0:0:
256,192,102255,1,8,0:0:0:0:
256,192,102517,1,8,0:0:0:0:
256,192,102691,1,4,0:0:0:0:
256,192,103040,1,4,0:0:0:0:
256,192,103389,1,12,0:0:0:0:
256,192,103737,1,12,0:0:0:0:
256,192,104086,1,4,0:0:0:0:
256,192,104261,1,8,0:0:0:0:
256,192,104348,1,8,0:0:0:0:
256,192,104435,1,0,0:0:0:0:
256,192,104610,1,8,0:0:0:0:
256,192,104784,1,0,0:0:0:0:
256,192,104958,1,8,0:0:0:0:
256,192,105046,1,0,0:0:0:0:
256,192,105220,1,8,0:0:0:0:
256,192,105307,1,0,0:0:0:0:
256,192,105482,1,8,0:0:0:0:
256,192,105656,1,0,0:0:0:0:
256,192,105743,1,0,0:0:0:0:
256,192,105831,1,8,0:0:0:0:
256,192,106005,1,0,0:0:0:0:
256,192,106179,1,8,0:0:0:0:
256,192,106354,1,0,0:0:0:0:
256,192,106441,1,8,0:0:0:0:
256,192,106615,1,0,0:0:0:0:
256,192,106703,1,8,0:0:0:0:
256,192,106877,1,0,0:0:0:0:
256,192,107051,1,8,0:0:0:0:
256,192,107139,1,0,0:0:0:0:
256,192,107226,1,8,0:0:0:0:
256,192,107400,1,0,0:0:0:0:
256,192,107575,1,8,0:0:0:0:
256,192,107749,1,0,0:0:0:0:
256,192,107836,1,8,0:0:0:0:
256,192,108011,1,8,0:0:0:0:
256,192,108098,1,0,0:0:0:0:
256,192,108272,1,8,0:0:0:0:
256,192,108447,1,0,0:0:0:0:
256,192,108534,1,8,0:0:0:0:
256,192,108621,1,0,0:0:0:0:
256,192,108796,1,8,0:0:0:0:
256,192,108970,1,0,0:0:0:0:
256,192,109057,1,0,0:0:0:0:
256,192,109144,1,0,0:0:0:0:
256,192,109232,1,0,0:0:0:0:
256,192,109319,1,8,0:0:0:0:
256,192,109668,1,0,0:0:0:0:
256,192,109842,1,8,0:0:0:0:
256,192,109929,1,8,0:0:0:0:
256,192,110017,1,0,0:0:0:0:
256,192,110104,1,0,0:0:0:0:
256,192,110191,1,8,0:0:0:0:
256,192,110365,1,0,0:0:0:0:
256,192,110540,1,8,0:0:0:0:
256,192,110627,1,0,0:0:0:0:
256,192,110801,1,8,0:0:0:0:
256,192,110889,1,0,0:0:0:0:
256,192,111063,1,8,0:0:0:0:
256,192,111237,1,0,0:0:0:0:
256,192,111325,1,0,0:0:0:0:
256,192,111412,1,8,0:0:0:0:
256,192,111499,1,8,0:0:0:0:
256,192,111586,1,0,0:0:0:0:
256,192,111761,1,8,0:0:0:0:
256,192,111935,1,0,0:0:0:0:
256,192,112022,1,8,0:0:0:0:
256,192,112197,1,0,0:0:0:0:
256,192,112284,1,8,0:0:0:0:
256,192,112458,1,0,0:0:0:0:
256,192,112633,1,8,0:0:0:0:
256,192,112720,1,0,0:0:0:0:
256,192,112807,1,8,0:0:0:0:
256,192,112894,1,8,0:0:0:0:
256,192,112982,1,0,0:0:0:0:
256,192,113156,1,8,0:0:0:0:
256,192,113331,1,0,0:0:0:0:
256,192,113418,1,8,0:0:0:0:
256,192,113592,1,8,0:0:0:0:
256,192,113679,1,0,0:0:0:0:
256,192,113854,1,12,0:0:0:0:
256,192,114551,1,0,0:0:0:0:
256,192,114900,1,0,0:0:0:0:
256,192,115249,1,12,0:0:0:0:
256,192,115424,1,0,0:0:0:0:
256,192,115598,1,8,0:0:0:0:
256,192,115685,1,8,0:0:0:0:
256,192,115772,1,0,0:0:0:0:
256,192,115947,1,8,0:0:0:0:
256,192,116121,1,0,0:0:0:0:
256,192,116208,1,8,0:0:0:0:
256,192,116383,1,8,0:0:0:0:
256,192,116470,1,0,0:0:0:0:
256,192,116644,1,8,0:0:0:0:
256,192,116819,1,0,0:0:0:0:
256,192,116906,1,0,0:0:0:0:
256,192,116993,1,8,0:0:0:0:
256,192,117081,1,8,0:0:0:0:
256,192,117168,1,0,0:0:0:0:
256,192,117342,1,8,0:0:0:0:
256,192,117517,1,0,0:0:0:0:
256,192,117604,1,8,0:0:0:0:
256,192,117778,1,8,0:0:0:0:
256,192,117865,1,0,0:0:0:0:
256,192,117953,1,8,0:0:0:0:
256,192,118040,1,0,0:0:0:0:
256,192,118214,1,8,0:0:0:0:
256,192,118389,1,0,0:0:0:0:
256,192,118476,1,0,0:0:0:0:
256,192,118563,1,8,0:0:0:0:
256,192,118737,1,0,0:0:0:0:
256,192,118912,1,8,0:0:0:0:
256,192,118999,1,0,0:0:0:0:
256,192,119174,1,0,0:0:0:0:
256,192,119261,1,8,0:0:0:0:
256,192,119435,1,0,0:0:0:0:
256,192,119610,1,8,0:0:0:0:
256,192,119697,1,8,0:0:0:0:
256,192,119784,1,0,0:0:0:0:
256,192,119871,1,0,0:0:0:0:
256,192,119958,1,8,0:0:0:0:
256,192,120133,1,0,0:0:0:0:
256,192,120307,1,8,0:0:0:0:
256,192,120394,1,0,0:0:0:0:
256,192,120482,1,8,0:0:0:0:
256,192,120831,1,0,0:0:0:0:
256,192,121005,1,8,0:0:0:0:
256,192,121179,1,0,0:0:0:0:
256,192,121267,1,0,0:0:0:0:
256,192,121354,1,8,0:0:0:0:
256,192,121528,1,0,0:0:0:0:
256,192,121703,1,8,0:0:0:0:
256,192,121790,1,0,0:0:0:0:
256,192,121964,1,0,0:0:0:0:
256,192,122051,1,8,0:0:0:0:
256,192,122226,1,0,0:0:0:0:
256,192,122400,1,8,0:0:0:0:
256,192,122487,1,8,0:0:0:0:
256,192,122575,1,0,0:0:0:0:
256,192,122662,1,0,0:0:0:0:
256,192,122749,1,8,0:0:0:0:
256,192,122924,1,0,0:0:0:0:
256,192,123098,1,8,0:0:0:0:
256,192,123185,1,0,0:0:0:0:
256,192,123360,1,0,0:0:0:0:
256,192,123447,1,8,0:0:0:0:
256,192,123534,1,0,0:0:0:0:
256,192,123621,1,8,0:0:0:0:
256,192,123796,1,0,0:0:0:0:
256,192,123970,1,8,0:0:0:0:
256,192,124057,1,8,0:0:0:0:
256,192,124144,1,0,0:0:0:0:
256,192,124319,1,8,0:0:0:0:
256,192,124493,1,0,0:0:0:0:
256,192,124581,1,8,0:0:0:0:
256,192,124755,1,8,0:0:0:0:
256,192,124842,1,0,0:0:0:0:
256,192,125017,1,12,0:0:0:0:
256,192,125365,1,12,0:0:0:0:
256,192,125714,1,4,0:0:0:0:
256,192,126063,1,4,0:0:0:0:
256,192,126412,1,12,0:0:0:0:
256,192,126586,1,0,0:0:0:0:
256,192,126761,1,8,0:0:0:0:
256,192,126848,1,8,0:0:0:0:
256,192,126935,1,0,0:0:0:0:
256,192,127110,1,8,0:0:0:0:
256,192,127284,1,0,0:0:0:0:
256,192,127371,1,8,0:0:0:0:
256,192,127546,1,8,0:0:0:0:
256,192,127633,1,0,0:0:0:0:
256,192,127807,1,8,0:0:0:0:
256,192,127982,1,0,0:0:0:0:
256,192,128069,1,8,0:0:0:0:
256,192,128156,1,0,0:0:0:0:
256,192,128243,1,0,0:0:0:0:
256,192,128331,1,8,0:0:0:0:
256,192,128505,1,0,0:0:0:0:
256,192,128679,1,8,0:0:0:0:
256,192,128767,1,0,0:0:0:0:
256,192,128941,1,0,0:0:0:0:
256,192,129028,1,8,0:0:0:0:
256,192,129115,1,8,0:0:0:0:
256,192,129203,1,0,0:0:0:0:
256,192,129377,1,8,0:0:0:0:
256,192,129551,1,0,0:0:0:0:
256,192,129639,1,0,0:0:0:0:
256,192,129726,1,8,0:0:0:0:
256,192,129900,1,0,0:0:0:0:
256,192,130075,1,8,0:0:0:0:
256,192,130162,1,0,0:0:0:0:
256,192,130336,1,0,0:0:0:0:
256,192,130424,1,8,0:0:0:0:
256,192,130598,1,0,0:0:0:0:
256,192,130772,1,8,0:0:0:0:
256,192,130860,1,0,0:0:0:0:
256,192,130947,1,8,0:0:0:0:
256,192,131034,1,8,0:0:0:0:
256,192,131121,1,0,0:0:0:0:
256,192,131296,1,8,0:0:0:0:
256,192,131470,1,0,0:0:0:0:
256,192,131557,1,8,0:0:0:0:
256,192,131644,1,0,0:0:0:0:
256,192,131993,1,0,0:0:0:0:
256,192,132168,1,8,0:0:0:0:
256,192,132342,1,0,0:0:0:0:
256,192,132429,1,0,0:0:0:0:
256,192,132517,1,8,0:0:0:0:
256,192,132691,1,0,0:0:0:0:
256,192,132865,1,8,0:0:0:0:
256,192,132953,1,0,0:0:0:0:
256,192,133127,1,0,0:0:0:0:
256,192,133214,1,8,0:0:0:0:
256,192,133389,1,0,0:0:0:0:
256,192,133563,1,8,0:0:0:0:
256,192,133650,1,0,0:0:0:0:
256,192,133737,1,8,0:0:0:0:
256,192,133825,1,8,0:0:0:0:
256,192,133912,1,0,0:0:0:0:
256,192,134086,1,8,0:0:0:0:
256,192,134261,1,0,0:0:0:0:
256,192,134348,1,8,0:0:0:0:
256,192,134522,1,8,0:0:0:0:
256,192,134610,1,0,0:0:0:0:
256,192,134697,1,0,0:0:0:0:
256,192,134784,1,8,0:0:0:0:
256,192,134958,1,0,0:0:0:0:
256,192,135133,1,8,0:0:0:0:
256,192,135220,1,8,0:0:0:0:
256,192,135307,1,0,0:0:0:0:
256,192,135482,1,8,0:0:0:0:
256,192,135656,1,0,0:0:0:0:
256,192,135743,1,8,0:0:0:0:
256,192,135918,1,8,0:0:0:0:
256,192,136005,1,0,0:0:0:0:
256,192,136179,1,12,0:0:0:0:
256,192,136528,1,4,0:0:0:0:
256,192,136877,1,12,0:0:0:0:
256,192,137051,1,0,0:0:0:0:
256,192,137139,1,0,0:0:0:0:
256,192,137313,1,0,0:0:0:0:
256,192,137400,1,0,0:0:0:0:
256,192,137575,1,12,0:0:0:0:
256,192,137924,8,0,141761,0:0:0:0:
256,192,143156,5,4,0:0:0:0:
256,192,143854,1,8,0:0:0:0:
256,192,144551,1,4,0:0:0:0:
256,192,145075,1,4,0:0:0:0:
256,192,145249,1,8,0:0:0:0:
256,192,145598,1,4,0:0:0:0:
256,192,146644,1,8,0:0:0:0:
256,192,147342,1,4,0:0:0:0:
256,192,148040,1,12,0:0:0:0:
256,192,148737,1,4,0:0:0:0:
256,192,149435,1,8,0:0:0:0:
256,192,150133,1,4,0:0:0:0:
256,192,150656,1,4,0:0:0:0:
256,192,150831,1,8,0:0:0:0:
256,192,151179,1,4,0:0:0:0:
256,192,152226,1,8,0:0:0:0:
256,192,152487,1,0,0:0:0:0:
256,192,152575,1,8,0:0:0:0:
256,192,152749,1,8,0:0:0:0:
256,192,152924,1,4,0:0:0:0:
256,192,153272,1,4,0:0:0:0:
256,192,153621,1,12,0:0:0:0:
256,192,153970,1,12,0:0:0:0:
256,192,154319,1,4,0:0:0:0:
256,192,154668,1,0,0:0:0:0:
256,192,154842,1,8,0:0:0:0:
256,192,155017,1,0,0:0:0:0:
256,192,155104,1,0,0:0:0:0:
256,192,155191,1,8,0:0:0:0:
256,192,155365,1,0,0:0:0:0:
256,192,155714,1,0,0:0:0:0:
256,192,155801,1,8,0:0:0:0:
256,192,156063,1,0,0:0:0:0:
256,192,156237,1,8,0:0:0:0:
256,192,156412,1,8,0:0:0:0:
256,192,156499,1,8,0:0:0:0:
256,192,156586,1,0,0:0:0:0:
256,192,156761,1,0,0:0:0:0:
256,192,156848,1,0,0:0:0:0:
256,192,156935,1,8,0:0:0:0:
256,192,157110,1,0,0:0:0:0:
256,192,157458,1,0,0:0:0:0:
256,192,157633,1,8,0:0:0:0:
256,192,157807,1,0,0:0:0:0:
256,192,157894,1,0,0:0:0:0:
256,192,157982,1,8,0:0:0:0:
256,192,158156,1,0,0:0:0:0:
256,192,158505,1,0,0:0:0:0:
256,192,158592,1,8,0:0:0:0:
256,192,158854,1,0,0:0:0:0:
256,192,159028,1,8,0:0:0:0:
256,192,159203,1,0,0:0:0:0:
256,192,159551,1,8,0:0:0:0:
256,192,159726,1,8,0:0:0:0:
256,192,159813,1,8,0:0:0:0:
256,192,159900,1,0,0:0:0:0:
256,192,160075,1,8,0:0:0:0:
256,192,160162,1,0,0:0:0:0:
256,192,160336,1,8,0:0:0:0:
256,192,160424,1,0,0:0:0:0:
256,192,160598,1,8,0:0:0:0:
256,192,160772,1,0,0:0:0:0:
256,192,160860,1,8,0:0:0:0:
256,192,161034,1,0,0:0:0:0:
256,192,161121,1,8,0:0:0:0:
256,192,161296,1,0,0:0:0:0:
256,192,161470,1,8,0:0:0:0:
256,192,161557,1,0,0:0:0:0:
256,192,161732,1,0,0:0:0:0:
256,192,161819,1,8,0:0:0:0:
256,192,161993,1,8,0:0:0:0:
256,192,162168,1,0,0:0:0:0:
256,192,162255,1,8,0:0:0:0:
256,192,162429,1,8,0:0:0:0:
256,192,162517,1,0,0:0:0:0:
256,192,162691,1,0,0:0:0:0:
256,192,162865,1,8,0:0:0:0:
256,192,162953,1,0,0:0:0:0:
256,192,163040,1,8,0:0:0:0:
256,192,163214,1,0,0:0:0:0:
256,192,163389,1,8,0:0:0:0:
256,192,163476,1,8,0:0:0:0:
256,192,163563,1,0,0:0:0:0:
256,192,163650,1,0,0:0:0:0:
256,192,163737,1,8,0:0:0:0:
256,192,163912,1,8,0:0:0:0:
256,192,164086,1,0,0:0:0:0:
256,192,164435,1,8,0:0:0:0:
256,192,164784,1,8,0:0:0:0:
256,192,164958,1,0,0:0:0:0:
256,192,165133,1,12,0:0:0:0:
256,192,166179,1,4,0:0:0:0:
256,192,166441,1,4,0:0:0:0:
256,192,166703,1,12,0:0:0:0:
256,192,166877,1,0,0:0:0:0:
256,192,167051,1,8,0:0:0:0:
256,192,167139,1,8,0:0:0:0:
256,192,167226,1,0,0:0:0:0:
256,192,167400,1,8,0:0:0:0:
256,192,167575,1,0,0:0:0:0:
256,192,167749,1,0,0:0:0:0:
256,192,167836,1,0,0:0:0:0:
256,192,167924,1,8,0:0:0:0:
256,192,168011,1,8,0:0:0:0:
256,192,168098,1,0,0:0:0:0:
256,192,168272,1,8,0:0:0:0:
256,192,168447,1,0,0:0:0:0:
256,192,168621,1,8,0:0:0:0:
256,192,168708,1,0,0:0:0:0:
256,192,168796,1,8,0:0:0:0:
256,192,168970,1,0,0:0:0:0:
256,192,169144,1,8,0:0:0:0:
256,192,169232,1,0,0:0:0:0:
256,192,169406,1,0,0:0:0:0:
256,192,169493,1,8,0:0:0:0:
256,192,169668,1,0,0:0:0:0:
256,192,169842,1,8,0:0:0:0:
256,192,170017,1,0,0:0:0:0:
256,192,170104,1,8,0:0:0:0:
256,192,170191,1,0,0:0:0:0:
256,192,170365,1,8,0:0:0:0:
256,192,170540,1,0,0:0:0:0:
256,192,170714,1,8,0:0:0:0:
256,192,171063,1,0,0:0:0:0:
256,192,171150,1,0,0:0:0:0:
256,192,171237,1,8,0:0:0:0:
256,192,171412,1,8,0:0:0:0:
256,192,171499,1,8,0:0:0:0:
256,192,171586,1,0,0:0:0:0:
256,192,171761,1,8,0:0:0:0:
256,192,171935,1,0,0:0:0:0:
256,192,172022,1,8,0:0:0:0:
256,192,172197,1,8,0:0:0:0:
256,192,172284,1,0,0:0:0:0:
256,192,172458,1,8,0:0:0:0:
256,192,172633,1,0,0:0:0:0:
256,192,172720,1,8,0:0:0:0:
256,192,172807,1,0,0:0:0:0:
256,192,172982,1,8,0:0:0:0:
256,192,173156,1,8,0:0:0:0:
256,192,173243,1,8,0:0:0:0:
256,192,173331,1,0,0:0:0:0:
256,192,173418,1,0,0:0:0:0:
256,192,173505,1,8,0:0:0:0:
256,192,173679,1,8,0:0:0:0:
256,192,173854,1,4,0:0:0:0:
256,192,174203,1,8,0:0:0:0:
256,192,174290,1,8,0:0:0:0:
256,192,174377,1,0,0:0:0:0:
256,192,174551,1,8,0:0:0:0:
256,192,174726,1,0,0:0:0:0:
256,192,174813,1,8,0:0:0:0:
256,192,174987,1,0,0:0:0:0:
256,192,175075,1,8,0:0:0:0:
256,192,175249,1,4,0:0:0:0:
256,192,175598,1,12,0:0:0:0:
256,192,175947,1,12,0:0:0:0:
256,192,176296,1,4,0:0:0:0:
256,192,177342,1,12,0:0:0:0:
256,192,177517,1,0,0:0:0:0:
256,192,177604,1,8,0:0:0:0:
256,192,177778,1,8,0:0:0:0:
256,192,177865,1,0,0:0:0:0:
256,192,178040,1,8,0:0:0:0:
256,192,178214,1,0,0:0:0:0:
256,192,178301,1,0,0:0:0:0:
256,192,178389,1,8,0:0:0:0:
256,192,178563,1,0,0:0:0:0:
256,192,178737,1,8,0:0:0:0:
256,192,178825,1,8,0:0:0:0:
256,192,178912,1,0,0:0:0:0:
256,192,178999,1,0,0:0:0:0:
256,192,179086,1,8,0:0:0:0:
256,192,179261,1,8,0:0:0:0:
256,192,179435,1,0,0:0:0:0:
256,192,179610,1,8,0:0:0:0:
256,192,179784,1,0,0:0:0:0:
256,192,179871,1,8,0:0:0:0:
256,192,179958,1,0,0:0:0:0:
256,192,180133,1,8,0:0:0:0:
256,192,180307,1,0,0:0:0:0:
256,192,180394,1,8,0:0:0:0:
256,192,180569,1,8,0:0:0:0:
256,192,180656,1,0,0:0:0:0:
256,192,180831,1,8,0:0:0:0:
256,192,181005,1,0,0:0:0:0:
256,192,181092,1,0,0:0:0:0:
256,192,181179,1,8,0:0:0:0:
256,192,181267,1,0,0:0:0:0:
256,192,181354,1,8,0:0:0:0:
256,192,181528,1,0,0:0:0:0:
256,192,182051,1,8,0:0:0:0:
256,192,182139,1,8,0:0:0:0:
256,192,182226,1,0,0:0:0:0:
256,192,182400,1,8,0:0:0:0:
256,192,182575,1,0,0:0:0:0:
256,192,182662,1,0,0:0:0:0:
256,192,182749,1,8,0:0:0:0:
256,192,182924,1,0,0:0:0:0:
256,192,183098,1,8,0:0:0:0:
256,192,183185,1,0,0:0:0:0:
256,192,183360,1,0,0:0:0:0:
256,192,183447,1,8,0:0:0:0:
256,192,183621,1,0,0:0:0:0:
256,192,183796,1,8,0:0:0:0:
256,192,183883,1,0,0:0:0:0:
256,192,183970,1,8,0:0:0:0:
256,192,184144,1,0,0:0:0:0:
256,192,184232,1,0,0:0:0:0:
256,192,184319,1,8,0:0:0:0:
256,192,184406,1,8,0:0:0:0:
256,192,184493,1,0,0:0:0:0:
256,192,184668,1,8,0:0:0:0:
256,192,184842,1,8,0:0:0:0:
256,192,185017,1,4,0:0:0:0:
256,192,185365,1,8,0:0:0:0:
256,192,185540,1,0,0:0:0:0:
256,192,185714,1,8,0:0:0:0:
256,192,185801,1,0,0:0:0:0:
256,192,185889,1,8,0:0:0:0:
256,192,185976,1,8,0:0:0:0:
256,192,186063,1,0,0:0:0:0:
256,192,186237,1,0,0:0:0:0:
256,192,186412,1,12,0:0:0:0:
256,192,187807,5,0,0:0:0:0:
256,192,188505,1,8,0:0:0:0:
256,192,189900,1,8,0:0:0:0:
256,192,191296,1,8,0:0:0:0:
256,192,192691,1,8,0:0:0:0:
256,192,194086,1,8,0:0:0:0:
256,192,195482,1,8,0:0:0:0:
256,192,196877,1,8,0:0:0:0:
256,192,198272,1,8,0:0:0:0:
256,192,198970,1,0,0:0:0:0:
256,192,199319,1,0,0:0:0:0:
256,192,199493,1,0,0:0:0:0:
256,192,199668,1,8,0:0:0:0:
256,192,200017,1,0,0:0:0:0:
256,192,200191,1,0,0:0:0:0:
256,192,201063,1,8,0:0:0:0:
256,192,202458,1,8,0:0:0:0:
256,192,203854,1,8,0:0:0:0:
256,192,204900,1,0,0:0:0:0:
256,192,205075,1,0,0:0:0:0:
256,192,205249,1,8,0:0:0:0:
256,192,205598,1,0,0:0:0:0:
256,192,205772,1,0,0:0:0:0:
256,192,206644,1,8,0:0:0:0:
256,192,208040,1,8,0:0:0:0:
256,192,209435,1,8,0:0:0:0:
256,192,210133,1,0,0:0:0:0:
