osu file format v12

[General]
AudioFilename: Samurai Sentai Shinkenger TV Size.mp3
AudioLeadIn: 0
PreviewTime: 52653
Countdown: 0
SampleSet: Normal
StackLeniency: 0.7
Mode: 1
LetterboxInBreaks: 0
WidescreenStoryboard: 0

[Editor]
DistanceSpacing: 1.1
BeatDivisor: 4
GridSize: 32
TimelineZoom: 1

[Metadata]
Title:Samurai Sentai Shinkenger
TitleUnicode:侍戦隊シンケンジャー
Artist:PSYCHIC LOVER
ArtistUnicode:サイキックラバー
Creator:DakeDekaane
Version:Oni
Source:侍戦隊シンケンジャー
Tags:Super Sentai Series Tokusatsu Opening Toei TV Size
BeatmapID:324180
BeatmapSetID:127897

[Difficulty]
HPDrainRate:6
CircleSize:5
OverallDifficulty:6
ApproachRate:5
SliderMultiplier:1.4
SliderTickRate:1

[Events]
//Background and Video events
0,0,"ShinkengerBGTaiko.jpg",0,20
//Break Periods
//Storyboard Layer 0 (Background)
//Storyboard Layer 1 (Fail)
//Storyboard Layer 2 (Pass)
//Storyboard Layer 3 (Foreground)
//Storyboard Sound Samples
//Background Colour Transformations
3,100,0,0,0

[TimingPoints]
584,344.827586206897,4,1,0,80,1,0
6102,-100,4,1,0,80,0,1
17136,-100,4,1,0,80,0,0
52998,-100,4,1,0,80,0,1
74377,-100,4,1,0,80,0,0
80584,-100,4,1,0,80,0,1
85412,-100,4,1,0,80,0,0

[Colours]
Combo1 : 255,255,0
Combo2 : 255,255,0

[HitObjects]
256,192,6101,5,0,0:0:0:0:
256,192,6273,1,8,0:0:0:0:
256,192,6446,1,0,0:0:0:0:
256,192,6532,1,0,0:0:0:0:
256,192,6618,1,8,0:0:0:0:
256,192,6790,1,0,0:0:0:0:
256,192,6963,1,8,0:0:0:0:
256,192,7308,1,8,0:0:0:0:
256,192,7652,1,0,0:0:0:0:
256,192,7825,1,8,0:0:0:0:
256,192,7997,1,0,0:0:0:0:
256,192,8084,1,0,0:0:0:0:
256,192,8170,1,0,0:0:0:0:
256,192,8342,1,12,0:0:0:0:
256,192,8859,1,0,0:0:0:0:
256,192,9032,1,8,0:0:0:0:
256,192,9204,1,0,0:0:0:0:
256,192,9290,1,0,0:0:0:0:
256,192,9377,1,8,0:0:0:0:
256,192,9549,1,0,0:0:0:0:
256,192,9721,1,8,0:0:0:0:
256,192,10066,1,0,0:0:0:0:
256,192,10239,1,8,0:0:0:0:
256,192,10411,1,0,0:0:0:0:
256,192,10497,1,0,0:0:0:0:
256,192,10584,1,0,0:0:0:0:
256,192,10756,1,8,0:0:0:0:
256,192,11101,1,4,0:0:0:0:
256,192,11618,1,0,0:0:0:0:
256,192,11790,1,0,0:0:0:0:
256,192,11963,1,8,0:0:0:0:
256,192,12135,1,0,0:0:0:0:
256,192,12221,1,0,0:0:0:0:
256,192,12308,1,0,0:0:0:0:
256,192,12480,1,0,0:0:0:0:
256,192,12652,1,0,0:0:0:0:
256,192,12997,1,4,0:0:0:0:
256,192,13342,1,4,0:0:0:0:
256,192,13687,1,12,0:0:0:0:
256,192,14204,2,4,B|512:192|512:192|512:96,1,350
256,192,15411,1,4,0:0:0:0:
256,192,15756,1,12,0:0:0:0:
256,192,15928,1,12,0:0:0:0:
256,192,17135,1,0,0:0:0:0:
256,192,17480,1,8,0:0:0:0:
256,192,17652,1,0,0:0:0:0:
256,192,17997,1,8,0:0:0:0:
256,192,18084,1,8,0:0:0:0:
256,192,18170,1,8,0:0:0:0:
256,192,18342,1,0,0:0:0:0:
256,192,18687,1,8,0:0:0:0:
256,192,18773,1,8,0:0:0:0:
256,192,18859,1,8,0:0:0:0:
256,192,19032,1,0,0:0:0:0:
256,192,19377,1,8,0:0:0:0:
256,192,19894,1,0,0:0:0:0:
256,192,20066,1,0,0:0:0:0:
256,192,20152,1,0,0:0:0:0:
256,192,20239,1,0,0:0:0:0:
256,192,20411,1,0,0:0:0:0:
256,192,20756,1,0,0:0:0:0:
256,192,21101,1,0,0:0:0:0:
256,192,21446,1,8,0:0:0:0:
256,192,21532,1,8,0:0:0:0:
256,192,21618,1,8,0:0:0:0:
256,192,21790,1,8,0:0:0:0:
256,192,21963,1,8,0:0:0:0:
256,192,22049,1,8,0:0:0:0:
256,192,22135,1,8,0:0:0:0:
256,192,22308,1,8,0:0:0:0:
256,192,22480,1,8,0:0:0:0:
256,192,22652,1,0,0:0:0:0:
256,192,22825,1,0,0:0:0:0:
256,192,22911,1,0,0:0:0:0:
256,192,22997,1,0,0:0:0:0:
256,192,23170,1,0,0:0:0:0:
256,192,23515,1,0,0:0:0:0:
256,192,23859,1,0,0:0:0:0:
256,192,24204,1,8,0:0:0:0:
256,192,24290,1,8,0:0:0:0:
256,192,24377,1,8,0:0:0:0:
256,192,24549,1,8,0:0:0:0:
256,192,24721,1,8,0:0:0:0:
256,192,24808,1,8,0:0:0:0:
256,192,24894,1,8,0:0:0:0:
256,192,25066,1,8,0:0:0:0:
256,192,25239,1,8,0:0:0:0:
256,192,25411,1,0,0:0:0:0:
256,192,25756,1,8,0:0:0:0:
256,192,25928,1,0,0:0:0:0:
256,192,26273,1,0,0:0:0:0:
256,192,26446,1,8,0:0:0:0:
256,192,26618,1,0,0:0:0:0:
256,192,26790,1,0,0:0:0:0:
256,192,27135,1,8,0:0:0:0:
256,192,27308,1,0,0:0:0:0:
256,192,27652,1,0,0:0:0:0:
256,192,27825,1,8,0:0:0:0:
256,192,27997,1,0,0:0:0:0:
256,192,28170,1,0,0:0:0:0:
256,192,28515,1,8,0:0:0:0:
256,192,28859,1,0,0:0:0:0:
256,192,29032,1,8,0:0:0:0:
256,192,29204,1,0,0:0:0:0:
256,192,29377,2,0,B|512:192|512:192|512:0,1,420
256,192,30928,1,0,0:0:0:0:
256,192,31101,1,0,0:0:0:0:
256,192,31187,1,0,0:0:0:0:
256,192,31273,1,0,0:0:0:0:
256,192,31446,1,0,0:0:0:0:
256,192,31790,1,0,0:0:0:0:
256,192,31963,1,8,0:0:0:0:
256,192,32135,1,0,0:0:0:0:
256,192,32480,1,8,0:0:0:0:
256,192,32652,1,8,0:0:0:0:
256,192,32825,1,8,0:0:0:0:
256,192,32911,1,8,0:0:0:0:
256,192,32997,1,8,0:0:0:0:
256,192,33170,1,0,0:0:0:0:
256,192,33342,1,8,0:0:0:0:
256,192,33515,1,8,0:0:0:0:
256,192,33687,1,0,0:0:0:0:
256,192,33859,1,0,0:0:0:0:
256,192,33946,1,0,0:0:0:0:
256,192,34032,1,0,0:0:0:0:
256,192,34204,1,0,0:0:0:0:
256,192,34549,1,0,0:0:0:0:
256,192,34721,1,8,0:0:0:0:
256,192,34894,1,0,0:0:0:0:
256,192,35239,1,8,0:0:0:0:
256,192,35411,1,8,0:0:0:0:
256,192,35584,1,8,0:0:0:0:
256,192,35670,1,8,0:0:0:0:
256,192,35756,1,8,0:0:0:0:
256,192,35928,1,0,0:0:0:0:
256,192,36101,1,8,0:0:0:0:
256,192,36273,1,8,0:0:0:0:
256,192,36446,1,0,0:0:0:0:
256,192,36790,1,8,0:0:0:0:
256,192,36963,1,0,0:0:0:0:
256,192,37308,1,0,0:0:0:0:
256,192,37480,1,8,0:0:0:0:
256,192,37652,1,0,0:0:0:0:
256,192,37825,1,0,0:0:0:0:
256,192,38170,1,8,0:0:0:0:
256,192,38342,1,0,0:0:0:0:
256,192,38687,1,0,0:0:0:0:
256,192,38859,1,8,0:0:0:0:
256,192,39032,1,0,0:0:0:0:
256,192,39204,1,0,0:0:0:0:
256,192,39549,1,8,0:0:0:0:
256,192,39894,1,0,0:0:0:0:
256,192,40066,1,8,0:0:0:0:
256,192,40239,1,0,0:0:0:0:
256,192,40411,8,0,41618,0:0:0:0:
256,192,41963,5,0,0:0:0:0:
256,192,42308,1,8,0:0:0:0:
256,192,42652,1,0,0:0:0:0:
256,192,42825,1,0,0:0:0:0:
256,192,42997,1,8,0:0:0:0:
256,192,43342,1,0,0:0:0:0:
256,192,43428,1,0,0:0:0:0:
256,192,43515,1,0,0:0:0:0:
256,192,43687,1,8,0:0:0:0:
256,192,43859,1,0,0:0:0:0:
256,192,44032,1,0,0:0:0:0:
256,192,44118,1,0,0:0:0:0:
256,192,44204,1,0,0:0:0:0:
256,192,44377,1,8,0:0:0:0:
256,192,44549,1,0,0:0:0:0:
256,192,44721,1,0,0:0:0:0:
256,192,45066,1,8,0:0:0:0:
256,192,45411,1,0,0:0:0:0:
256,192,45584,1,0,0:0:0:0:
256,192,45670,1,0,0:0:0:0:
256,192,45756,1,8,0:0:0:0:
256,192,45928,1,0,0:0:0:0:
256,192,46273,1,0,0:0:0:0:
256,192,46446,1,8,0:0:0:0:
256,192,46790,1,8,0:0:0:0:
256,192,46963,1,0,0:0:0:0:
256,192,47308,1,12,0:0:0:0:
256,192,47652,1,0,0:0:0:0:
256,192,47739,1,0,0:0:0:0:
256,192,47825,1,8,0:0:0:0:
256,192,47997,1,8,0:0:0:0:
256,192,48170,1,0,0:0:0:0:
256,192,48342,1,0,0:0:0:0:
256,192,48515,1,8,0:0:0:0:
256,192,48687,1,0,0:0:0:0:
256,192,48773,1,0,0:0:0:0:
256,192,48859,1,0,0:0:0:0:
256,192,49204,1,8,0:0:0:0:
256,192,49377,1,0,0:0:0:0:
256,192,49549,1,0,0:0:0:0:
256,192,49721,1,0,0:0:0:0:
256,192,49808,1,0,0:0:0:0:
256,192,49894,1,8,0:0:0:0:
256,192,50239,1,0,0:0:0:0:
256,192,50584,1,0,0:0:0:0:
256,192,50756,1,8,0:0:0:0:
256,192,51101,1,8,0:0:0:0:
256,192,51446,12,0,52652,0:0:0:0:
256,192,52997,5,0,0:0:0:0:
256,192,53084,1,0,0:0:0:0:
256,192,53170,1,0,0:0:0:0:
256,192,53342,1,8,0:0:0:0:
256,192,53515,1,0,0:0:0:0:
256,192,53601,1,0,0:0:0:0:
256,192,53687,1,0,0:0:0:0:
256,192,53859,1,0,0:0:0:0:
256,192,54032,1,8,0:0:0:0:
256,192,54204,1,0,0:0:0:0:
256,192,54549,1,0,0:0:0:0:
256,192,54721,1,8,0:0:0:0:
256,192,54894,1,0,0:0:0:0:
256,192,54980,1,0,0:0:0:0:
256,192,55066,1,0,0:0:0:0:
256,192,55239,1,8,0:0:0:0:
256,192,55411,1,8,0:0:0:0:
256,192,55756,1,0,0:0:0:0:
256,192,55842,1,0,0:0:0:0:
256,192,55928,1,0,0:0:0:0:
256,192,56101,1,8,0:0:0:0:
256,192,56273,1,0,0:0:0:0:
256,192,56359,1,0,0:0:0:0:
256,192,56446,1,0,0:0:0:0:
256,192,56618,1,0,0:0:0:0:
256,192,56790,1,8,0:0:0:0:
256,192,56963,1,0,0:0:0:0:
256,192,57308,1,0,0:0:0:0:
256,192,57480,1,8,0:0:0:0:
256,192,57652,1,0,0:0:0:0:
256,192,57739,1,0,0:0:0:0:
256,192,57825,1,0,0:0:0:0:
256,192,57997,1,8,0:0:0:0:
256,192,58170,1,8,0:0:0:0:
256,192,58515,1,0,0:0:0:0:
256,192,58687,1,0,0:0:0:0:
256,192,58859,1,8,0:0:0:0:
256,192,59204,1,0,0:0:0:0:
256,192,59377,1,0,0:0:0:0:
256,192,59549,1,8,0:0:0:0:
256,192,59721,1,0,0:0:0:0:
256,192,59894,1,0,0:0:0:0:
256,192,60239,1,8,0:0:0:0:
256,192,60411,1,0,0:0:0:0:
256,192,60756,1,8,0:0:0:0:
256,192,60928,1,8,0:0:0:0:
256,192,61101,1,0,0:0:0:0:
256,192,61273,1,0,0:0:0:0:
256,192,61618,1,8,0:0:0:0:
256,192,61963,1,0,0:0:0:0:
256,192,62135,1,0,0:0:0:0:
256,192,62480,8,0,63687,0:0:0:0:
256,192,64032,5,0,0:0:0:0:
256,192,64118,1,0,0:0:0:0:
256,192,64204,1,0,0:0:0:0:
256,192,64377,1,8,0:0:0:0:
256,192,64549,1,0,0:0:0:0:
256,192,64635,1,0,0:0:0:0:
256,192,64721,1,0,0:0:0:0:
256,192,64894,1,0,0:0:0:0:
256,192,65066,1,8,0:0:0:0:
256,192,65239,1,0,0:0:0:0:
256,192,65584,1,0,0:0:0:0:
256,192,65756,1,8,0:0:0:0:
256,192,65928,1,0,0:0:0:0:
256,192,66015,1,0,0:0:0:0:
256,192,66101,1,0,0:0:0:0:
256,192,66273,1,8,0:0:0:0:
256,192,66446,1,8,0:0:0:0:
256,192,66618,1,0,0:0:0:0:
256,192,66963,1,0,0:0:0:0:
256,192,67135,1,8,0:0:0:0:
256,192,67308,1,0,0:0:0:0:
256,192,67394,1,0,0:0:0:0:
256,192,67480,1,0,0:0:0:0:
256,192,67652,1,0,0:0:0:0:
256,192,67825,1,8,0:0:0:0:
256,192,67997,1,0,0:0:0:0:
256,192,68342,1,0,0:0:0:0:
256,192,68515,1,8,0:0:0:0:
256,192,68687,1,0,0:0:0:0:
256,192,68773,1,0,0:0:0:0:
256,192,68859,1,0,0:0:0:0:
256,192,69032,1,8,0:0:0:0:
256,192,69377,1,12,0:0:0:0:
256,192,69894,1,8,0:0:0:0:
256,192,70066,1,0,0:0:0:0:
256,192,70152,1,0,0:0:0:0:
256,192,70239,1,0,0:0:0:0:
256,192,70411,1,0,0:0:0:0:
256,192,70584,1,8,0:0:0:0:
256,192,70756,1,0,0:0:0:0:
256,192,70928,1,0,0:0:0:0:
256,192,71273,1,8,0:0:0:0:
256,192,71446,1,0,0:0:0:0:
256,192,71790,1,8,0:0:0:0:
256,192,71963,1,8,0:0:0:0:
256,192,72135,1,0,0:0:0:0:
256,192,72308,1,0,0:0:0:0:
256,192,72652,1,8,0:0:0:0:
256,192,72997,1,0,0:0:0:0:
256,192,73170,1,0,0:0:0:0:
256,192,73515,8,0,74549,0:0:0:0:
256,192,74894,5,0,0:0:0:0:
256,192,75239,1,8,0:0:0:0:
256,192,75325,1,8,0:0:0:0:
256,192,75411,1,8,0:0:0:0:
256,192,75584,1,0,0:0:0:0:
256,192,75670,1,0,0:0:0:0:
256,192,75756,1,0,0:0:0:0:
256,192,75928,1,8,0:0:0:0:
256,192,76015,1,8,0:0:0:0:
256,192,76101,1,8,0:0:0:0:
256,192,76273,1,0,0:0:0:0:
256,192,76618,1,0,0:0:0:0:
256,192,76790,1,8,0:0:0:0:
256,192,76963,1,0,0:0:0:0:
256,192,77135,1,0,0:0:0:0:
256,192,77308,1,8,0:0:0:0:
256,192,77394,1,8,0:0:0:0:
256,192,77480,1,8,0:0:0:0:
256,192,77652,1,0,0:0:0:0:
256,192,77997,1,8,0:0:0:0:
256,192,78084,1,8,0:0:0:0:
256,192,78170,1,8,0:0:0:0:
256,192,78342,1,0,0:0:0:0:
256,192,78428,1,0,0:0:0:0:
256,192,78515,1,0,0:0:0:0:
256,192,78687,1,8,0:0:0:0:
256,192,78773,1,8,0:0:0:0:
256,192,78859,1,8,0:0:0:0:
256,192,79032,1,0,0:0:0:0:
256,192,79377,1,0,0:0:0:0:
256,192,79549,1,8,0:0:0:0:
256,192,79721,1,0,0:0:0:0:
256,192,79894,1,0,0:0:0:0:
256,192,80066,1,8,0:0:0:0:
256,192,80152,1,8,0:0:0:0:
256,192,80239,1,8,0:0:0:0:
256,192,80584,1,0,0:0:0:0:
256,192,80756,1,0,0:0:0:0:
256,192,80928,1,8,0:0:0:0:
256,192,81101,1,0,0:0:0:0:
256,192,81187,1,0,0:0:0:0:
256,192,81273,1,0,0:0:0:0:
256,192,81446,1,0,0:0:0:0:
256,192,81618,1,0,0:0:0:0:
256,192,81963,1,4,0:0:0:0:
256,192,82308,1,4,0:0:0:0:
256,192,82652,1,12,0:0:0:0:
256,192,83170,1,12,0:0:0:0:
256,192,83515,1,0,0:0:0:0:
256,192,83687,1,0,0:0:0:0:
256,192,83859,1,0,0:0:0:0:
256,192,84032,1,0,0:0:0:0:
256,192,84377,1,4,0:0:0:0:
256,192,84721,1,12,0:0:0:0:
256,192,84894,1,12,0:0:0:0:
