osu file format v13

[General]
AudioFilename: Samurai Sentai Shinkenger TV Size.mp3
AudioLeadIn: 0
PreviewTime: 52653
Countdown: 0
SampleSet: Normal
StackLeniency: 0.7
Mode: 0
LetterboxInBreaks: 0
WidescreenStoryboard: 0

[Editor]
Bookmarks: 52826,69895,76791
DistanceSpacing: 1
BeatDivisor: 2
GridSize: 4
TimelineZoom: 1

[Metadata]
Title:Samurai Sentai Shinkenger
TitleUnicode:侍戦隊シンケンジャー
Artist:PSYCHIC LOVER
ArtistUnicode:サイキックラバー
Creator:DakeDekaane
Version:Normal
Source:侍戦隊シンケンジャー
Tags:Super Sentai Series Tokusatsu Opening Toei TV Size
BeatmapID:324179
BeatmapSetID:127897

[Difficulty]
HPDrainRate:4
CircleSize:3
OverallDifficulty:4
ApproachRate:5
SliderMultiplier:0.999999999999999
SliderTickRate:2

[Events]
//Background and Video events
0,0,"ShinkengerBG.jpg",0,0
Video,4570,"ShinkengerOP.avi"
//Break Periods
//Storyboard Layer 0 (Background)
//Storyboard Layer 1 (Fail)
//Storyboard Layer 2 (Pass)
//Storyboard Layer 3 (Foreground)
//Storyboard Sound Samples
//Background Colour Transformations
3,100,0,0,0

[TimingPoints]
584,344.827586206897,4,1,0,40,1,0
6101,-100,4,1,0,70,0,0
17136,-100,4,1,0,60,0,0
52308,-100,4,1,0,70,0,0
52998,-100,4,1,0,80,0,1
74894,-100,4,1,0,70,0,0

[Colours]
Combo1 : 255,128,240
Combo2 : 255,32,16
Combo3 : 0,45,255
Combo4 : 240,240,0
Combo5 : 45,190,0

[HitObjects]
256,192,3342,12,0,5411,0:0:0:0:
151,339,6101,6,0,L|249:321,1,99.9999999999999,2|2,0:0|0:0,0:0:0:0:
341,282,6790,1,2,0:0:0:0:
341,282,6963,1,0,0:0:0:0:
383,192,7308,2,0,P|352:128|281:129,1,150,2|2,0:0|0:0,0:0:0:0:
203,192,8170,1,2,0:0:0:0:
46,317,8859,6,0,L|35:217,1,99.9999999999999,2|2,0:0|0:0,0:0:0:0:
66,122,9549,1,2,0:0:0:0:
66,122,9721,1,0,0:0:0:0:
8,40,10066,2,0,P|94:82|183:43,1,200,2|0,0:0|0:0,0:0:0:0:
282,32,11101,1,4,0:0:0:0:
431,40,11618,6,0,L|480:32,2,50,2|0|2,0:2|0:0|0:2,0:0:0:0:
350,99,12308,2,0,P|347:148|321:190,1,99.9999999999999,2|2,0:2|0:2,0:0:0:0:
221,192,12997,1,4,0:0:0:0:
192,288,13342,1,0,0:0:0:0:
277,340,13687,1,2,0:2:0:0:
426,339,14204,2,0,P|501:251|429:161,1,250,4|0,0:0|0:0,0:0:0:0:
332,138,15411,5,2,0:0:0:0:
248,192,15756,2,0,L|198:192,1,50,2|2,0:0|0:0,0:0:0:0:
64,32,17135,5,2,0:2:0:0:
145,157,17652,2,0,L|102:353,2,200,2|2|2,0:0|0:0|0:0,0:0:0:0:
224,96,19377,1,2,0:0:0:0:
369,59,19894,6,0,P|422:109|421:182,1,150,2|2,0:0|0:0,0:0:0:0:
352,256,20756,1,2,0:0:0:0:
273,319,21101,1,2,0:0:0:0:
176,294,21446,1,0,0:0:0:0:
176,294,21618,2,0,L|79:318,2,99.9999999999999,10|2|10,0:2|0:2|0:2,0:0:0:0:
265,340,22652,6,0,P|212:289|213:216,1,150,2|2,0:0|0:0,0:0:0:0:
259,127,23515,1,2,0:0:0:0:
306,38,23859,1,2,0:0:0:0:
395,86,24204,1,0,0:0:0:0:
395,86,24377,2,0,L|480:32,2,99.9999999999999,10|0|10,0:2|0:0|0:2,0:0:0:0:
348,174,25411,5,2,0:0:0:0:
248,182,25756,2,0,L|99:203,1,150,8|0,0:0|0:0,0:0:0:0:
78,300,26618,1,0,0:0:0:0:
78,300,26790,2,0,L|226:278,1,150,2|2,0:0|0:0,0:0:0:0:
297,37,28170,6,0,P|256:56|200:56,1,99.9999999999999,2|8,0:0|0:0,0:0:0:0:
106,86,28859,2,0,L|100:135,1,50,2|0,0:0|0:0,0:0:0:0:
100,237,29377,2,0,B|136:300|220:304|268:244|268:244|312:276|376:268|401:224,1,350,4|8,0:0|0:3,0:0:0:0:
445,134,30928,6,0,P|494:187|494:260,1,150,2|2,0:0|0:0,0:0:0:0:
448,349,31790,1,2,0:0:0:0:
348,342,32135,1,2,0:0:0:0:
256,300,32480,1,0,0:0:0:0:
256,300,32652,2,0,P|206:305|160:288,2,99.9999999999999,10|2|10,0:2|0:2|0:2,0:0:0:0:
340,246,33687,6,0,P|368:178|342:109,1,150,2|2,0:0|0:0,0:0:0:0:
256,59,34549,1,2,0:0:0:0:
156,52,34894,1,2,0:0:0:0:
73,108,35239,1,0,0:0:0:0:
73,108,35411,2,0,P|77:58|60:12,2,99.9999999999999,10|2|10,0:2|0:2|0:2,0:0:0:0:
19,192,36446,5,2,0:0:0:0:
73,275,36790,2,0,L|223:274,1,150,8|0,0:0|0:0,0:0:0:0:
322,268,37652,1,0,0:0:0:0:
322,268,37825,2,0,P|372:213|373:140,1,150,2|2,0:0|0:0,0:0:0:0:
255,325,39204,6,0,P|209:308|161:319,1,99.9999999999999,2|8,0:0|0:0,0:0:0:0:
67,356,39894,2,0,L|54:308,1,50,2|0,0:0|0:0,0:0:0:0:
20,213,40411,2,0,B|60:128|156:160|156:160|252:192|315:97,1,350,4|8,0:0|0:3,0:0:0:0:
218,69,41963,6,0,P|241:162|331:196,1,200,2|2,0:2|0:2,0:0:0:0:
415,144,42997,1,8,0:0:0:0:
504,190,43342,1,2,0:2:0:0:
507,291,43687,1,8,0:0:0:0:
422,344,44032,1,2,0:2:0:0:
334,297,44377,1,8,0:0:0:0:
249,350,44721,6,0,L|149:360,1,99.9999999999999,2|8,0:2|0:0,0:0:0:0:
64,305,45411,1,2,0:2:0:0:
103,212,45756,1,8,0:0:0:0:
103,212,45928,1,2,0:2:0:0:
7,95,46446,6,0,P|42:64|96:58,1,99.9999999999999,8|2,0:0|0:2,0:0:0:0:
141,73,46963,1,4,0:0:0:0:
234,38,47307,1,4,0:0:0:0:
371,99,47825,6,0,L|470:113,2,99.9999999999999,8|2|8,0:0|0:2|0:0,0:0:0:0:
276,131,48859,1,2,0:2:0:0:
181,163,49204,2,0,L|131:155,1,50,8|2,0:0|0:2,0:0:0:0:
8,245,49894,1,2,0:2:0:0:
55,332,50239,6,0,L|205:321,1,150,4|4,0:0|0:0,0:0:0:0:
299,357,51101,1,4,0:0:0:0:
299,357,51446,2,0,P|397:317|324:239,1,250,4|8,0:0|0:0,0:0:0:0:
229,264,52652,1,2,0:0:0:0:
229,264,52997,6,0,L|129:257,1,99.9999999999999,6|8,0:0|0:0,0:0:0:0:
66,335,53687,2,0,L|16:331,1,50,2|0,0:0|0:0,0:0:0:0:
31,232,54204,2,0,P|86:182|99:109,1,150,2|8,0:0|0:0,0:0:0:0:
54,20,55066,1,0,0:0:0:0:
231,111,55756,5,2,0:0:0:0:
330,97,56101,1,8,0:0:0:0:
388,180,56446,2,0,L|338:186,1,50,2|0,0:0|0:0,0:0:0:0:
238,199,56963,2,0,P|155:153|161:58,1,200,2|2,0:0|0:0,0:0:0:0:
407,71,58859,6,0,P|440:136|420:206,1,150,10|0,0:0|0:0,0:0:0:0:
340,146,59721,1,2,0:0:0:0:
340,146,59894,2,0,L|311:293,2,150,2|2|8,0:0|0:0|0:0,0:0:0:0:
310,51,61273,6,0,P|265:32|217:41,2,99.9999999999999,2|8|0,0:0|0:0|0:0,0:0:0:0:
338,94,62135,1,2,0:0:0:0:
340,194,62480,2,0,B|276:257|180:225|180:225|84:193|32:288,1,350,4|2,0:2|0:2,0:0:0:0:
85,372,64032,6,0,P|134:376|181:361,1,99.9999999999999,6|8,0:0|0:0,0:0:0:0:
270,314,64721,2,0,L|319:308,1,50,2|0,0:0|0:0,0:0:0:0:
417,330,65239,2,0,P|391:261|413:191,1,150,2|8,0:0|0:0,0:0:0:0:
476,113,66101,1,0,0:0:0:0:
476,113,66273,1,0,0:0:0:0:
337,57,66790,5,2,0:0:0:0:
265,126,67135,1,8,0:0:0:0:
192,195,67480,2,0,L|142:186,1,50,2|0,0:0|0:0,0:0:0:0:
44,167,67997,2,0,P|3:228|22:298,1,150,2|8,0:0|0:0,0:0:0:0:
63,324,68687,1,2,0:0:0:0:
63,324,69032,2,0,L|162:333,1,99.9999999999999,4|4,0:0|0:0,0:0:0:0:
312,347,69894,6,0,P|285:278|311:210,1,150,10|0,0:0|0:0,0:0:0:0:
409,190,70756,1,2,0:0:0:0:
409,190,70928,2,0,P|435:121|408:53,2,150,2|2|8,0:0|0:0|0:0,0:0:0:0:
338,260,72308,6,0,L|211:249,2,99.9999999999999,2|8|2,0:0|0:0|0:0,0:0:0:0:
388,265,73170,1,0,0:0:0:0:
456,191,73515,6,0,B|256:174|256:174|157:165,1,300,4|0,0:0|0:0,0:0:0:0:
133,262,74894,5,6,0:0:0:0:
232,262,75239,2,0,L|244:310,2,50,0|8|2,0:0|0:0|0:0,0:0:0:0:
184,68,76273,1,6,0:2:0:0:
186,168,76618,2,0,L|137:180,2,50,0|8|0,0:0|0:0|0:0,0:0:0:0:
379,122,77652,5,6,0:0:0:0:
280,122,77997,2,0,L|267:73,2,50,2|8|2,0:0|0:0|0:0,0:0:0:0:
327,315,79032,1,6,0:2:0:0:
326,216,79377,2,4,L|374:203,2,50,0|8|0,0:0|0:0|0:0,0:2:0:0:
81,344,80584,6,0,L|32:352,2,50,2|0|10,0:0|0:0|0:0,0:0:0:0:
162,285,81273,2,0,P|165:236|191:194,1,99.9999999999999,2|10,0:0|0:0,0:0:0:0:
291,192,81963,1,4,0:0:0:0:
320,96,82308,1,0,0:0:0:0:
235,44,82652,1,0,0:0:0:0:
86,45,83170,2,0,P|11:133|83:223,1,250,4|0,0:0|0:0,0:0:0:0:
180,246,84377,5,6,0:0:0:0:
264,192,84721,2,0,L|314:192,1,50,6|6,0:0|0:0,0:0:0:0:
