osu file format v12

[General]
AudioFilename: Samurai Sentai Shinkenger TV Size.mp3
AudioLeadIn: 0
PreviewTime: 52653
Countdown: 0
SampleSet: Normal
StackLeniency: 0.7
Mode: 1
LetterboxInBreaks: 0
WidescreenStoryboard: 0

[Editor]
DistanceSpacing: 1.1
BeatDivisor: 4
GridSize: 32
TimelineZoom: 1

[Metadata]
Title:Samurai Sentai Shinkenger
TitleUnicode:侍戦隊シンケンジャー
Artist:PSYCHIC LOVER
ArtistUnicode:サイキックラバー
Creator:DakeDekaane
Version:Kantan
Source:侍戦隊シンケンジャー
Tags:Super Sentai Series Tokusatsu Opening Toei TV Size
BeatmapID:324177
BeatmapSetID:127897

[Difficulty]
HPDrainRate:3
CircleSize:5
OverallDifficulty:3
ApproachRate:5
SliderMultiplier:1.4
SliderTickRate:1

[Events]
//Background and Video events
0,0,"ShinkengerBGTaiko.jpg",0,20
//Break Periods
//Storyboard Layer 0 (Background)
//Storyboard Layer 1 (Fail)
//Storyboard Layer 2 (Pass)
//Storyboard Layer 3 (Foreground)
//Storyboard Sound Samples
//Background Colour Transformations
3,100,0,0,0

[TimingPoints]
584,344.827586206897,4,1,0,80,1,0
6102,-100,4,1,0,80,0,1
17136,-100,4,1,0,80,0,0
52998,-100,4,1,0,80,0,1
74377,-100,4,1,0,80,0,0
80584,-100,4,1,0,80,0,1
85412,-100,4,1,0,80,0,0

[Colours]
Combo1 : 255,255,0
Combo2 : 255,255,0

[HitObjects]
256,192,6101,5,0,0:0:0:0:
256,192,6790,1,0,0:0:0:0:
256,192,7480,1,0,0:0:0:0:
256,192,8859,1,0,0:0:0:0:
256,192,9549,1,0,0:0:0:0:
256,192,10239,1,8,0:0:0:0:
256,192,11618,1,0,0:0:0:0:
256,192,12308,1,0,0:0:0:0:
256,192,12997,1,4,0:0:0:0:
256,192,13342,1,4,0:0:0:0:
256,192,13687,1,4,0:0:0:0:
256,192,14204,2,4,B|512:192|512:192|512:96,1,350
256,192,15756,1,12,0:0:0:0:
256,192,17135,1,0,0:0:0:0:
256,192,19894,1,0,0:0:0:0:
256,192,21273,1,0,0:0:0:0:
262,191,21963,1,8,0:0:0:0:
262,191,22308,1,8,0:0:0:0:
262,191,22652,1,0,0:0:0:0:
262,191,24032,1,0,0:0:0:0:
262,191,24721,1,8,0:0:0:0:
262,191,25066,1,8,0:0:0:0:
262,191,25411,1,0,0:0:0:0:
262,191,26101,1,0,0:0:0:0:
262,191,26790,1,0,0:0:0:0:
262,191,28170,1,0,0:0:0:0:
262,191,28515,1,0,0:0:0:0:
262,191,28859,1,0,0:0:0:0:
256,192,29377,6,0,B|512:192|512:192|512:0,1,420
256,192,30928,1,0,0:0:0:0:
262,191,32308,1,0,0:0:0:0:
262,191,32997,1,8,0:0:0:0:
262,191,33342,1,8,0:0:0:0:
262,191,33687,1,0,0:0:0:0:
262,191,35066,1,0,0:0:0:0:
262,191,35756,1,8,0:0:0:0:
262,191,36101,1,8,0:0:0:0:
262,191,36446,1,0,0:0:0:0:
262,191,37135,1,0,0:0:0:0:
262,191,37825,1,0,0:0:0:0:
262,191,39204,1,0,0:0:0:0:
262,191,39549,1,0,0:0:0:0:
262,191,39894,1,0,0:0:0:0:
256,192,40411,12,0,41618,0:0:0:0:
256,192,41963,5,0,0:0:0:0:
256,192,42652,1,0,0:0:0:0:
256,192,43342,1,0,0:0:0:0:
256,192,43687,1,0,0:0:0:0:
256,192,44032,1,0,0:0:0:0:
256,192,44721,1,0,0:0:0:0:
256,192,45411,1,0,0:0:0:0:
256,192,46101,1,8,0:0:0:0:
261,193,47825,5,0,0:0:0:0:
261,193,48170,1,0,0:0:0:0:
261,193,48859,1,0,0:0:0:0:
256,192,50239,1,8,0:0:0:0:
256,192,50928,1,8,0:0:0:0:
256,192,51446,12,0,52652,0:0:0:0:
256,192,52997,5,0,0:0:0:0:
256,192,53342,1,0,0:0:0:0:
256,192,53687,1,0,0:0:0:0:
256,192,54377,1,8,0:0:0:0:
256,192,55066,1,8,0:0:0:0:
256,192,55756,1,0,0:0:0:0:
256,192,56101,1,0,0:0:0:0:
256,192,56446,1,0,0:0:0:0:
256,192,57135,1,8,0:0:0:0:
256,192,57825,1,8,0:0:0:0:
256,192,58859,1,0,0:0:0:0:
256,192,59204,1,0,0:0:0:0:
256,192,59894,1,0,0:0:0:0:
256,192,61273,1,0,0:0:0:0:
256,192,61618,1,0,0:0:0:0:
256,192,61963,1,0,0:0:0:0:
256,192,62480,8,0,63687,0:0:0:0:
256,192,64032,5,0,0:0:0:0:
256,192,64377,1,0,0:0:0:0:
256,192,64721,1,0,0:0:0:0:
256,192,65411,1,8,0:0:0:0:
256,192,66101,1,8,0:0:0:0:
256,192,66790,1,0,0:0:0:0:
256,192,67135,1,0,0:0:0:0:
256,192,67480,1,0,0:0:0:0:
256,192,68170,1,8,0:0:0:0:
256,192,68859,1,8,0:0:0:0:
256,192,69894,1,0,0:0:0:0:
256,192,70239,1,0,0:0:0:0:
256,192,70928,1,0,0:0:0:0:
256,192,72308,1,0,0:0:0:0:
256,192,72652,1,0,0:0:0:0:
256,192,72997,1,0,0:0:0:0:
256,192,73515,8,0,74549,0:0:0:0:
256,192,75066,5,0,0:0:0:0:
256,192,75756,1,0,0:0:0:0:
256,192,76446,1,8,0:0:0:0:
256,192,77825,1,0,0:0:0:0:
256,192,78515,1,0,0:0:0:0:
256,192,79204,1,8,0:0:0:0:
256,192,80584,1,0,0:0:0:0:
256,192,81273,1,0,0:0:0:0:
256,192,81963,1,4,0:0:0:0:
256,192,82308,1,4,0:0:0:0:
256,192,82652,1,4,0:0:0:0:
256,192,83170,2,4,B|512:192|512:192|512:96,1,350
256,192,84721,1,12,0:0:0:0:
