osu file format v13

[General]
AudioFilename: Samurai Sentai Shinkenger TV Size.mp3
AudioLeadIn: 0
PreviewTime: 52653
Countdown: 0
SampleSet: Normal
StackLeniency: 0.7
Mode: 0
LetterboxInBreaks: 0
WidescreenStoryboard: 0

[Editor]
DistanceSpacing: 1.2
BeatDivisor: 4
GridSize: 32
TimelineZoom: 1

[Metadata]
Title:Samurai Sentai Shinkenger
TitleUnicode:侍戦隊シンケンジャー
Artist:PSYCHIC LOVER
ArtistUnicode:サイキックラバー
Creator:DakeDekaane
Version:Hard
Source:侍戦隊シンケンジャー
Tags:Super Sentai Series Tokusatsu Opening Toei TV Size
BeatmapID:324175
BeatmapSetID:127897

[Difficulty]
HPDrainRate:6
CircleSize:4
OverallDifficulty:6
ApproachRate:7
SliderMultiplier:1.4
SliderTickRate:2

[Events]
//Background and Video events
0,0,"ShinkengerBG.jpg",0,0
Video,4570,"ShinkengerOP.avi"
//Break Periods
//Storyboard Layer 0 (Background)
//Storyboard Layer 1 (Fail)
//Storyboard Layer 2 (Pass)
//Storyboard Layer 3 (Foreground)
//Storyboard Sound Samples
//Background Colour Transformations
3,100,0,0,0

[TimingPoints]
584,344.827586206897,4,1,0,40,1,0
6101,-100,4,1,0,70,0,0
17136,-100,4,1,0,60,0,0
52308,-100,4,1,0,70,0,0
52998,-100,4,1,0,80,0,1
74894,-100,4,1,0,70,0,0

[Colours]
Combo1 : 255,128,240
Combo2 : 255,32,16
Combo3 : 0,45,255
Combo4 : 240,240,0
Combo5 : 45,190,0

[HitObjects]
256,192,3342,12,0,5411,0:0:0:0:
127,320,6101,6,0,P|195:308|252:346,1,140,2|2,0:0|0:0,0:0:0:0:
404,368,6790,1,2,0:0:0:0:
444,301,6963,1,0,0:0:0:0:
384,160,7308,1,2,0:0:0:0:
373,141,7825,2,0,L|288:128,1,70,2|0,0:0|0:0,0:0:0:0:
261,202,8170,2,0,L|192:192,1,70,2|4,0:0|0:0,0:0:0:0:
128,32,8859,5,2,0:0:0:0:
36,154,9204,2,0,P|31:189|45:222,1,70,2|0,0:0|0:0,0:0:0:0:
117,179,9549,2,0,P|144:200|179:204,1,70,2|0,0:0|0:0,0:0:0:0:
288,96,10066,1,2,0:0:0:0:
303,109,10584,2,0,L|317:178,1,70,2|0,0:0|0:0,0:0:0:0:
320,333,11101,1,4,0:0:0:0:
498,186,11618,5,2,0:2:0:0:
498,186,11790,2,0,P|498:151|480:122,1,70,0|2,0:0|0:2,0:0:0:0:
412,72,12135,1,8,3:0:0:0:
412,72,12308,2,0,L|478:49,2,70,2|8|2,0:2|3:0|0:2,0:0:0:0:
224,32,12997,5,4,0:0:0:0:
307,209,13342,1,0,0:0:0:0:
127,287,13687,2,0,P|74:246|69:178,1,140,2|8,0:2|0:3,0:0:0:0:
160,128,14204,2,0,P|213:169|218:237,1,140,4|0,0:0|0:0,0:0:0:0:
208,328,14721,1,0,0:0:0:0:
287,372,14894,1,0,0:0:0:0:
358,315,15066,1,0,0:0:0:0:
283,180,15411,5,2,0:0:0:0:
384,64,15756,1,2,0:0:0:0:
384,64,15928,1,2,0:0:0:0:
434,209,16273,5,0,0:0:0:0:
434,209,16446,2,0,P|399:201|365:204,1,70,2|0,0:2|0:0,0:0:0:0:
314,280,16790,2,0,P|279:282|245:275,1,70,10|8,0:2|3:0,0:0:0:0:
202,194,17135,1,2,0:2:0:0:
117,36,17652,6,0,P|139:99|101:156,1,140,2|0,0:0|0:0,0:0:0:0:
20,180,18170,1,8,0:0:0:0:
80,238,18342,2,0,L|217:266,1,140,2|0,0:0|0:0,0:0:0:0:
268,332,18859,1,8,0:0:0:0:
342,292,19032,2,0,P|390:242|400:174,1,140,2|2,0:0|0:0,0:0:0:0:
176,54,19894,6,0,P|187:88|210:114,1,70,2|0,0:0|0:0,0:0:0:0:
291,132,20239,1,8,0:0:0:0:
367,95,20411,2,0,P|433:80|493:113,2,140,2|2|2,0:0|0:0|0:0,0:0:0:0:
341,261,21446,5,0,0:0:0:0:
265,312,21618,2,0,L|195:318,1,70,10|0,0:2|0:0,0:0:0:0:
204,220,21963,2,0,L|134:226,1,70,2|0,0:2|0:0,0:0:0:0:
98,316,22308,1,10,0:2:0:0:
34,241,22480,1,2,0:2:0:0:
86,157,22652,6,0,P|118:145|153:144,1,70,2|0,0:0|0:0,0:0:0:0:
237,140,22997,1,8,0:0:0:0:
272,64,23170,2,0,L|409:36,2,140,2|2|2,0:0|0:0|0:0,0:0:0:0:
216,219,24204,5,0,0:2:0:0:
300,254,24377,2,0,P|334:249|363:229,1,70,10|2,0:2|0:2,0:0:0:0:
360,125,24721,2,0,P|321:129|293:149,1,70,0|0,0:2|0:2,0:0:0:0:
423,176,25066,1,10,0:2:0:0:
425,77,25239,1,2,0:2:0:0:
340,27,25411,6,0,L|200:31,1,140,2|8,0:0|0:0,0:0:0:0:
116,41,25928,2,0,P|149:101|135:168,1,140,2|0,0:0|0:0,0:0:0:0:
99,335,26618,1,0,0:0:0:0:
181,349,26790,2,0,P|247:366|308:335,1,140,2|8,0:0|0:0,0:0:0:0:
392,325,27308,2,0,P|359:264|376:198,1,140,2|0,0:0|0:0,0:0:0:0:
447,151,27825,1,10,0:0:0:0:
460,318,28170,6,0,L|320:332,1,140,2|8,0:0|0:0,0:0:0:0:
153,352,28859,1,2,0:0:0:0:
69,340,29032,1,0,0:0:0:0:
80,256,29204,1,8,0:0:0:0:
162,267,29377,2,0,P|229:252|260:192,2,140,4|0|4,0:0|0:0|0:0,0:0:0:0:
31,140,30411,1,0,0:0:0:0:
31,140,30584,2,0,P|60:119|94:112,1,70,8|0,0:3|0:0,0:0:0:0:
177,146,30928,6,0,P|210:138|238:118,1,70,2|0,0:0|0:0,0:0:0:0:
270,40,31273,1,8,0:0:0:0:
352,24,31446,1,2,0:0:0:0:
488,122,31790,1,2,0:0:0:0:
321,102,32135,1,2,0:0:0:0:
476,39,32480,5,0,0:2:0:0:
476,39,32652,2,0,P|442:47|420:73,1,70,10|0,0:2|0:2,0:2:0:0:
413,156,32997,2,0,P|404:223|346:257,1,140,2|10,0:2|0:2,0:2:0:0:
261,256,33515,1,2,0:2:0:0:
192,206,33687,6,0,L|123:218,1,70,2|0,0:0|0:0,0:0:0:0:
42,196,34032,1,8,0:0:0:0:
28,113,34204,1,2,0:0:0:0:
21,280,34549,1,2,0:0:0:0:
108,135,34894,1,2,0:0:0:0:
101,302,35239,5,0,0:2:0:0:
101,302,35411,2,0,L|170:291,1,70,10|0,0:2|0:2,0:0:0:0:
253,303,35756,2,0,P|320:315|375:275,1,140,0|0,0:0|0:2,0:0:0:0:
384,192,36273,1,2,0:2:0:0:
340,120,36446,6,0,P|272:107|217:147,1,140,2|8,0:0|0:0,0:0:0:0:
211,231,36963,2,0,L|142:108,1,140,2|0,0:0|0:0,0:0:0:0:
2,98,37652,1,0,0:0:0:0:
2,98,37825,2,0,L|70:220,1,140,2|8,0:0|0:0,0:0:0:0:
121,286,38342,2,0,P|190:288|239:241,1,140,2|0,0:0|0:0,0:0:0:0:
256,160,38859,1,10,0:0:0:0:
350,19,39204,6,0,P|362:87|418:126,1,140,2|8,0:0|0:0,0:0:0:0:
488,279,39894,1,2,0:0:0:0:
433,342,40066,1,0,0:0:0:0:
352,320,40239,1,8,0:0:0:0:
332,238,40411,2,0,P|269:211|205:237,1,140,4|0,0:0|0:0,0:0:0:0:
164,311,40928,1,8,0:0:0:0:
80,320,41101,2,0,P|25:278|17:210,1,140,4|0,0:0|0:0,0:0:0:0:
54,135,41618,2,0,L|115:102,1,70,8|0,0:3|0:0,0:0:0:0:
158,29,41963,6,0,P|212:139|317:73,1,280,2|2,0:2|0:2,0:0:0:0:
480,32,42997,1,8,0:0:0:0:
379,166,43342,2,0,P|388:235|437:283,1,140,2|8,0:2|0:0,0:0:0:0:
279,342,44032,2,0,L|209:350,1,70,2|0,0:2|0:0,0:0:0:0:
194,267,44377,2,0,L|124:256,1,70,8|0,0:0|0:0,0:0:0:0:
127,159,44721,6,0,P|96:100|121:37,1,140,2|8,0:2|0:0,0:0:0:0:
288,64,45411,2,0,P|319:123|294:186,1,140,2|8,0:2|0:0,0:0:0:0:
216,218,45928,2,0,L|352:248,1,140,2|0,0:2|0:0,0:0:0:0:
353,333,46446,2,0,L|216:302,1,140,8|2,0:0|0:2,0:0:0:0:
134,280,46963,1,4,0:0:0:0:
124,269,47308,6,0,P|165:180|94:111,1,210,4|8,0:0|0:0,0:0:0:0:
12,130,47997,1,0,0:0:0:0:
37,50,48170,2,0,P|67:30|101:27,1,70,2|0,0:2|0:0,0:0:0:0:
173,72,48515,2,0,P|205:83|240:78,1,70,8|2,0:0|0:2,0:0:0:0:
323,27,48859,2,0,P|287:84|309:148,1,140,2|8,0:2|0:0,0:0:0:0:
381,192,49377,1,2,0:2:0:0:
173,360,49894,5,2,0:2:0:0:
173,360,50239,2,0,L|312:352,1,140,4|0,0:0|0:0,0:0:0:0:
386,310,50756,1,4,0:0:0:0:
458,158,51101,1,4,0:0:0:0:
469,325,51446,2,0,P|455:258|396:224,1,140,4|2,0:0|0:0,0:0:0:0:
291,245,51963,2,0,P|313:217|319:183,1,70,8|2,0:0|0:0,0:0:0:0:
299,101,52308,1,8,0:0:0:0:
357,302,52652,1,2,0:0:0:0:
381,72,52997,5,6,0:0:0:0:
381,72,53342,2,0,P|299:101|224:64,1,140,8|2,0:0|0:0,0:0:0:0:
187,30,53859,1,0,0:0:0:0:
32,96,54204,2,0,L|64:256,1,140,2|0,0:0|0:0,0:0:0:0:
99,307,54721,1,8,0:0:0:0:
182,320,54894,1,2,0:0:0:0:
243,262,55066,2,0,P|274:249|309:254,1,70,0|0,0:0|0:0,0:0:0:0:
352,326,55411,2,0,P|320:339|286:334,1,70,8|0,0:0|0:0,0:0:0:0:
163,237,55756,6,0,B|176:199|207:186|207:186|220:116,2,140,2|8|2,0:0|0:0|0:0,0:0:0:0:
140,318,56618,1,0,0:0:0:0:
302,360,56963,2,0,P|365:337|377:271,1,140,2|0,0:0|0:0,0:0:0:0:
350,192,57480,1,8,0:0:0:0:
267,178,57652,2,0,P|203:200|191:266,1,140,2|0,0:0|0:0,0:0:0:0:
219,346,58170,1,8,0:0:0:0:
427,320,58515,5,2,0:0:0:0:
447,110,58859,1,10,0:0:0:0:
256,20,59204,2,0,P|230:44|197:57,1,70,2|0,0:0|0:0,0:0:0:0:
32,32,59721,1,2,0:0:0:0:
32,32,59894,2,0,P|75:85|80:154,1,140,2|8,0:0|0:0,0:0:0:0:
88,245,60411,2,0,P|143:285|212:286,1,140,2|0,0:0|0:0,0:0:0:0:
292,242,60928,1,8,0:0:0:0:
380,67,61273,5,2,0:0:0:0:
205,156,61618,1,8,0:0:0:0:
399,187,61963,1,0,0:0:0:0:
399,187,62135,2,0,P|359:241|292:242,1,140,2|0,0:0|0:2,0:0:0:0:
211,174,62652,6,0,L|142:162,1,70,2|0,0:2|0:0,0:0:0:0:
47,208,62997,2,0,L|58:139,1,70,2|0,0:2|0:0,0:0:0:0:
13,43,63342,2,0,L|81:54,1,70,2|0,0:2|0:0,0:0:0:0:
177,10,63687,2,0,L|165:78,1,70,2|0,0:2|0:0,0:0:0:0:
160,224,64032,6,0,P|224:243|276:200,1,140,6|8,0:0|0:0,0:0:0:0:
288,32,64721,1,2,0:0:0:0:
371,17,64894,1,0,0:0:0:0:
480,144,65239,2,0,L|340:157,1,140,2|0,0:0|0:0,0:0:0:0:
288,224,65756,2,0,L|218:224,1,70,8|2,0:0|0:0,0:0:0:0:
133,224,66101,1,0,0:0:0:0:
175,296,66273,1,0,0:0:0:0:
212,96,66618,1,4,0:0:0:0:
256,32,66790,5,2,0:0:0:0:
256,32,67135,2,0,P|287:91|262:154,1,140,8|2,0:0|0:0,0:0:0:0:
187,192,67652,1,0,0:0:0:0:
36,266,67997,2,0,P|4:206|29:143,1,140,2|0,0:0|0:0,0:0:0:0:
162,166,68515,2,0,P|133:184|99:190,1,70,8|2,0:0|0:0,0:0:0:0:
105,106,68859,1,0,0:0:0:0:
186,85,69032,1,4,0:0:0:0:
201,266,69377,1,4,0:0:0:0:
420,340,69894,6,0,P|410:306|417:272,1,70,10|0,0:0|0:0,0:0:0:0:
472,209,70239,2,0,P|463:175|440:148,1,70,2|0,0:0|0:0,0:0:0:0:
362,118,70584,1,8,0:0:0:0:
281,143,70756,1,2,0:0:0:0:
264,225,70928,2,0,P|205:256|142:231,1,140,2|8,0:0|0:0,0:0:0:0:
149,126,71446,2,0,P|211:100|271:132,1,140,2|0,0:0|0:0,0:0:0:0:
354,196,71963,2,0,P|389:198|421:185,1,70,8|0,0:0|0:0,0:0:0:0:
445,83,72308,5,2,0:0:0:0:
423,291,72652,1,8,0:0:0:0:
288,128,72997,1,2,0:0:0:0:
279,211,73170,1,0,0:0:0:0:
195,201,73342,1,8,0:0:0:0:
204,119,73515,2,0,P|64:34|111:191,1,420,4|0,0:0|0:0,0:0:0:0:
256,256,74894,5,6,0:0:0:0:
395,192,75239,1,0,0:0:0:0:
414,110,75411,1,8,0:0:0:0:
414,110,75584,2,0,P|478:184|427:269,1,210,2|8,0:0|0:0,0:0:0:0:
343,261,76273,5,6,0:2:0:0:
204,356,76618,2,0,L|134:352,1,70,0|8,0:0|0:0,0:0:0:0:
52,372,76963,2,0,P|92:317|85:249,1,140,0|0,0:0|0:0,0:0:0:0:
37,180,77480,1,8,0:0:0:0:
48,96,77652,5,6,0:0:0:0:
211,58,77997,1,2,0:0:0:0:
256,128,78170,1,8,0:0:0:0:
256,128,78342,2,0,L|465:142,1,210,2|8,0:0|0:0,0:0:0:0:
500,227,79032,5,6,0:2:0:0:
336,272,79377,2,0,P|301:272|271:255,1,70,0|8,0:0|0:0,0:0:0:0:
206,309,79721,2,0,P|187:279|188:244,1,70,0|8,0:0|0:0,0:0:0:0:
179,161,80066,2,0,L|145:149,2,35,0|0|8,0:0|0:0|0:0,0:0:0:0:
262,171,80411,1,0,0:0:0:0:
345,181,80584,5,2,0:0:0:0:
345,181,80756,2,0,P|376:166|395:137,1,70,0|10,0:0|0:0,0:0:0:0:
412,55,81101,1,0,0:0:0:0:
412,55,81273,2,0,L|481:63,2,70,2|0|10,0:0|0:0|0:0,0:0:0:0:
245,28,81963,5,4,0:0:0:0:
162,205,82308,1,0,0:0:0:0:
342,283,82652,2,0,P|395:242|400:173,1,140,0|8,0:0|0:3,0:0:0:0:
309,124,83170,2,0,P|256:165|251:233,1,140,4|0,0:0|0:0,0:0:0:0:
261,324,83687,1,0,0:0:0:0:
182,368,83859,1,0,0:0:0:0:
111,311,84032,1,0,0:0:0:0:
186,176,84377,5,6,0:0:0:0:
85,60,84721,1,6,0:0:0:0:
85,60,84894,1,6,0:0:0:0:
