osu file format v13

[General]
AudioFilename: Samurai Sentai Shinkenger TV Size.mp3
AudioLeadIn: 0
PreviewTime: 52653
Countdown: 0
SampleSet: Normal
StackLeniency: 0.7
Mode: 0
LetterboxInBreaks: 0
WidescreenStoryboard: 0

[Editor]
DistanceSpacing: 1
BeatDivisor: 2
GridSize: 4
TimelineZoom: 1

[Metadata]
Title:Samurai Sentai Shinkenger
TitleUnicode:侍戦隊シンケンジャー
Artist:PSYCHIC LOVER
ArtistUnicode:サイキックラバー
Creator:DakeDekaane
Version:Easy
Source:侍戦隊シンケンジャー
Tags:Super Sentai Series Tokusatsu Opening Toei TV Size
BeatmapID:324173
BeatmapSetID:127897

[Difficulty]
HPDrainRate:2
CircleSize:3
OverallDifficulty:2
ApproachRate:3
SliderMultiplier:0.799999999999999
SliderTickRate:2

[Events]
//Background and Video events
0,0,"ShinkengerBG.jpg",0,0
Video,4570,"ShinkengerOP.avi"
//Break Periods
//Storyboard Layer 0 (Background)
//Storyboard Layer 1 (Fail)
//Storyboard Layer 2 (Pass)
//Storyboard Layer 3 (Foreground)
//Storyboard Sound Samples
//Background Colour Transformations
3,100,0,0,0

[TimingPoints]
584,344.827586206897,4,1,0,40,1,0
6101,-100,4,1,0,70,0,0
17136,-100,4,1,0,60,0,0
52308,-100,4,1,0,70,0,0
52998,-100,4,1,0,80,0,1
74894,-100,4,1,0,70,0,0

[Colours]
Combo1 : 255,128,240
Combo2 : 255,32,16
Combo3 : 0,45,255
Combo4 : 240,240,0
Combo5 : 45,190,0

[HitObjects]
256,192,3342,12,2,6101,0:0:0:0:
479,340,7480,2,0,L|438:144,1,200,0|4,0:0|0:0,0:0:0:0:
328,96,8859,5,2,0:0:0:0:
33,44,10239,2,0,L|73:239,1,200,0|4,0:0|0:0,0:0:0:0:
162,320,11618,5,2,0:2:0:0:
300,240,12308,1,2,0:2:0:0:
454,280,12997,2,0,L|449:360,2,79.9999999999999,4|0|2,0:0|0:0|0:2,0:0:0:0:
460,159,14204,2,0,P|398:87|305:107,1,200,4|0,0:0|0:0,0:0:0:0:
256,171,15411,5,2,0:0:0:0:
256,171,15756,1,2,0:0:0:0:
64,320,17135,5,2,0:2:0:0:
139,227,17652,2,0,L|98:72,2,160,2|2|2,0:0|0:0|0:0,0:0:0:0:
192,288,19377,1,2,0:0:0:0:
304,330,19894,6,0,P|398:335|438:250,1,200,2|2,0:0|0:0,0:0:0:0:
415,173,21101,1,2,0:0:0:0:
337,80,21618,2,0,L|258:64,2,79.9999999999999,10|2|10,0:2|0:2|0:2,0:0:0:0:
416,96,22652,6,0,P|475:171|447:264,1,200,2|2,0:0|0:0,0:0:0:0:
379,305,23859,1,2,0:0:0:0:
261,328,24377,2,0,L|182:343,2,79.9999999999999,10|0|10,0:2|0:0|0:2,0:0:0:0:
330,288,25411,5,2,0:0:0:0:
399,248,25756,1,8,0:0:0:0:
379,89,26446,1,8,0:0:0:0:
299,78,26790,2,0,B|264:96|264:96|200:80|155:131,1,160,2|2,0:0|0:0,0:0:0:0:
37,238,28170,6,0,L|21:158,2,79.9999999999999,2|8|2,0:0|0:0|0:0,0:0:0:0:
112,333,29377,2,0,B|138:296|188:289|237:330|237:330|287:371|336:372|365:344,1,280,4|8,0:0|0:3,0:0:0:0:
416,288,30928,6,0,B|460:176|460:176|396:128,1,200,2|2,0:0|0:0,0:0:0:0:
325,91,32135,1,2,0:0:0:0:
205,83,32652,2,0,L|140:35,2,79.9999999999999,10|2|10,0:2|0:2|0:2,0:0:0:0:
269,132,33687,6,0,B|365:203|365:203|336:278,1,200,2|2,0:0|0:0,0:0:0:0:
304,351,34894,1,2,0:0:0:0:
188,319,35411,2,0,L|217:244,2,79.9999999999999,10|2|10,0:2|0:2|0:2,0:0:0:0:
110,340,36446,5,2,0:0:0:0:
39,302,36790,1,8,0:0:0:0:
18,143,37480,1,8,0:0:0:0:
57,73,37825,2,0,B|90:52|90:52|210:84,1,160,2|2,0:0|0:0,0:0:0:0:
324,192,39204,6,0,L|403:200,2,79.9999999999999,2|8|2,0:0|0:0|0:0,0:0:0:0:
204,180,40411,2,0,P|81:180|103:59,1,280,4|8,0:0|0:3,0:0:0:0:
142,130,41963,5,2,0:2:0:0:
24,238,42652,1,2,0:2:0:0:
147,340,43342,2,0,L|226:333,1,79.9999999999999,2|8,0:2|0:0,0:0:0:0:
275,270,44032,2,0,L|354:263,1,79.9999999999999,2|8,0:2|0:0,0:0:0:0:
402,199,44721,6,0,P|370:129|403:59,2,160,2|2|0,0:2|0:2|0:0,0:0:0:0:
499,331,46790,1,2,0:2:0:0:
378,330,47308,6,0,L|178:342,1,200,4|2,0:0|0:2,0:0:0:0:
43,256,48859,2,0,P|20:181|63:116,1,160,2|0,0:2|0:0,0:0:0:0:
220,148,50239,6,0,P|277:160|334:142,1,120,4|4,0:0|0:0,0:0:0:0:
383,79,51101,2,0,P|408:111|413:153,1,79.9999999999999,4|4,0:0|0:0,0:0:0:0:
448,352,52308,1,8,0:0:0:0:
374,320,52652,1,2,0:0:0:0:
300,353,52997,6,0,P|224:367|161:322,1,160,6|2,0:0|0:0,0:0:0:0:
163,162,54377,2,0,L|87:136,2,79.9999999999999,0|8|0,0:0|0:0|0:0,0:0:0:0:
320,194,55756,5,2,0:0:0:0:
399,199,56101,1,8,0:0:0:0:
479,204,56446,1,2,0:0:0:0:
504,46,57135,2,0,L|344:35,1,160,0|0,0:0|0:0,0:0:0:0:
184,24,58515,5,0,0:0:0:0:
41,96,59204,1,2,0:0:0:0:
18,254,59894,2,2,P|42:325|117:328,1,160,2|2,0:0|0:0,0:0:0:0:
256,248,61273,6,0,P|293:261|332:254,2,79.9999999999999,2|8|0,0:0|0:0|0:0,0:0:0:0:
154,185,62480,2,0,P|52:186|116:314,1,280,4|2,0:2|0:2,0:0:0:0:
172,306,64032,6,0,L|328:343,1,160,6|2,0:0|0:0,0:0:0:0:
464,260,65411,2,0,P|466:220|478:182,2,79.9999999999999,0|8|0,0:0|0:0|0:0,0:0:0:0:
342,364,66790,5,2,0:0:0:0:
263,346,67135,1,8,0:0:0:0:
184,328,67480,1,2,0:0:0:0:
27,291,68170,2,0,P|7:216|40:145,1,160,0|0,0:0|0:0,0:0:0:0:
248,266,69894,5,10,0:0:0:0:
327,276,70239,1,2,0:0:0:0:
484,291,70928,2,2,P|504:216|471:145,1,160,2|2,0:0|0:0,0:0:0:0:
314,114,72308,6,0,L|234:123,1,79.9999999999999,2|8,0:0|0:0,0:0:0:0:
156,134,72997,1,2,0:0:0:0:
56,200,73515,2,0,P|53:305|158:291,1,240,4|0,0:0|0:0,0:0:0:0:
213,231,74894,6,0,L|369:199,1,160,6|2,0:0|0:0,0:0:0:0:
217,149,76273,2,0,L|248:305,1,160,6|0,0:2|0:0,0:0:0:0:
299,154,77652,6,0,L|142:185,1,160,6|2,0:0|0:0,0:0:0:0:
295,236,79032,2,0,L|263:79,1,160,6|0,0:2|0:0,0:0:0:0:
64,64,80584,5,2,0:0:0:0:
32,220,81273,1,2,0:0:0:0:
168,304,81963,2,0,L|246:289,2,79.9999999999999,4|0|0,0:0|0:0|0:0,0:0:0:0:
71,232,83170,2,0,P|73:137|156:89,1,200,4|0,0:0|0:0,0:0:0:0:
236,108,84377,5,6,0:0:0:0:
240,112,84721,1,6,0:0:0:0:
