osu file format v9

[General]
AudioFilename: Rewrite.mp3
AudioLeadIn: 2500
PreviewTime: 63627
Countdown: 0
SampleSet: Soft
StackLeniency: 0.7
Mode: 0
LetterboxInBreaks: 1

[Editor]
DistanceSpacing: 1.8
BeatDivisor: 4
GridSize: 8

[Metadata]
Title:Rewrite (Short Ver.)
Artist:PSYCHIC LOVER
Creator:Suzully
Version:Rewrite
Source:Rewrite
Tags:KEY kusano

[Difficulty]
HPDrainRate:8
CircleSize:4
OverallDifficulty:7
ApproachRate:8
SliderMultiplier:1.6
SliderTickRate:1

[Events]
//Background and Video events
Video,-500,"movie.avi"
0,0,"rewrite.jpg"
//Break Periods
2,22209,26652
//Storyboard Layer 0 (Background)
//Storyboard Layer 1 (Fail)
//Storyboard Layer 2 (Pass)
//Storyboard Layer 3 (Foreground)
//Storyboard Sound Samples
//Background Colour Transformations
3,100,163,162,255

[TimingPoints]
436,337.078651685393,4,2,1,85,1,0
1700,-200,4,2,1,85,0,0
5576,-200,4,1,0,65,0,0
5744,-200,4,2,1,85,0,0
21924,-200,4,1,0,65,0,0
27318,-100,4,2,1,85,0,0
36756,-100,4,1,0,75,0,0
38062,-100,4,2,1,85,0,0
58329,-100,4,1,0,65,0,0
59677,-100,4,2,1,85,0,0
62542,-100,4,1,0,55,0,0
62711,-100,4,1,0,65,0,0
62879,-100,4,1,0,75,0,0
63048,-100,4,1,0,85,0,0
63216,-100,4,1,0,95,0,0
63385,-100,4,1,0,100,0,0
63553,-100,4,2,1,85,0,0
65155,-100,4,2,1,100,0,1
65239,-100,4,2,1,90,0,1
86391,-100,4,2,1,90,0,0
88497,-100,4,2,1,40,0,0

[Colours]
Combo1 : 0,128,64
Combo2 : 191,0,0
Combo3 : 0,0,187
Combo4 : 170,170,0

[HitObjects]
104,80,267,1,0
104,80,435,1,2
224,80,941,1,0
304,168,1447,1,0
224,168,1784,2,0,B|64:168,1,160,2|0
336,336,2795,5,0
336,336,3132,2,0,B|432:336|464:256,1,160,2|0
416,192,4143,1,2
416,192,4312,1,0
256,336,4649,6,0,B|256:328|256:328|260:320|260:320|252:320|252:320|260:312|260:312|252:312|252:312|260:304|260:304|252:304|252:304|260:296|260:296|252:296|252:296|260:288|260:288|252:288|252:288|260:280|260:280|252:280|252:280|260:272|260:272|252:272|252:272|260:264|260:264|252:264|252:264|260:256|260:256|252:256|252:256|260:248|260:248|252:248|252:248|260:240|260:240|252:240|252:240|256:232|256:232|256:208,1,240,0|4
448,192,6671,5,2
392,136,6840,1,0
424,64,7009,1,0
344,48,7177,2,0,B|256:24|184:80,1,160,2|0
104,288,8188,5,0
256,344,8525,1,2
408,288,8862,1,0
408,288,9031,1,2
256,192,9537,1,0
256,112,9874,6,0,B|256:24,1,80,4|0
320,240,10548,2,0,B|392:296,1,80,4|0
192,240,11222,2,0,B|120:296,1,80,4|0
176,88,12233,5,0
176,88,12570,2,0,B|256:120|336:88,1,160,2|0
408,56,13582,1,0
408,136,13919,2,0,B|344:200,2,80,2|0|0
472,184,14930,5,2
472,184,15098,2,0,B|472:256|408:296,1,120
344,272,15941,2,0,B|304:256|256:272,1,80,2|0
264,312,16447,2,0,B|176:336|120:256,1,160
184,56,17458,5,2
104,80,17627,1,0
56,144,17795,1,0
40,224,17964,1,2
256,352,18469,5,0
256,352,18638,2,0,B|256:272,1,80,2|0
400,200,19312,2,0,B|400:288,1,80,2|0
328,320,19818,2,0,B|328:200,1,120,2|0
256,192,20492,12,4,22009
216,192,27402,6,0,B|376:192,1,160,4|8
456,192,27907,1,0
408,128,28076,2,0,B|360:160|360:232|416:272,1,160,0|8
456,192,28582,1,0
456,192,28750,2,0,B|272:192,1,160,0|8
160,112,29256,2,0,B|320:112,1,160
296,192,29761,1,8
264,264,29930,5,0
256,280,30014,1,0
248,296,30098,2,0,B|160:328|72:264,1,160,4|8
32,224,30604,1,0
87,166,30773,2,0,B|143:148,2,40
9,151,31110,1,8
32,224,31278,1,0
104,272,31447,6,0,B|200:296|248:208,1,160,0|8
184,160,31952,2,0,B|240:88|336:112,1,160
328,192,32458,2,0,B|328:288,1,80,8|0
328,352,32795,1,4
464,192,33132,5,8
360,128,33301,1,0
464,64,33469,1,0
360,128,33638,2,0,B|304:160|264:128,1,80,0|8
304,64,33975,1,0
224,40,34143,2,0,B|136:8|48:64,1,160,0|8
176,168,34649,6,0,B|272:152|352:240,1,160
336,296,35155,1,8
352,304,35239,1,0
368,312,35323,1,0
384,320,35407,1,0
400,328,35492,2,0,B|472:272|456:168,1,160,4|8
376,176,35997,2,0,B|368:88|456:32,1,160
480,112,36503,6,0,B|296:112,1,160,8|4
160,112,37009,1,4
296,32,37177,1,4
376,176,37346,1,0
96,184,37683,5,4
240,192,37851,1,4
304,320,38020,1,4
288,336,38104,1,0
272,352,38188,6,0,B|184:336|136:240,1,160,4|8
128,184,38694,1,0
176,120,38862,2,0,B|128:88|72:128,1,80
128,184,39200,1,8
240,72,39368,1,0
312,200,39537,2,0,B|288:288|184:288,1,160,0|8
224,192,40042,2,0,B|264:112|360:120,1,160
432,120,40548,2,0,B|416:164|440:224,1,80,8|0
432,280,40885,6,0,B|288:376,1,160,4|8
224,344,41391,1,0
104,296,41559,1,0
208,216,41728,1,0
160,336,41896,1,8
144,208,42065,1,0
256,264,42233,2,0,B|336:296|416:264,1,160,0|8
412,265,42655,1,0
412,265,42739,1,0
448,72,43076,5,0
448,72,43160,1,0
448,72,43244,2,0,B|344:72,1,80,8|0
288,72,43582,1,4
128,192,43919,1,8
400,272,44256,6,0,B|312:272,1,80,4|0
320,272,44509,1,0
320,272,44593,1,8
272,336,44761,2,0,B|224:302|224:230|280:200,1,160,4|0
276,201,45183,1,0
276,201,45267,1,8
352,176,45435,5,0
440,80,45604,1,0
312,104,45773,2,0,B|208:128,1,80,0|8
112,152,46110,6,0,B|176:224|120:328,1,160,4|0
256,352,46615,2,0,B|256:256,1,80,8|0
379,301,46952,2,0,B|336:224|400:152,1,160,4|8
440,224,47458,6,0,B|328:200,1,80,0|0
248,176,47795,1,8
168,264,47964,1,8
168,264,48048,1,0
168,264,48132,1,8
64,208,48301,1,8
248,56,48638,1,8
440,224,48975,5,4
440,224,49059,1,0
440,224,49143,1,0
329,294,49312,1,8
297,172,49480,1,0
191,252,49649,1,0
161,122,49818,5,0
250,299,49986,1,8
440,224,50155,1,0
297,172,50323,6,0,B|232:232|120:200,1,160,0|8
161,122,50829,2,0,B|256:136|304:64,1,160
424,88,51334,2,0,B|344:128,2,80,8|0|4
456,216,51840,6,0,B|416:256|360:248,1,80,0|8
232,232,52177,1,0
312,216,52346,1,0
288,296,52514,2,0,B|248:336|184:320,1,80,0|8
160,272,52851,5,0
384,176,53020,1,0
377,96,53188,6,0,B|336:96|312:136,1,80,0|8
312,216,53525,2,0,B|208:216|200:104,1,160
128,88,54031,2,0,B|80:80|32:112,2,80,8|0|4
136,168,54537,5,0
72,216,54705,1,8
144,248,54874,1,0
144,248,54958,1,0
144,248,55042,1,4
208,200,55211,5,0
248,304,55379,1,8
136,296,55548,1,0
136,296,55632,1,0
136,296,55716,1,4
240,248,55885,5,0
184,344,56053,1,8
296,352,56222,1,4
440,176,56559,5,0
336,136,56728,1,8
424,64,56896,1,0
424,64,56980,1,0
424,64,57065,2,0,B|264:64,1,160,4|8
88,320,57739,2,0,B|248:320,1,160,4|8
216,152,58413,6,0,B|264:112|336:136,2,106.666666666667
200,200,58975,1,0
184,248,59087,2,0,B|136:280,3,53.3333333333333
296,264,59593,5,0
296,264,59761,2,0,B|384:264,1,80,4|0
416,192,60098,2,0,B|328:192,1,80,8|0
256,192,60435,1,0
200,136,60604,2,0,B|104:136|80:232,1,160
256,192,61110,1,4
288,120,61278,6,0,B|312:80|368:80,1,80,0|8
360,160,61615,2,0,B|400:160|432:192,1,80
368,240,61952,2,0,B|344:320|232:312,1,160
256,192,62458,1,4
176,192,62627,6,0,B|96:192,2,80,0|0|0
216,120,63132,2,0,B|152:48,2,80,0|0|0
256,192,63638,5,0
256,192,63806,2,4,B|352:216|416:128,1,160,4|0
465,31,64312,2,0,B|368:24|336:104,1,160,4|0
393,180,64818,2,0,B|432:152|480:176,1,80,4|0
440,248,65155,6,0,B|400:328|280:320,1,160,4|8
232,304,65660,1,0
176,240,65829,2,0,B|80:232|32:312,2,160,0|8|0
176,240,66671,1,0
232,304,66840,1,8
288,248,67009,5,0
344,192,67177,2,0,B|512:192,1,160,0|8
472,264,67683,2,0,B|392:216|416:104,1,160,4|0
376,56,68188,2,0,B|416:32,2,40,8|0|0
296,80,68525,2,0,B|296:184|176:208,1,160,4|8
200,120,69031,5,0
200,120,69115,1,0
200,120,69200,2,0,B|296:144|296:264,1,160,0|8
264,312,69705,2,0,B|168:312,1,80
208,232,70042,5,0
344,312,70211,1,8
456,200,70379,1,0
416,272,70548,6,0,B|464:312,2,40,4|0|0
456,200,70885,1,8
424,128,71053,1,0
352,168,71222,2,0,B|304:176|256:128,1,80
336,88,71559,2,0,B|360:48|416:48,1,80,8|0
424,128,71896,6,0,B|456:224|360:288,1,160,4|8
224,312,72402,2,0,B|192:216|288:152,1,160,4|0
424,128,72907,5,8
436,144,72992,1,0
444,160,73076,1,0
448,180,73160,1,0
448,200,73244,2,0,B|392:264|280:240,1,160,4|8
248,184,73750,1,0
128,144,73919,5,4
224,64,74087,1,0
248,184,74256,1,8
248,184,74340,1,0
248,184,74424,2,0,B|224:272|112:288,1,160,4|0
128,144,74930,5,8
224,64,75098,1,0
328,136,75267,2,0,B|368:152|416:136,1,80
368,72,75604,5,8
368,104,75688,1,0
368,136,75773,1,0
368,168,75857,1,0
368,200,75941,2,0,B|368:288|272:328,1,160,4|8
216,280,76447,1,0
144,240,76615,2,0,B|56:240,1,80
216,280,76952,2,0,B|304:280,1,80,8|0
216,192,77289,6,0,B|216:88|96:64,1,160,4|8
120,152,77795,1,0
120,152,77879,1,0
120,152,77964,2,0,B|208:144|248:40,1,160,4|8
320,48,78469,1,4
400,64,78638,5,0
400,64,78722,1,0
400,64,78806,1,0
320,144,78975,1,12
432,168,79143,1,0
400,64,79312,5,4
456,216,79480,1,0
320,304,79649,1,12
224,176,79818,6,0,B|392:176,1,160,4|0
464,176,80323,2,0,B|464:272,2,80,8|0|0
400,64,80829,5,0
296,160,80997,1,12
192,256,81166,1,0
88,352,81334,6,0,B|32:272|104:176,1,160,4|8
144,144,81840,1,0
168,224,82009,2,0,B|264:232|304:144,1,160,0|8
336,80,82514,2,0,B|392:96|400:160,1,80,0|4
408,216,82851,5,0
408,240,82935,1,0
408,264,83020,1,8
320,256,83188,1,0
312,280,83273,1,0
304,304,83357,1,8
224,264,83525,1,0
208,280,83610,1,0
192,296,83694,1,8
176,312,83778,1,0
160,328,83862,1,4
256,192,84200,12,8,86391
208,96,86728,5,4
328,72,86896,1,0
416,152,87065,1,0
296,160,87233,1,0
296,160,87318,1,0
296,160,87402,2,0,B|224:240,2,80,4|0|0
128,184,87907,5,4
168,320,88076,1,0
304,264,88244,1,0
304,264,88329,1,0
304,264,88413,1,4
160,248,88582,1,4
