osu file format v11

[General]
AudioFilename: Nightcore- A Gangnam Style Hurly Burly.mp3
AudioLeadIn: 0
PreviewTime: -1
Countdown: 1
SampleSet: None
StackLeniency: 0.7
Mode: 1
LetterboxInBreaks: 1

[Editor]
DistanceSpacing: 1
BeatDivisor: 4
GridSize: 8

[Metadata]
Title:A Gangnam Style Hurly Burly (Nightcore Mix)
TitleUnicode:A Gangnam Style Hurly Burly (Nightcore Mix)
Artist:PSY vs. Perfume
ArtistUnicode:PSY vs. Perfume
Creator:MeGl
Version:TaikoJkeee
Source:
Tags:psy perfume wolfjkeee
BeatmapID:213361
BeatmapSetID:75536

[Difficulty]
HPDrainRate:2
CircleSize:3
OverallDifficulty:2
ApproachRate:6
SliderMultiplier:1.4
SliderTickRate:1

[Events]
//Background and Video events
0,0,"taikobg.png"
//Break Periods
2,123144,123788
//Storyboard Layer 0 (Background)
//Storyboard Layer 1 (Fail)
//Storyboard Layer 2 (Pass)
//Storyboard Layer 3 (Foreground)
//Storyboard Sound Samples
//Background Colour Transformations
3,100,163,162,255

[TimingPoints]
1740,378.76396692128,4,1,0,100,1,0
57797,-100,4,1,0,100,0,1
82046,-100,4,1,0,100,0,0
125974,-100,4,1,0,100,0,1
150223,-100,4,1,0,100,0,0
162335,-100,4,1,0,100,0,1
188091,-100,4,1,0,100,0,0

[Colours]
Combo1 : 0,128,255
Combo2 : 255,64,69

[HitObjects]
120,48,1740,69,0,0:0:0
192,48,1929,1,0,0:0:0
264,48,2118,5,8,0:0:0
336,48,2308,5,0,0:0:0
408,48,2497,1,0,0:0:0
408,120,2686,1,0,0:0:0
336,120,2876,5,8,0:0:0
264,120,3065,5,0,0:0:0
192,120,3255,1,0,0:0:0
120,120,3444,1,0,0:0:0
120,192,3633,5,8,0:0:0
192,192,3823,5,0,0:0:0
264,192,4012,5,8,0:0:0
336,192,4201,5,0,0:0:0
408,192,4391,5,8,0:0:0
408,264,4580,5,0,0:0:0
336,264,4770,1,0,0:0:0
264,264,4959,1,0,0:0:0
192,264,5148,5,8,0:0:0
120,264,5338,5,0,0:0:0
120,192,5527,1,0,0:0:0
192,192,5717,1,0,0:0:0
264,192,5906,5,8,0:0:0
336,192,6095,5,0,0:0:0
408,192,6285,1,0,0:0:0
408,120,6474,1,0,0:0:0
336,120,6663,5,8,0:0:0
264,120,6853,5,0,0:0:0
192,120,7042,5,8,0:0:0
120,120,7232,5,0,0:0:0
120,48,7421,5,8,0:0:0
192,48,7610,5,0,0:0:0
264,48,7800,1,0,0:0:0
336,48,7989,1,0,0:0:0
408,48,8178,5,8,0:0:0
408,120,8368,5,0,0:0:0
336,120,8557,1,0,0:0:0
264,120,8747,5,8,0:0:0
192,120,8936,1,8,0:0:0
122,117,9125,5,0,0:0:0
120,192,9315,1,0,0:0:0
192,192,9504,1,0,0:0:0
264,192,9694,5,8,0:0:0
336,192,9883,5,0,0:0:0
408,192,10072,5,8,0:0:0
408,264,10262,5,0,0:0:0
336,264,10451,5,8,0:0:0
264,264,10640,5,0,0:0:0
192,264,10830,1,0,0:0:0
120,264,11019,1,0,0:0:0
120,192,11209,5,8,0:0:0
192,192,11398,5,0,0:0:0
264,192,11587,1,0,0:0:0
336,192,11777,5,8,0:0:0
408,192,11966,1,8,0:0:0
408,120,12156,1,8,0:0:0
336,120,12345,5,0,0:0:0
232,120,12629,1,0,0:0:0
128,120,12913,1,0,0:0:0
128,192,13102,5,8,0:0:0
232,192,13386,1,8,0:0:0
336,192,13671,1,8,0:0:0
408,192,13860,1,8,0:0:0
408,264,14049,5,0,0:0:0
376,264,14144,1,0,0:0:0
344,264,14239,5,8,0:0:0
272,272,14428,5,0,0:0:0
200,272,14617,5,8,0:0:0
128,272,14807,5,0,0:0:0
128,240,14902,1,0,0:0:0
128,208,14996,5,8,0:0:0
200,208,15186,5,0,0:0:0
272,208,15375,5,8,0:0:0
304,208,15470,5,0,0:0:0
336,208,15564,1,0,0:0:0
368,208,15659,1,0,0:0:0
400,208,15754,5,8,0:0:0
408,136,15943,5,0,0:0:0
336,136,16133,5,8,0:0:0
304,136,16227,1,8,0:0:0
272,136,16322,5,0,0:0:0
200,136,16511,5,8,0:0:0
168,136,16606,1,8,0:0:0
136,136,16701,5,0,0:0:0
128,64,16890,5,8,0:0:0
200,64,17079,5,0,0:0:0
232,64,17174,1,0,0:0:0
264,64,17269,5,8,0:0:0
336,64,17458,5,0,0:0:0
408,64,17648,5,8,0:0:0
408,96,17742,5,0,0:0:0
408,128,17837,1,0,0:0:0
336,128,18026,5,8,0:0:0
264,128,18216,5,0,0:0:0
192,128,18405,5,8,0:0:0
160,128,18500,1,8,0:0:0
128,128,18594,5,0,0:0:0
128,160,18689,1,0,0:0:0
128,192,18784,5,8,0:0:0
160,192,18879,1,8,0:0:0
192,192,18973,5,0,0:0:0
224,192,19068,1,0,0:0:0
256,192,19163,5,8,0:0:0
328,192,19352,5,0,0:0:0
400,192,19541,5,8,0:0:0
400,264,19731,1,8,0:0:0
328,264,19920,5,0,0:0:0
256,264,20110,5,8,0:0:0
224,264,20204,1,8,0:0:0
192,264,20299,5,0,0:0:0
120,264,20488,1,0,0:0:0
120,232,20583,5,8,0:0:0
120,200,20678,5,0,0:0:0
192,200,20867,1,0,0:0:0
264,200,21056,5,8,0:0:0
336,200,21246,5,0,0:0:0
408,200,21435,5,8,0:0:0
408,168,21530,5,0,0:0:0
408,136,21625,1,0,0:0:0
376,136,21719,1,0,0:0:0
344,136,21814,5,8,0:0:0
312,136,21909,5,0,0:0:0
280,136,22003,1,0,0:0:0
248,136,22098,1,0,0:0:0
216,136,22193,5,8,0:0:0
144,136,22382,5,0,0:0:0
144,208,22572,5,8,0:0:0
216,208,22761,1,8,0:0:0
288,208,22950,5,0,0:0:0
272,72,23329,5,8,0:0:0
432,336,23708,1,8,0:0:0
360,336,23897,5,0,0:0:0
288,336,24087,5,8,0:0:0
216,336,24276,5,0,0:0:0
144,336,24465,1,0,0:0:0
144,232,24749,1,0,0:0:0
248,232,25033,1,0,0:0:0
320,232,25223,5,8,0:0:0
424,232,25507,1,8,0:0:0
424,128,25791,1,8,0:0:0
352,128,25980,1,8,0:0:0
280,128,26170,1,0,0:0:0
248,128,26264,5,0,0:0:0
216,128,26359,5,8,0:0:0
184,128,26454,1,8,0:0:0
152,128,26549,1,8,0:0:0
120,128,26643,1,8,0:0:0
120,160,26738,5,0,0:0:0
120,232,26927,1,0,0:0:0
192,232,27117,5,8,0:0:0
264,232,27306,5,0,0:0:0
336,232,27495,5,8,0:0:0
408,232,27685,5,0,0:0:0
408,264,27780,1,0,0:0:0
408,296,27874,5,8,0:0:0
336,304,28064,5,0,0:0:0
264,304,28253,5,8,0:0:0
192,304,28442,5,0,0:0:0
160,304,28537,5,8,0:0:0
128,304,28632,5,0,0:0:0
120,232,28821,1,0,0:0:0
192,232,29011,5,8,0:0:0
224,232,29105,1,8,0:0:0
256,232,29200,5,0,0:0:0
288,232,29295,1,0,0:0:0
320,232,29389,5,8,0:0:0
392,232,29579,5,0,0:0:0
392,160,29768,5,8,0:0:0
320,160,29957,5,0,0:0:0
288,160,30052,1,0,0:0:0
256,160,30147,5,8,0:0:0
184,160,30336,5,0,0:0:0
112,160,30526,5,8,0:0:0
112,88,30715,5,0,0:0:0
144,88,30810,5,8,0:0:0
176,88,30904,5,0,0:0:0
248,88,31094,1,0,0:0:0
320,88,31283,5,8,0:0:0
392,88,31472,5,0,0:0:0
392,120,31567,1,0,0:0:0
392,152,31662,5,8,0:0:0
320,152,31851,1,8,0:0:0
248,152,32041,1,8,0:0:0
216,152,32135,1,8,0:0:0
184,152,32230,5,0,0:0:0
152,152,32325,1,0,0:0:0
120,152,32419,5,8,0:0:0
120,184,32514,1,8,0:0:0
120,216,32609,1,8,0:0:0
152,216,32703,1,8,0:0:0
184,216,32798,5,0,0:0:0
256,216,32988,5,8,0:0:0
328,216,33177,1,8,0:0:0
400,216,33366,5,0,0:0:0
400,288,33556,5,8,0:0:0
328,288,33745,5,0,0:0:0
296,288,33840,1,0,0:0:0
264,288,33934,5,8,0:0:0
232,288,34029,5,0,0:0:0
200,288,34124,5,8,0:0:0
128,288,34313,1,8,0:0:0
128,216,34503,5,0,0:0:0
160,216,34597,1,0,0:0:0
192,216,34692,5,8,0:0:0
264,216,34881,5,0,0:0:0
336,216,35071,5,8,0:0:0
408,216,35260,5,0,0:0:0
408,184,35355,1,0,0:0:0
408,152,35449,5,8,0:0:0
376,152,35544,1,8,0:0:0
344,152,35639,5,0,0:0:0
312,152,35734,1,0,0:0:0
280,152,35828,5,8,0:0:0
208,152,36018,1,0,0:0:0
136,152,36207,1,8,0:0:0
64,152,36396,1,8,0:0:0
64,80,36586,5,0,0:0:0
168,80,36870,1,0,0:0:0
272,80,37154,1,0,0:0:0
344,80,37343,5,8,0:0:0
448,80,37627,1,8,0:0:0
448,184,37911,1,8,0:0:0
376,184,38101,5,0,0:0:0
304,184,38290,5,8,0:0:0
272,184,38385,1,8,0:0:0
240,184,38480,5,0,0:0:0
168,184,38669,5,8,0:0:0
96,184,38858,5,0,0:0:0
96,256,39048,5,8,0:0:0
128,256,39142,1,8,0:0:0
160,256,39237,5,0,0:0:0
232,256,39427,5,8,0:0:0
304,256,39616,5,0,0:0:0
336,256,39711,5,8,0:0:0
368,256,39805,1,8,0:0:0
400,256,39900,1,8,0:0:0
400,224,39995,5,0,0:0:0
400,152,40184,5,8,0:0:0
368,152,40279,1,8,0:0:0
336,152,40373,5,0,0:0:0
264,152,40563,5,8,0:0:0
232,152,40657,1,8,0:0:0
200,152,40752,1,8,0:0:0
128,152,40942,5,0,0:0:0
128,80,41131,5,8,0:0:0
200,80,41320,5,0,0:0:0
232,80,41415,5,8,0:0:0
264,80,41510,5,0,0:0:0
336,80,41699,5,8,0:0:0
408,80,41888,5,0,0:0:0
408,152,42078,1,0,0:0:0
376,152,42173,1,0,0:0:0
344,152,42267,5,8,0:0:0
312,152,42362,1,8,0:0:0
280,152,42457,5,0,0:0:0
208,152,42646,1,0,0:0:0
136,152,42835,1,0,0:0:0
104,152,42930,5,8,0:0:0
104,184,43025,1,8,0:0:0
104,256,43214,1,8,0:0:0
136,256,43309,1,8,0:0:0
168,256,43404,1,8,0:0:0
240,256,43593,1,8,0:0:0
272,256,43688,5,0,0:0:0
304,256,43782,5,8,0:0:0
376,256,43972,5,0,0:0:0
448,256,44161,5,8,0:0:0
448,184,44350,5,0,0:0:0
416,184,44445,5,8,0:0:0
384,184,44540,5,0,0:0:0
312,184,44729,5,8,0:0:0
240,184,44919,5,0,0:0:0
208,184,45013,5,8,0:0:0
176,184,45108,1,8,0:0:0
144,184,45202,1,8,0:0:0
112,184,45297,5,0,0:0:0
112,152,45392,5,8,0:0:0
112,120,45486,1,8,0:0:0
144,120,45581,1,8,0:0:0
176,120,45676,5,0,0:0:0
248,120,45866,1,0,0:0:0
280,120,45960,5,8,0:0:0
312,120,46055,5,0,0:0:0
384,120,46244,1,0,0:0:0
456,120,46434,5,8,0:0:0
456,152,46528,1,8,0:0:0
456,184,46623,5,0,0:0:0
384,184,46812,5,8,0:0:0
312,184,47002,5,0,0:0:0
240,184,47191,5,8,0:0:0
168,184,47381,1,8,0:0:0
136,184,47475,1,8,0:0:0
104,184,47570,1,8,0:0:0
104,256,47759,5,0,0:0:0
136,256,47854,1,0,0:0:0
168,256,47949,5,8,0:0:0
240,256,48138,5,0,0:0:0
272,256,48233,1,0,0:0:0
304,256,48327,5,8,0:0:0
336,256,48422,5,0,0:0:0
368,256,48517,1,0,0:0:0
400,256,48612,1,0,0:0:0
400,224,48706,5,8,0:0:0
400,152,48896,5,0,0:0:0
368,152,48990,1,0,0:0:0
336,152,49085,1,0,0:0:0
264,152,49274,5,8,0:0:0
232,152,49369,5,0,0:0:0
200,152,49464,1,0,0:0:0
128,152,49653,1,0,0:0:0
128,80,49843,5,8,0:0:0
200,80,50032,5,0,0:0:0
272,80,50221,5,8,0:0:0
344,80,50411,1,8,0:0:0
376,80,50505,1,8,0:0:0
408,80,50600,5,0,0:0:0
408,152,50789,5,8,0:0:0
336,152,50979,1,8,0:0:0
264,152,51168,5,0,0:0:0
232,152,51263,5,8,0:0:0
200,152,51358,1,8,0:0:0
128,152,51547,5,0,0:0:0
128,224,51736,5,8,0:0:0
272,224,52115,1,8,0:0:0
416,224,52494,1,8,0:0:0
416,80,52873,1,8,0:0:0
280,80,53251,1,8,0:0:0
208,80,53441,1,8,0:0:0
136,80,53630,1,8,0:0:0
64,80,53820,1,8,0:0:0
64,152,54009,1,8,0:0:0
96,152,54104,1,8,0:0:0
128,152,54198,1,8,0:0:0
160,152,54293,1,8,0:0:0
192,152,54388,1,8,0:0:0
224,152,54482,1,8,0:0:0
256,152,54577,1,8,0:0:0
288,152,54672,1,8,0:0:0
320,152,54766,1,8,0:0:0
40,40,56660,1,8,0:0:0
112,40,56850,5,0,0:0:0
184,40,57039,5,8,0:0:0
256,40,57228,5,0,0:0:0
288,40,57323,1,0,0:0:0
320,40,57418,5,8,0:0:0
352,40,57512,1,8,0:0:0
384,40,57607,1,8,0:0:0
416,40,57702,1,8,0:0:0
448,40,57797,5,0,0:0:0
456,144,58081,1,0,0:0:0
424,144,58175,5,8,0:0:0
352,144,58365,5,0,0:0:0
320,144,58459,1,0,0:0:0
288,144,58554,1,0,0:0:0
256,144,58649,5,8,0:0:0
224,144,58743,5,0,0:0:0
192,144,58838,1,0,0:0:0
160,144,58933,5,8,0:0:0
88,144,59122,1,8,0:0:0
88,216,59312,5,0,0:0:0
160,216,59501,5,8,0:0:0
192,216,59596,1,8,0:0:0
224,216,59690,5,0,0:0:0
296,216,59880,1,0,0:0:0
368,216,60069,5,8,0:0:0
400,216,60164,1,8,0:0:0
432,216,60259,5,0,0:0:0
432,248,60353,5,8,0:0:0
432,280,60448,1,8,0:0:0
360,280,60637,5,0,0:0:0
288,280,60827,5,8,0:0:0
216,280,61016,5,0,0:0:0
184,280,61111,1,0,0:0:0
152,280,61205,1,0,0:0:0
80,280,61395,5,8,0:0:0
80,208,61584,5,0,0:0:0
112,208,61679,1,0,0:0:0
144,208,61774,1,0,0:0:0
176,208,61868,1,0,0:0:0
208,208,61963,5,8,0:0:0
280,208,62152,5,0,0:0:0
352,208,62342,5,8,0:0:0
456,208,62626,5,0,0:0:0
456,176,62720,5,8,0:0:0
456,104,62910,5,0,0:0:0
384,104,63099,5,8,0:0:0
352,104,63194,1,8,0:0:0
320,104,63289,1,8,0:0:0
288,104,63383,5,0,0:0:0
256,104,63478,5,8,0:0:0
184,104,63667,5,0,0:0:0
112,104,63857,5,8,0:0:0
112,208,64141,5,0,0:0:0
144,208,64236,5,8,0:0:0
216,208,64425,5,0,0:0:0
248,208,64520,1,0,0:0:0
280,208,64614,5,8,0:0:0
312,208,64709,1,8,0:0:0
344,208,64804,1,8,0:0:0
376,208,64898,5,0,0:0:0
408,208,64993,5,8,0:0:0
408,280,65182,5,0,0:0:0
336,280,65372,5,8,0:0:0
264,280,65561,5,0,0:0:0
232,280,65656,1,0,0:0:0
200,280,65751,5,8,0:0:0
128,280,65940,5,0,0:0:0
56,280,66129,5,8,0:0:0
56,248,66224,1,8,0:0:0
56,216,66319,5,0,0:0:0
88,216,66413,1,0,0:0:0
120,216,66508,5,8,0:0:0
192,216,66698,5,0,0:0:0
264,216,66887,5,8,0:0:0
336,216,67076,5,0,0:0:0
408,216,67266,1,0,0:0:0
408,144,67455,5,8,0:0:0
336,144,67644,5,0,0:0:0
264,144,67834,5,8,0:0:0
192,144,68023,1,8,0:0:0
120,144,68213,1,8,0:0:0
48,144,68402,1,8,0:0:0
48,176,68497,1,8,0:0:0
48,208,68591,5,0,0:0:0
80,208,68686,1,0,0:0:0
112,208,68781,5,8,0:0:0
144,208,68875,1,8,0:0:0
176,208,68970,5,0,0:0:0
208,208,69065,1,0,0:0:0
240,208,69159,5,8,0:0:0
272,208,69254,1,8,0:0:0
304,208,69349,1,8,0:0:0
336,208,69444,1,8,0:0:0
368,208,69538,5,0,0:0:0
400,208,69633,1,0,0:0:0
432,208,69728,1,0,0:0:0
432,240,69822,1,0,0:0:0
432,272,69917,5,8,0:0:0
360,272,70106,5,0,0:0:0
288,272,70296,5,8,0:0:0
216,272,70485,5,0,0:0:0
184,272,70580,1,0,0:0:0
152,272,70675,1,0,0:0:0
80,272,70864,1,0,0:0:0
80,240,70959,1,0,0:0:0
80,208,71053,5,8,0:0:0
152,208,71243,5,0,0:0:0
224,208,71432,5,8,0:0:0
296,208,71621,5,0,0:0:0
328,208,71716,1,0,0:0:0
360,208,71811,5,8,0:0:0
432,208,72000,5,0,0:0:0
432,136,72190,5,8,0:0:0
360,136,72379,5,0,0:0:0
288,136,72568,5,8,0:0:0
216,136,72758,5,0,0:0:0
144,136,72947,5,8,0:0:0
72,136,73137,5,0,0:0:0
72,104,73231,1,0,0:0:0
72,72,73326,1,0,0:0:0
144,72,73515,5,8,0:0:0
216,72,73705,5,0,0:0:0
248,72,73799,1,0,0:0:0
280,72,73894,1,0,0:0:0
312,72,73989,1,0,0:0:0
344,72,74083,5,8,0:0:0
416,72,74273,5,0,0:0:0
416,144,74462,5,8,0:0:0
312,144,74746,5,0,0:0:0
280,144,74841,5,8,0:0:0
208,144,75030,5,0,0:0:0
136,144,75220,5,8,0:0:0
104,144,75314,5,0,0:0:0
72,144,75409,5,8,0:0:0
72,176,75504,5,0,0:0:0
72,208,75598,5,8,0:0:0
144,208,75788,5,0,0:0:0
216,208,75977,5,8,0:0:0
248,208,76072,5,0,0:0:0
280,208,76167,1,0,0:0:0
312,208,76261,1,0,0:0:0
344,208,76356,5,8,0:0:0
376,208,76451,5,0,0:0:0
408,208,76545,1,0,0:0:0
440,208,76640,1,0,0:0:0
440,240,76735,5,8,0:0:0
440,272,76829,1,8,0:0:0
408,272,76924,5,0,0:0:0
376,272,77019,1,0,0:0:0
344,272,77114,5,8,0:0:0
312,272,77208,1,8,0:0:0
280,272,77303,5,0,0:0:0
248,272,77398,1,0,0:0:0
216,272,77492,5,8,0:0:0
144,272,77682,5,0,0:0:0
112,272,77776,1,0,0:0:0
80,272,77871,5,8,0:0:0
80,200,78060,5,0,0:0:0
152,200,78250,5,8,0:0:0
224,200,78439,5,0,0:0:0
256,200,78534,1,0,0:0:0
288,200,78629,1,0,0:0:0
360,200,78818,1,0,0:0:0
432,200,79007,5,8,0:0:0
432,128,79197,5,0,0:0:0
400,128,79291,1,0,0:0:0
368,128,79386,1,0,0:0:0
296,128,79575,5,8,0:0:0
224,128,79765,1,8,0:0:0
152,128,79954,5,0,0:0:0
120,128,80049,1,0,0:0:0
88,128,80144,1,0,0:0:0
88,200,80333,1,0,0:0:0
160,200,80522,1,0,0:0:0
264,200,80806,1,0,0:0:0
368,200,81091,1,0,0:0:0
440,200,81280,5,8,0:0:0
440,304,81564,1,8,0:0:0
336,304,81848,1,8,0:0:0
264,304,82037,1,8,0:0:0
192,304,82227,5,0,0:0:0
160,304,82322,1,0,0:0:0
128,304,82416,5,8,0:0:0
128,232,82606,5,0,0:0:0
160,232,82700,1,0,0:0:0
192,232,82795,1,0,0:0:0
264,232,82984,1,0,0:0:0
336,232,83174,5,8,0:0:0
408,232,83363,1,8,0:0:0
408,200,83458,1,8,0:0:0
408,168,83553,5,0,0:0:0
336,168,83742,5,8,0:0:0
304,168,83837,5,0,0:0:0
272,168,83931,5,8,0:0:0
200,168,84121,5,0,0:0:0
128,168,84310,5,8,0:0:0
56,168,84499,5,0,0:0:0
56,96,84689,5,8,0:0:0
128,96,84878,1,8,0:0:0
200,96,85068,1,8,0:0:0
272,96,85257,1,8,0:0:0
304,96,85352,1,8,0:0:0
336,96,85446,1,8,0:0:0
408,96,85636,5,0,0:0:0
408,168,85825,5,8,0:0:0
376,168,85920,1,8,0:0:0
344,168,86014,5,0,0:0:0
312,168,86109,1,0,0:0:0
280,168,86204,5,8,0:0:0
208,168,86393,5,0,0:0:0
136,168,86583,5,8,0:0:0
64,168,86772,1,8,0:0:0
64,200,86867,1,8,0:0:0
64,232,86961,1,8,0:0:0
136,232,87151,5,0,0:0:0
208,232,87340,5,8,0:0:0
280,232,87530,1,8,0:0:0
312,232,87624,1,8,0:0:0
344,232,87719,5,0,0:0:0
416,232,87908,1,0,0:0:0
416,304,88098,5,8,0:0:0
344,304,88287,5,0,0:0:0
312,304,88382,1,0,0:0:0
280,304,88476,5,8,0:0:0
208,304,88666,5,0,0:0:0
136,304,88855,5,8,0:0:0
104,304,88950,5,0,0:0:0
72,304,89045,1,0,0:0:0
72,272,89139,1,0,0:0:0
72,240,89234,5,8,0:0:0
144,240,89423,5,0,0:0:0
216,240,89613,5,8,0:0:0
288,240,89802,5,0,0:0:0
320,240,89897,5,8,0:0:0
352,240,89992,1,8,0:0:0
424,240,90181,1,8,0:0:0
424,208,90276,1,8,0:0:0
424,176,90370,1,8,0:0:0
352,176,90560,1,8,0:0:0
280,176,90749,1,8,0:0:0
208,176,90938,5,0,0:0:0
136,176,91128,5,8,0:0:0
136,320,91507,1,8,0:0:0
272,320,91885,1,8,0:0:0
344,320,92075,5,0,0:0:0
416,320,92264,5,8,0:0:0
416,248,92453,1,8,0:0:0
344,248,92643,5,0,0:0:0
240,248,92927,1,0,0:0:0
136,248,93211,1,0,0:0:0
136,176,93400,5,8,0:0:0
240,176,93684,1,8,0:0:0
344,176,93969,1,8,0:0:0
416,176,94158,1,8,0:0:0
416,104,94347,5,0,0:0:0
384,104,94442,1,0,0:0:0
352,104,94537,5,8,0:0:0
320,104,94631,1,8,0:0:0
288,104,94726,5,0,0:0:0
256,104,94821,1,0,0:0:0
224,104,94915,5,8,0:0:0
152,104,95105,5,0,0:0:0
120,104,95200,5,0,0:0:0
88,104,95294,1,8,0:0:0
88,176,95484,5,0,0:0:0
160,176,95673,5,8,0:0:0
232,176,95862,1,8,0:0:0
264,176,95957,1,8,0:0:0
296,176,96052,1,8,0:0:0
368,176,96241,5,0,0:0:0
440,176,96430,5,8,0:0:0
440,208,96525,1,8,0:0:0
440,240,96620,5,0,0:0:0
368,240,96809,5,8,0:0:0
336,240,96904,1,8,0:0:0
304,240,96999,5,0,0:0:0
272,240,97093,1,0,0:0:0
240,240,97188,5,8,0:0:0
168,240,97377,5,0,0:0:0
96,240,97567,5,8,0:0:0
96,312,97756,5,0,0:0:0
168,312,97946,5,8,0:0:0
200,312,98040,5,0,0:0:0
272,312,98230,1,0,0:0:0
304,312,98324,5,8,0:0:0
376,312,98514,5,0,0:0:0
448,312,98703,5,8,0:0:0
448,240,98892,5,0,0:0:0
416,240,98987,5,8,0:0:0
384,240,99082,1,8,0:0:0
312,240,99271,5,0,0:0:0
240,240,99461,5,8,0:0:0
208,240,99555,1,8,0:0:0
176,240,99650,1,8,0:0:0
144,240,99745,1,8,0:0:0
112,240,99839,5,0,0:0:0
80,240,99934,1,0,0:0:0
80,208,100029,1,0,0:0:0
80,176,100123,1,0,0:0:0
112,176,100218,5,8,0:0:0
184,176,100408,5,0,0:0:0
256,176,100597,5,8,0:0:0
328,176,100786,5,0,0:0:0
400,176,100976,1,0,0:0:0
472,176,101165,1,0,0:0:0
472,144,101260,1,0,0:0:0
472,112,101354,5,8,0:0:0
400,112,101544,5,0,0:0:0
328,112,101733,1,0,0:0:0
256,112,101923,1,0,0:0:0
224,112,102017,1,0,0:0:0
192,112,102112,5,8,0:0:0
120,112,102301,1,8,0:0:0
88,112,102396,1,8,0:0:0
56,112,102491,1,8,0:0:0
56,184,102680,5,0,0:0:0
128,184,102869,5,8,0:0:0
200,184,103059,5,0,0:0:0
272,184,103248,5,8,0:0:0
344,184,103438,5,0,0:0:0
416,184,103627,5,8,0:0:0
416,328,104006,5,0,0:0:0
344,328,104195,1,0,0:0:0
272,328,104385,5,8,0:0:0
200,328,104574,5,0,0:0:0
128,328,104763,5,8,0:0:0
128,224,105047,5,0,0:0:0
232,224,105331,1,0,0:0:0
304,224,105521,5,8,0:0:0
408,224,105805,5,0,0:0:0
408,120,106089,1,0,0:0:0
336,120,106278,5,8,0:0:0
264,120,106467,1,8,0:0:0
232,120,106562,1,8,0:0:0
200,120,106657,5,0,0:0:0
128,120,106846,5,8,0:0:0
56,120,107035,5,0,0:0:0
56,192,107225,5,8,0:0:0
88,192,107319,1,8,0:0:0
120,192,107414,5,0,0:0:0
192,192,107604,5,8,0:0:0
264,192,107793,5,0,0:0:0
296,192,107888,5,8,0:0:0
328,192,107982,1,8,0:0:0
360,192,108077,1,8,0:0:0
392,192,108172,5,0,0:0:0
464,192,108361,5,8,0:0:0
464,224,108456,1,8,0:0:0
464,256,108550,5,0,0:0:0
392,264,108740,5,8,0:0:0
360,264,108834,1,8,0:0:0
328,264,108929,1,8,0:0:0
256,264,109119,5,0,0:0:0
184,264,109308,5,8,0:0:0
112,264,109497,5,0,0:0:0
80,264,109592,5,8,0:0:0
80,232,109687,5,0,0:0:0
80,160,109876,5,8,0:0:0
152,160,110065,5,0,0:0:0
224,160,110255,1,0,0:0:0
256,160,110350,1,0,0:0:0
288,160,110444,5,8,0:0:0
320,160,110539,1,8,0:0:0
352,160,110634,5,0,0:0:0
424,160,110823,1,0,0:0:0
424,88,111012,1,0,0:0:0
392,88,111107,5,8,0:0:0
360,88,111202,1,8,0:0:0
288,88,111391,1,8,0:0:0
256,88,111486,1,8,0:0:0
224,88,111581,1,8,0:0:0
152,88,111770,1,8,0:0:0
120,88,111865,5,0,0:0:0
88,88,111959,5,8,0:0:0
88,160,112149,5,0,0:0:0
160,160,112338,5,8,0:0:0
232,160,112527,5,0,0:0:0
264,160,112622,5,8,0:0:0
296,160,112717,5,0,0:0:0
368,160,112906,5,8,0:0:0
440,160,113096,5,0,0:0:0
440,192,113190,5,8,0:0:0
440,224,113285,1,8,0:0:0
408,224,113379,1,8,0:0:0
376,224,113474,5,0,0:0:0
344,224,113569,5,8,0:0:0
312,224,113663,1,8,0:0:0
280,224,113758,1,8,0:0:0
248,224,113853,5,0,0:0:0
176,224,114043,1,0,0:0:0
144,224,114137,5,8,0:0:0
112,224,114232,5,0,0:0:0
40,224,114421,1,0,0:0:0
40,296,114611,5,8,0:0:0
72,296,114705,1,8,0:0:0
104,296,114800,5,0,0:0:0
176,296,114989,5,8,0:0:0
248,296,115179,5,0,0:0:0
320,296,115368,5,8,0:0:0
392,296,115558,1,8,0:0:0
424,296,115652,1,8,0:0:0
456,296,115747,1,8,0:0:0
456,224,115936,5,0,0:0:0
424,224,116031,1,0,0:0:0
392,224,116126,5,8,0:0:0
320,224,116315,5,0,0:0:0
288,224,116410,1,0,0:0:0
256,224,116504,5,8,0:0:0
224,224,116599,5,0,0:0:0
192,224,116694,1,0,0:0:0
160,224,116789,1,0,0:0:0
128,224,116883,5,8,0:0:0
56,224,117073,5,0,0:0:0
56,192,117167,1,0,0:0:0
56,160,117262,1,0,0:0:0
128,160,117451,5,8,0:0:0
160,160,117546,5,0,0:0:0
192,160,117641,1,0,0:0:0
264,160,117830,1,0,0:0:0
336,160,118020,5,8,0:0:0
408,160,118209,5,0,0:0:0
408,88,118398,5,8,0:0:0
336,88,118588,1,8,0:0:0
304,88,118682,1,8,0:0:0
272,88,118777,5,0,0:0:0
200,88,118966,1,8,0:0:0
128,88,119156,5,8,0:0:0
56,88,119345,5,0,0:0:0
56,120,119440,5,8,0:0:0
56,152,119535,1,8,0:0:0
128,152,119724,5,0,0:0:0
200,152,119913,5,8,0:0:0
344,152,120292,1,8,0:0:0
344,296,120671,1,8,0:0:0
200,296,121050,1,8,0:0:0
56,296,121429,1,8,0:0:0
56,224,121618,1,8,0:0:0
128,224,121808,1,8,0:0:0
200,224,121997,1,8,0:0:0
272,224,122186,1,8,0:0:0
304,224,122281,1,8,0:0:0
336,224,122376,1,8,0:0:0
368,224,122471,1,8,0:0:0
400,224,122565,1,8,0:0:0
432,224,122660,1,8,0:0:0
464,224,122755,1,8,0:0:0
464,192,122849,1,8,0:0:0
464,160,122944,1,8,0:0:0
40,40,124838,21,8,0:0:0
112,40,125028,5,0,0:0:0
184,40,125217,5,8,0:0:0
256,40,125406,5,0,0:0:0
288,40,125501,1,0,0:0:0
320,40,125596,5,8,0:0:0
352,40,125690,1,8,0:0:0
384,40,125785,1,8,0:0:0
416,40,125880,1,8,0:0:0
448,40,125975,5,0,0:0:0
448,144,126258,1,0,0:0:0
416,144,126353,5,8,0:0:0
344,144,126542,5,0,0:0:0
272,144,126732,5,8,0:0:0
240,144,126826,5,0,0:0:0
168,144,127016,1,0,0:0:0
136,144,127110,5,8,0:0:0
64,144,127300,5,0,0:0:0
64,216,127489,5,8,0:0:0
136,216,127679,5,0,0:0:0
208,216,127868,5,8,0:0:0
280,216,128057,5,0,0:0:0
312,216,128152,1,0,0:0:0
344,216,128247,1,0,0:0:0
416,216,128436,1,0,0:0:0
416,288,128625,1,8,0:0:0
344,288,128815,1,0,0:0:0
272,288,129004,5,8,0:0:0
256,216,129194,5,0,0:0:0
248,144,129383,1,0,0:0:0
64,280,129572,5,8,0:0:0
96,224,129762,5,0,0:0:0
72,144,129951,5,8,0:0:0
128,104,130140,5,0,0:0:0
216,144,130330,5,8,0:0:0
288,144,130519,1,8,0:0:0
392,144,130803,5,0,0:0:0
424,144,130898,5,8,0:0:0
424,72,131087,5,0,0:0:0
352,72,131277,5,8,0:0:0
320,72,131371,1,8,0:0:0
288,72,131466,1,8,0:0:0
256,72,131561,5,0,0:0:0
224,72,131656,5,8,0:0:0
88,72,132034,5,0,0:0:0
88,176,132318,1,0,0:0:0
120,176,132413,5,8,0:0:0
192,176,132602,5,0,0:0:0
264,176,132792,5,8,0:0:0
296,176,132887,5,0,0:0:0
368,176,133076,1,0,0:0:0
400,176,133171,5,8,0:0:0
400,248,133360,5,0,0:0:0
400,320,133549,5,8,0:0:0
328,320,133739,5,0,0:0:0
296,320,133833,5,8,0:0:0
264,320,133928,5,0,0:0:0
192,320,134118,1,0,0:0:0
120,320,134307,5,8,0:0:0
120,288,134402,5,0,0:0:0
120,216,134591,1,0,0:0:0
152,216,134686,5,8,0:0:0
224,216,134875,5,0,0:0:0
296,216,135064,5,8,0:0:0
232,168,135254,5,0,0:0:0
272,224,135443,1,0,0:0:0
440,64,135633,5,8,0:0:0
424,136,135822,5,0,0:0:0
304,64,136011,5,8,0:0:0
336,128,136201,5,0,0:0:0
160,64,136390,5,8,0:0:0
88,64,136579,1,8,0:0:0
88,136,136769,1,8,0:0:0
120,136,136864,1,8,0:0:0
152,136,136958,1,8,0:0:0
224,136,137148,5,0,0:0:0
296,136,137337,5,8,0:0:0
328,136,137432,1,8,0:0:0
360,136,137526,5,0,0:0:0
432,136,137716,5,8,0:0:0
432,208,137905,5,0,0:0:0
360,208,138095,5,8,0:0:0
288,208,138284,5,0,0:0:0
256,208,138379,1,0,0:0:0
224,208,138473,5,8,0:0:0
152,208,138663,5,0,0:0:0
120,208,138757,1,0,0:0:0
88,208,138852,1,0,0:0:0
88,280,139041,5,8,0:0:0
120,280,139136,1,8,0:0:0
152,280,139231,1,8,0:0:0
224,280,139420,5,0,0:0:0
296,280,139610,5,8,0:0:0
400,280,139894,5,0,0:0:0
400,248,139988,5,8,0:0:0
400,176,140178,5,0,0:0:0
328,176,140367,5,8,0:0:0
256,176,140556,5,0,0:0:0
184,176,140746,5,8,0:0:0
112,176,140935,5,0,0:0:0
112,104,141125,5,8,0:0:0
184,104,141312,5,0,0:0:0
216,104,141408,1,0,0:0:0
248,104,141503,1,0,0:0:0
320,104,141693,5,8,0:0:0
392,104,141881,5,0,0:0:0
392,72,141976,1,0,0:0:0
392,40,142071,1,0,0:0:0
360,40,142165,1,0,0:0:0
328,40,142260,5,8,0:0:0
256,40,142449,5,0,0:0:0
184,40,142639,5,8,0:0:0
80,40,142924,5,0,0:0:0
80,72,143018,5,8,0:0:0
80,144,143208,5,0,0:0:0
152,144,143397,1,0,0:0:0
184,144,143492,1,0,0:0:0
216,144,143587,5,8,0:0:0
248,144,143681,5,0,0:0:0
280,144,143776,5,8,0:0:0
352,144,143965,5,0,0:0:0
424,144,144155,5,8,0:0:0
424,176,144249,5,0,0:0:0
424,208,144344,1,0,0:0:0
392,208,144439,1,0,0:0:0
360,208,144534,5,8,0:0:0
328,208,144628,5,0,0:0:0
296,208,144723,1,0,0:0:0
264,208,144818,1,0,0:0:0
232,208,144912,5,8,0:0:0
200,208,145007,1,8,0:0:0
168,208,145102,5,0,0:0:0
136,208,145196,1,0,0:0:0
104,208,145291,5,8,0:0:0
72,208,145386,1,8,0:0:0
72,240,145480,5,0,0:0:0
72,272,145575,1,0,0:0:0
104,272,145670,5,8,0:0:0
208,280,145954,5,0,0:0:0
240,280,146049,5,8,0:0:0
312,280,146238,5,0,0:0:0
384,280,146427,5,8,0:0:0
416,280,146522,5,0,0:0:0
424,208,146711,1,0,0:0:0
392,208,146806,5,8,0:0:0
320,208,146995,5,0,0:0:0
248,208,147184,5,8,0:0:0
176,208,147374,5,0,0:0:0
144,208,147468,1,0,0:0:0
112,208,147563,1,0,0:0:0
40,208,147752,5,8,0:0:0
40,136,147942,1,8,0:0:0
112,136,148131,5,0,0:0:0
144,136,148226,1,0,0:0:0
176,136,148321,1,0,0:0:0
248,136,148510,1,0,0:0:0
320,136,148699,1,0,0:0:0
424,136,148983,1,0,0:0:0
424,240,149268,1,0,0:0:0
352,240,149457,5,8,0:0:0
248,240,149741,1,8,0:0:0
144,240,150025,1,8,0:0:0
72,240,150215,5,0,0:0:0
72,160,150404,1,0,0:0:0
104,160,150499,1,0,0:0:0
136,160,150594,5,8,0:0:0
208,160,150783,5,0,0:0:0
280,160,150973,1,0,0:0:0
352,160,151162,1,0,0:0:0
384,160,151257,1,0,0:0:0
416,160,151351,5,8,0:0:0
416,88,151541,5,0,0:0:0
344,88,151730,1,0,0:0:0
272,88,151919,1,0,0:0:0
240,88,152014,1,0,0:0:0
208,88,152109,5,8,0:0:0
136,88,152298,5,0,0:0:0
104,88,152393,1,0,0:0:0
72,88,152488,1,0,0:0:0
64,160,152677,1,0,0:0:0
96,160,152772,1,0,0:0:0
128,160,152866,5,8,0:0:0
160,160,152961,5,0,0:0:0
192,160,153056,1,0,0:0:0
224,160,153150,1,0,0:0:0
256,160,153245,1,0,0:0:0
328,160,153434,1,0,0:0:0
360,160,153529,1,0,0:0:0
392,160,153624,5,8,0:0:0
464,160,153813,5,0,0:0:0
464,192,153908,5,8,0:0:0
464,224,154003,5,0,0:0:0
392,224,154192,1,0,0:0:0
360,224,154287,1,0,0:0:0
328,224,154381,5,8,0:0:0
256,224,154571,5,0,0:0:0
184,224,154760,5,8,0:0:0
112,224,154950,5,0,0:0:0
40,224,155139,5,8,0:0:0
40,296,155328,5,0,0:0:0
72,296,155423,1,0,0:0:0
104,296,155518,5,8,0:0:0
176,296,155707,5,0,0:0:0
208,296,155802,1,0,0:0:0
240,296,155896,5,8,0:0:0
312,296,156086,5,0,0:0:0
384,296,156275,5,8,0:0:0
416,296,156370,5,0,0:0:0
424,224,156559,1,0,0:0:0
392,224,156654,5,8,0:0:0
320,224,156843,5,0,0:0:0
248,224,157033,1,0,0:0:0
176,224,157222,1,0,0:0:0
104,224,157411,5,8,0:0:0
32,224,157601,5,0,0:0:0
32,152,157790,5,8,0:0:0
64,152,157885,5,0,0:0:0
136,152,158074,1,0,0:0:0
168,152,158169,5,8,0:0:0
240,152,158358,5,0,0:0:0
272,152,158453,1,0,0:0:0
304,152,158548,1,0,0:0:0
376,152,158737,1,0,0:0:0
448,152,158927,5,8,0:0:0
448,80,159116,5,0,0:0:0
376,80,159305,5,8,0:0:0
304,80,159495,5,0,0:0:0
272,80,159589,1,0,0:0:0
240,80,159684,5,8,0:0:0
168,80,159873,5,0,0:0:0
136,80,159968,1,0,0:0:0
104,80,160063,5,8,0:0:0
104,152,160252,1,8,0:0:0
136,152,160347,1,8,0:0:0
168,152,160442,1,8,0:0:0
240,152,160631,5,0,0:0:0
272,152,160726,1,0,0:0:0
304,152,160820,1,0,0:0:0
408,152,161104,1,0,0:0:0
408,184,161199,5,8,0:0:0
408,256,161389,5,0,0:0:0
336,256,161578,5,8,0:0:0
304,256,161673,5,0,0:0:0
232,256,161862,1,0,0:0:0
200,256,161957,5,8,0:0:0
168,256,162051,5,0,0:0:0
136,256,162146,1,0,0:0:0
104,256,162241,1,0,0:0:0
72,256,162335,5,8,0:0:0
72,184,162525,5,0,0:0:0
104,184,162619,5,8,0:0:0
136,184,162714,5,0,0:0:0
208,184,162904,1,0,0:0:0
280,184,163093,5,8,0:0:0
352,184,163282,5,0,0:0:0
384,184,163377,1,0,0:0:0
416,184,163472,5,8,0:0:0
416,112,163661,1,8,0:0:0
344,112,163850,1,8,0:0:0
312,112,163945,5,0,0:0:0
240,112,164135,1,0,0:0:0
208,112,164229,5,8,0:0:0
136,112,164419,5,0,0:0:0
64,112,164608,5,8,0:0:0
64,184,164797,5,0,0:0:0
96,184,164892,5,8,0:0:0
128,184,164987,1,8,0:0:0
200,184,165176,5,0,0:0:0
272,184,165366,5,8,0:0:0
344,184,165555,5,0,0:0:0
376,184,165650,1,0,0:0:0
408,184,165744,1,0,0:0:0
480,184,165934,5,8,0:0:0
480,256,166123,5,0,0:0:0
448,256,166218,1,0,0:0:0
416,256,166312,1,0,0:0:0
344,256,166502,5,8,0:0:0
272,256,166691,5,0,0:0:0
200,256,166881,5,8,0:0:0
96,256,167165,5,0,0:0:0
96,224,167259,5,8,0:0:0
96,152,167449,5,0,0:0:0
168,152,167638,1,0,0:0:0
200,152,167733,1,0,0:0:0
232,152,167827,5,8,0:0:0
264,152,167922,5,0,0:0:0
296,152,168017,5,8,0:0:0
328,152,168112,5,0,0:0:0
360,152,168206,1,0,0:0:0
392,152,168301,1,0,0:0:0
424,152,168396,1,8,0:0:0
424,80,168585,1,0,0:0:0
392,80,168680,1,0,0:0:0
360,80,168774,5,8,0:0:0
288,80,168964,5,8,0:0:0
216,80,169153,5,8,0:0:0
184,80,169248,5,0,0:0:0
112,80,169437,1,0,0:0:0
80,80,169532,5,8,0:0:0
80,152,169721,5,0,0:0:0
112,152,169816,5,8,0:0:0
144,152,169911,1,8,0:0:0
216,152,170100,5,0,0:0:0
248,152,170195,1,0,0:0:0
280,152,170289,1,0,0:0:0
352,152,170479,5,8,0:0:0
384,152,170574,1,8,0:0:0
416,152,170668,1,8,0:0:0
416,224,170858,5,0,0:0:0
344,224,171047,5,8,0:0:0
272,224,171236,5,0,0:0:0
200,224,171426,5,8,0:0:0
96,224,171710,5,0,0:0:0
96,256,171805,5,8,0:0:0
96,328,171994,5,0,0:0:0
240,328,172373,5,8,0:0:0
312,328,172562,1,8,0:0:0
344,328,172657,5,0,0:0:0
416,328,172846,1,0,0:0:0
416,296,172941,5,8,0:0:0
416,192,173225,5,0,0:0:0
312,192,173509,1,0,0:0:0
240,192,173698,5,8,0:0:0
168,192,173888,5,0,0:0:0
96,192,174077,5,8,0:0:0
96,120,174266,1,8,0:0:0
168,120,174456,1,8,0:0:0
240,120,174645,5,0,0:0:0
272,120,174740,1,0,0:0:0
304,120,174835,5,8,0:0:0
336,120,174929,1,8,0:0:0
368,120,175024,1,8,0:0:0
400,120,175119,5,0,0:0:0
432,120,175213,5,8,0:0:0
432,192,175403,5,0,0:0:0
400,192,175497,5,8,0:0:0
368,192,175592,1,8,0:0:0
296,192,175782,5,0,0:0:0
264,192,175876,1,0,0:0:0
232,192,175971,5,8,0:0:0
200,192,176066,1,8,0:0:0
168,192,176160,5,0,0:0:0
136,192,176255,1,0,0:0:0
104,192,176350,5,8,0:0:0
96,264,176539,5,0,0:0:0
168,264,176728,5,8,0:0:0
240,264,176918,1,8,0:0:0
272,264,177013,1,8,0:0:0
304,264,177107,1,8,0:0:0
376,264,177297,5,0,0:0:0
448,264,177486,5,8,0:0:0
448,192,177675,5,0,0:0:0
376,192,177865,1,0,0:0:0
304,192,178054,5,8,0:0:0
232,192,178244,5,0,0:0:0
160,192,178433,5,8,0:0:0
88,192,178622,5,0,0:0:0
88,120,178812,5,8,0:0:0
160,120,179001,1,8,0:0:0
264,120,179285,5,0,0:0:0
296,120,179380,5,8,0:0:0
368,120,179569,5,0,0:0:0
440,120,179759,5,8,0:0:0
440,88,179853,1,8,0:0:0
440,56,179948,5,0,0:0:0
408,56,180043,1,0,0:0:0
376,56,180137,5,8,0:0:0
232,48,180516,1,8,0:0:0
200,48,180611,1,8,0:0:0
168,48,180705,5,0,0:0:0
136,48,180800,1,0,0:0:0
104,48,180895,5,8,0:0:0
72,48,180990,1,8,0:0:0
72,80,181084,5,0,0:0:0
72,112,181179,1,0,0:0:0
104,112,181274,5,8,0:0:0
136,112,181368,1,8,0:0:0
168,112,181463,5,0,0:0:0
200,112,181558,1,0,0:0:0
232,112,181652,5,8,0:0:0
264,112,181747,1,8,0:0:0
296,112,181842,1,8,0:0:0
328,112,181936,1,8,0:0:0
360,112,182031,5,0,0:0:0
432,112,182221,1,0,0:0:0
432,144,182315,1,0,0:0:0
432,176,182410,1,0,0:0:0
360,176,182599,1,0,0:0:0
288,176,182789,5,8,0:0:0
256,176,182883,5,0,0:0:0
184,176,183073,1,0,0:0:0
152,176,183167,5,8,0:0:0
80,176,183357,5,0,0:0:0
80,248,183546,5,8,0:0:0
152,248,183641,1,8,0:0:0
184,248,183736,5,0,0:0:0
216,248,183830,1,0,0:0:0
248,248,183925,5,8,0:0:0
320,248,184114,5,0,0:0:0
392,248,184304,5,8,0:0:0
424,248,184398,1,8,0:0:0
456,248,184493,5,0,0:0:0
456,320,184682,5,8,0:0:0
384,320,184872,5,0,0:0:0
312,320,185061,1,0,0:0:0
208,320,185345,1,0,0:0:0
104,320,185629,1,0,0:0:0
104,248,185819,5,8,0:0:0
208,248,186103,1,8,0:0:0
312,248,186387,1,8,0:0:0
384,248,186576,5,0,0:0:0
384,104,186955,5,8,0:0:0
312,104,187144,5,0,0:0:0
240,104,187334,1,0,0:0:0
208,104,187429,5,8,0:0:0
136,104,187619,5,0,0:0:0
104,104,187713,5,8,0:0:0
104,176,187902,1,8,0:0:0
176,176,188091,5,4,0:0:0
