osu file format v11

[General]
AudioFilename: Nightcore- A Gangnam Style Hurly Burly.mp3
AudioLeadIn: 0
PreviewTime: -1
Countdown: 1
SampleSet: None
StackLeniency: 0.7
Mode: 0
LetterboxInBreaks: 1

[Editor]
DistanceSpacing: 2
BeatDivisor: 4
GridSize: 8

[Metadata]
Title:A Gangnam Style Hurly Burly (Nightcore Mix)
TitleUnicode:A Gangnam Style Hurly Burly (Nightcore Mix)
Artist:PSY vs. Perfume
ArtistUnicode:PSY vs. Perfume
Creator:MeGl
Version:Insane
Source:
Tags:psy perfume wolfjkeee
BeatmapID:213360
BeatmapSetID:75536

[Difficulty]
HPDrainRate:6
CircleSize:4
OverallDifficulty:6
ApproachRate:9
SliderMultiplier:3
SliderTickRate:2

[Events]
//Background and Video events
0,0,"Perfume BG.jpg"
//Break Periods
2,54966,56060
2,123143,124238
//Storyboard Layer 0 (Background)
//Storyboard Layer 1 (Fail)
//Storyboard Layer 2 (Pass)
//Storyboard Layer 3 (Foreground)
//Storyboard Sound Samples
//Background Colour Transformations
3,100,163,162,255

[TimingPoints]
1740,378.76396692128,4,2,0,100,1,0
13860,-100,4,2,0,100,0,1
14049,-100,4,2,0,100,0,0
25980,-100,4,2,0,100,0,1
26170,-100,4,2,0,100,0,0
29011,-100,4,2,0,100,0,1
29389,-100,4,2,0,100,0,0
32041,-100,4,2,0,100,0,1
32609,-100,4,2,0,100,0,0
35071,-100,4,2,0,100,0,1
35639,-100,4,2,0,100,0,0
37911,-200,4,2,0,100,0,0
56660,-100,4,2,0,100,0,0
57797,-100,4,2,0,100,0,1
57986,-100,4,2,0,100,0,0
63857,-100,4,2,0,100,0,1
64046,-100,4,2,0,100,0,0
69917,-100,4,2,0,100,0,1
72758,-100,4,2,0,100,0,0
75977,-100,4,2,0,100,0,1
78818,-100,4,2,0,100,0,0
106089,-200,4,2,0,100,0,0
122944,-100,4,2,0,100,0,0
125974,-100,4,2,0,100,0,1
126163,-100,4,2,0,100,0,0
127489,-100,4,2,0,100,0,1
127679,-100,4,2,0,100,0,0
132034,-100,4,2,0,100,0,1
132224,-100,4,2,0,100,0,0
138095,-100,4,2,0,100,0,1
140935,-100,4,2,0,100,0,0
144155,-100,4,2,0,100,0,1
146995,-100,4,2,0,100,0,0
150215,-200,4,2,0,100,0,0
161199,-100,4,2,0,100,0,0
162335,-100,4,2,0,100,0,1
171236,-100,4,2,0,100,0,0

[Colours]
Combo1 : 64,128,128
Combo2 : 128,128,0
Combo3 : 170,170,255
Combo4 : 128,128,255
Combo5 : 0,0,255

[HitObjects]
104,192,1740,5,0,0:0:0
224,192,1929,1,0,0:0:0
224,128,2118,2,0,P|160:88|104:136,1,150
408,192,2497,5,0,0:0:0
288,192,2686,1,0,0:0:0
288,256,2875,2,0,P|352:296|404:257,1,150
224,224,3255,6,0,P|112:336,1,150
288,160,3633,2,0,P|400:48,1,150
256,112,4012,1,0,0:0:0
216,272,4201,5,0,0:0:0
264,248,4296,1,0,0:0:0
288,200,4391,1,0,0:0:0
184,192,4580,5,0,0:0:0
176,88,4770,2,0,P|96:88|80:152,1,150
176,296,5148,2,0,P|96:296|77:239,1,150
80,192,5527,2,0,P|232:192,1,150
432,192,5906,2,0,P|280:192,1,150
336,296,6285,2,0,P|416:296|435:239,1,150
336,88,6663,2,0,P|416:88|435:145,1,150
312,192,7042,5,0,0:0:0
256,192,7137,1,0,0:0:0
200,192,7232,1,0,0:0:0
328,128,7421,6,0,P|160:128,1,150
80,88,7800,5,0,0:0:0
96,192,7989,1,0,0:0:0
192,240,8178,1,0,0:0:0
296,248,8368,1,0,0:0:0
400,248,8557,2,0,P|456:184|432:128,1,150
336,104,8936,2,0,P|280:168|300:220,1,150
352,232,9315,2,0,P|416:96,1,150
416,48,9694,5,0,0:0:0
192,48,9883,1,0,0:0:0
264,176,10072,1,0,0:0:0
312,160,10167,1,0,0:0:0
336,112,10262,1,0,0:0:0
208,192,10451,6,0,P|48:192,1,150
304,192,10830,2,0,P|464:192,1,150
232,144,11209,2,0,P|128:24,1,150
280,144,11587,2,0,P|384:24,1,150
256,32,11966,5,0,0:0:0
256,184,12156,1,0,0:0:0
408,192,12345,2,0,P|408:96|296:48,2,225
104,192,13102,2,0,P|104:96|216:48,2,225
256,192,13860,5,0,0:0:0
360,80,14049,1,0,0:0:0
368,232,14239,1,0,0:0:0
280,112,14428,1,0,0:0:0
416,168,14617,1,0,0:0:0
312,280,14807,5,0,0:0:0
264,256,14902,1,0,0:0:0
304,224,14997,1,0,0:0:0
256,192,15186,5,0,0:0:0
256,40,15375,2,0,P|96:40,1,150
184,104,15754,2,0,P|32:104,1,150
256,40,16133,2,0,P|406:40,1,150
256,106,16511,1,0,0:0:0
256,256,16701,2,0,P|256:104,1,150
192,112,17079,5,0,0:0:0
320,168,17268,1,0,0:0:0
192,232,17458,1,0,0:0:0
320,232,17648,2,0,P|472:232,1,150
472,288,17932,1,0,0:0:0
472,344,18026,2,0,P|320:344,1,150
216,336,18405,2,0,P|128:328|144:224,1,150
160,184,18784,2,0,P|248:192|265:240,1,150
224,256,19068,1,0,0:0:0
176,264,19163,2,0,P|288:128,1,150
296,48,19541,5,0,0:0:0
384,104,19731,1,0,0:0:0
416,208,19920,1,0,0:0:0
416,312,20110,1,0,0:0:0
352,232,20299,1,0,0:0:0
456,264,20488,1,0,0:0:0
360,296,20678,1,0,0:0:0
256,272,20867,2,0,P|176:288|112:256,1,150
216,232,21246,2,0,P|224:160|320:112,1,150
384,104,21625,5,0,0:0:0
416,144,21719,1,0,0:0:0
424,200,21814,1,0,0:0:0
320,176,22003,1,0,0:0:0
264,168,22098,1,0,0:0:0
208,168,22193,2,0,P|112:208|96:288,2,150
208,64,22761,2,0,P|120:64|72:120,1,150
192,216,23329,1,0,0:0:0
280,192,23708,6,0,P|432:192,3,150
216,192,24465,1,0,0:0:0
200,128,24749,1,0,0:0:0
112,72,25033,1,0,0:0:0
216,56,25223,1,0,0:0:0
112,72,25412,1,0,0:0:0
144,136,25602,1,0,0:0:0
144,136,25697,1,0,0:0:0
144,136,25791,1,0,0:0:0
144,136,25886,1,0,0:0:0
144,136,25980,6,0,P|88:200|104:256,1,150
192,200,26359,2,0,P|352:200,1,150
432,144,26738,2,0,P|472:200|432:264,1,150
336,296,27117,2,0,P|256:328|192:304,1,150
144,168,27495,5,0,0:0:0
264,264,27685,1,0,0:0:0
112,264,27874,1,0,0:0:0
240,184,28064,1,0,0:0:0
184,96,28253,5,0,0:0:0
232,64,28348,1,0,0:0:0
264,104,28442,1,0,0:0:0
248,208,28632,5,0,0:0:0
200,240,28727,1,0,0:0:0
168,200,28821,1,0,0:0:0
72,152,29011,5,0,0:0:0
120,144,29105,1,0,0:0:0
168,136,29200,1,0,0:0:0
224,144,29295,1,0,0:0:0
272,168,29389,1,0,0:0:0
376,168,29579,6,0,P|456:168|472:96,1,150
376,216,29957,2,0,P|456:216|476:272,1,150
352,192,30336,2,0,P|200:192,1,150
200,256,30715,1,0,0:0:0
256,128,30904,1,0,0:0:0
320,256,31094,1,0,0:0:0
232,200,31283,6,0,P|152:192|96:240,1,150
176,312,31662,2,0,P|264:312|304:240,1,150
368,192,32041,1,0,0:0:0
416,176,32135,1,0,0:0:0
440,128,32230,1,0,0:0:0
416,80,32325,1,0,0:0:0
368,72,32419,2,0,P|280:64|216:80,1,150
128,136,32798,6,0,P|192:152|304:136,1,150
376,120,33177,2,0,P|448:192|432:256,1,150
344,272,33556,2,0,P|272:312|184:288,1,150
176,264,33840,1,0,0:0:0
168,216,33934,2,0,P|240:168|336:184,1,150
272,72,34313,2,0,P|192:72|136:112,1,150
240,128,34692,2,0,P|320:160|424:104,1,150
336,48,35071,5,0,0:0:0
376,80,35165,1,0,0:0:0
392,128,35260,1,0,0:0:0
368,176,35355,1,0,0:0:0
320,192,35449,2,0,P|232:216|216:280,1,150
112,288,35828,6,0,P|64:224|80:160,1,150
120,128,36112,1,0,0:0:0
160,160,36207,2,0,P|240:192|304:128,1,150
224,80,36586,1,0,0:0:0
304,152,36775,5,0,0:0:0
312,160,36870,1,0,0:0:0
320,168,36965,1,0,0:0:0
216,168,37154,1,0,0:0:0
216,176,37249,1,0,0:0:0
216,184,37343,1,0,0:0:0
120,144,37533,1,0,0:0:0
112,152,37627,1,0,0:0:0
104,160,37722,1,0,0:0:0
200,272,37911,5,0,0:0:0
320,280,38101,2,0,P|368:240|368:136,1,150
360,80,38858,2,0,P|296:40|224:40,1,150
200,112,39427,1,0,0:0:0
184,184,39616,2,0,P|264:216|328:208,1,150
232,328,40373,2,0,P|304:296|320:224,1,150
304,160,40942,1,0,0:0:0
240,120,41131,1,0,0:0:0
256,192,41699,5,0,0:0:0
104,192,42078,5,0,0:0:0
104,192,42173,1,0,0:0:0
104,192,42267,1,0,0:0:0
168,152,42457,1,0,0:0:0
168,232,42646,1,0,0:0:0
256,192,43214,5,0,0:0:0
200,80,43782,6,0,P|224:56|280:72,1,75
336,80,44161,2,0,P|376:104|376:136,1,75
384,200,44540,2,0,P|400:240|384:264,1,75
320,304,44919,2,0,P|272:320|248:312,1,75
176,288,45297,2,0,P|128:256|112:224,1,75
192,232,45676,2,0,P|160:208|144:176,1,75
216,176,46055,2,0,P|184:152|168:120,1,75
272,160,46434,2,0,P|304:120|344:112,1,75
256,200,46812,2,0,P|288:240|288:272,1,75
256,192,47191,5,0,0:0:0
256,192,47759,5,0,0:0:0
408,192,48138,5,0,0:0:0
408,192,48233,1,0,0:0:0
408,192,48327,1,0,0:0:0
344,152,48517,1,0,0:0:0
344,224,48706,1,0,0:0:0
256,192,49274,5,0,0:0:0
56,96,49843,5,0,0:0:0
168,96,50032,1,0,0:0:0
104,192,50221,1,0,0:0:0
216,192,50411,1,0,0:0:0
168,96,50600,1,0,0:0:0
280,96,50789,1,0,0:0:0
336,192,50979,2,0,P|376:120,1,75
280,192,51358,2,0,P|200:192,1,75
64,144,51736,5,0,0:0:0
288,344,52115,1,0,0:0:0
456,96,52494,1,0,0:0:0
176,200,52873,1,0,0:0:0
272,80,53251,5,0,0:0:0
200,88,53441,1,0,0:0:0
144,136,53630,1,0,0:0:0
136,208,53820,1,0,0:0:0
168,272,54009,1,0,0:0:0
208,272,54104,1,0,0:0:0
248,272,54198,1,0,0:0:0
288,272,54293,1,0,0:0:0
328,272,54388,1,0,0:0:0
368,272,54482,2,0,P|408:272,3,37.5
192,192,56660,6,0,P|344:192,1,150
432,72,57039,1,0,0:0:0
280,88,57228,2,0,P|400:192,1,150
96,192,57797,6,0,P|176:192|184:128,1,150
144,280,58175,1,0,0:0:0
200,288,58270,1,0,0:0:0
248,272,58365,1,0,0:0:0
256,168,58554,2,0,P|176:176|168:112,1,150
256,64,58933,1,0,0:0:0
304,40,59028,1,0,0:0:0
360,40,59122,1,0,0:0:0
400,136,59312,6,0,P|456:280,1,150
320,200,59690,2,0,P|320:352,1,150
216,224,60069,2,0,P|128:352,1,150
80,336,60353,1,0,0:0:0
56,288,60448,2,0,P|128:144,1,150
216,104,60827,1,0,0:0:0
320,104,61016,6,0,P|384:48,2,75
248,176,61395,2,0,P|176:240,2,75
352,160,61774,2,0,P|448:144,2,75
256,112,62152,2,0,P|184:56,2,75
304,208,62531,1,0,0:0:0
352,224,62626,1,0,0:0:0
352,280,62720,1,0,0:0:0
248,288,62910,2,0,P|64:288,1,150
40,200,63289,2,0,P|200:200,1,150
256,200,63667,1,0,0:0:0
360,200,63857,6,0,P|440:200|440:144,1,150
328,144,64236,2,0,P|329:90|409:90,1,150,0|0,0:0|0:0,0:0:0
152,200,64614,2,0,P|72:200|72:144,1,150
184,144,64993,2,0,P|182:90|102:90,1,150,0|0,0:0|0:0,0:0:0
280,176,65372,2,0,P|392:56,1,150
232,176,65751,2,0,P|120:56,1,150
256,48,66129,5,0,0:0:0
256,104,66224,1,0,0:0:0
256,160,66319,1,0,0:0:0
256,208,66413,1,0,0:0:0
216,240,66508,2,0,P|256:304|256:304|320:224,1,150
400,216,66887,5,0,0:0:0
392,112,67076,1,0,0:0:0
296,64,67266,1,0,0:0:0
312,168,67455,1,0,0:0:0
352,72,67644,1,0,0:0:0
248,64,67834,2,0,P|160:56|112:96,1,150
216,120,68213,2,0,P|152:184|176:232,1,150
272,192,68591,5,0,0:0:0
304,232,68686,1,0,0:0:0
328,184,68781,1,0,0:0:0
392,96,68970,1,0,0:0:0
296,64,69159,2,0,P|136:48,1,150
256,120,69538,2,0,P|96:136,1,150
56,312,69917,5,0,0:0:0
152,192,70106,1,0,0:0:0
224,192,70201,1,0,0:0:0
296,192,70296,1,0,0:0:0
376,312,70485,1,0,0:0:0
440,176,70675,2,0,P|448:96|384:64,1,150
376,216,71053,2,0,P|304:136|232:152,1,150
456,312,71432,5,0,0:0:0
360,192,71621,1,0,0:0:0
288,192,71716,1,0,0:0:0
216,192,71811,1,0,0:0:0
136,312,72000,1,0,0:0:0
72,176,72190,2,0,P|64:96|128:64,1,150
136,216,72568,2,0,P|208:136|280:152,1,150
376,64,72947,5,0,0:0:0
376,216,73137,1,0,0:0:0
136,216,73326,5,0,0:0:0
136,64,73516,1,0,0:0:0
200,64,73705,2,0,P|320:176,1,150
312,112,73989,1,0,0:0:0
312,64,74083,2,0,P|202:166,1,150
352,136,74462,6,0,P|424:288,1,150
280,208,74841,2,0,P|256:360,1,150
160,240,75220,2,0,P|40:336,1,150
24,264,75504,1,0,0:0:0
24,264,75598,2,0,P|144:168,1,150
456,72,75977,5,0,0:0:0
360,192,76166,1,0,0:0:0
288,192,76261,1,0,0:0:0
216,192,76356,1,0,0:0:0
136,72,76545,1,0,0:0:0
72,208,76735,2,0,P|64:288|128:320,1,150
136,168,77113,2,0,P|208:248|280:232,1,150
56,72,77492,5,0,0:0:0
152,192,77681,1,0,0:0:0
224,192,77776,1,0,0:0:0
296,192,77871,1,0,0:0:0
376,72,78060,1,0,0:0:0
440,208,78250,2,0,P|448:288|384:320,1,150
376,168,78628,2,0,P|304:248|232:232,1,150
160,144,79007,6,0,P|40:48,1,150
96,192,79386,2,0,P|88:344,1,150
160,208,79765,2,0,P|312:248,1,150
448,200,80144,2,0,P|320:112,1,150
176,128,80522,2,0,P|80:256|104:304,2,225
336,128,81280,2,0,P|432:256|408:304,2,225
256,192,82037,5,0,0:0:0
152,80,82226,1,0,0:0:0
144,232,82416,1,0,0:0:0
232,112,82605,1,0,0:0:0
96,168,82794,1,0,0:0:0
200,280,82984,5,0,0:0:0
248,256,83079,1,0,0:0:0
208,224,83174,1,0,0:0:0
256,192,83363,5,0,0:0:0
256,40,83552,2,0,P|416:40,1,150
328,104,83931,2,0,P|480:104,1,150
256,40,84310,2,0,P|106:40,1,150
256,106,84688,1,0,0:0:0
256,256,84878,2,0,P|256:104,1,150
320,112,85256,5,0,0:0:0
192,168,85445,1,0,0:0:0
320,232,85635,1,0,0:0:0
192,232,85825,2,0,P|40:232,1,150
40,288,86109,1,0,0:0:0
40,344,86203,2,0,P|192:344,1,150
296,336,86582,2,0,P|384:328|368:224,1,150
352,184,86961,2,0,P|264:192|247:240,1,150
288,256,87245,1,0,0:0:0
336,264,87340,2,0,P|224:128,1,150
216,48,87718,5,0,0:0:0
128,104,87908,1,0,0:0:0
96,208,88097,1,0,0:0:0
96,312,88287,1,0,0:0:0
160,232,88476,1,0,0:0:0
56,264,88665,1,0,0:0:0
152,296,88855,1,0,0:0:0
256,272,89044,2,0,P|336:288|400:256,1,150
296,232,89423,2,0,P|288:160|192:112,1,150
128,104,89802,5,0,0:0:0
96,144,89896,1,0,0:0:0
88,200,89991,1,0,0:0:0
192,176,90180,1,0,0:0:0
248,168,90275,1,0,0:0:0
304,168,90370,2,0,P|400:208|416:288,2,150
304,64,90938,2,0,P|392:64|440:120,1,150
320,216,91506,1,0,0:0:0
232,192,91885,6,0,P|80:192,3,150
296,192,92642,1,0,0:0:0
312,128,92926,1,0,0:0:0
400,72,93210,1,0,0:0:0
296,56,93400,1,0,0:0:0
400,72,93589,1,0,0:0:0
368,136,93779,1,0,0:0:0
368,136,93874,1,0,0:0:0
368,136,93968,1,0,0:0:0
368,136,94063,1,0,0:0:0
368,136,94157,6,0,P|424:200|408:256,1,150
320,200,94536,2,0,P|160:200,1,150
80,144,94915,2,0,P|40:200|80:264,1,150
176,296,95294,2,0,P|256:328|320:304,1,150
368,168,95672,5,0,0:0:0
248,264,95862,1,0,0:0:0
400,264,96051,1,0,0:0:0
272,184,96241,1,0,0:0:0
328,96,96430,5,0,0:0:0
280,64,96525,1,0,0:0:0
248,104,96619,1,0,0:0:0
264,208,96809,5,0,0:0:0
312,240,96904,1,0,0:0:0
344,200,96998,1,0,0:0:0
440,152,97188,5,0,0:0:0
392,144,97282,1,0,0:0:0
344,136,97377,1,0,0:0:0
288,144,97472,1,0,0:0:0
240,168,97566,1,0,0:0:0
136,168,97756,6,0,P|56:168|40:96,1,150
136,216,98134,2,0,P|56:216|36:272,1,150
160,192,98513,2,0,P|312:192,1,150
312,256,98892,1,0,0:0:0
256,128,99081,1,0,0:0:0
192,256,99271,1,0,0:0:0
280,200,99460,6,0,P|360:192|416:240,1,150
336,312,99839,2,0,P|248:312|208:240,1,150
144,192,100218,1,0,0:0:0
96,176,100312,1,0,0:0:0
72,128,100407,1,0,0:0:0
96,80,100502,1,0,0:0:0
144,72,100596,2,0,P|232:64|296:80,1,150
384,136,100975,6,0,P|320:152|208:136,1,150
136,120,101354,2,0,P|64:192|80:256,1,150
168,272,101733,2,0,P|240:312|328:288,1,150
336,264,102017,1,0,0:0:0
344,216,102111,2,0,P|272:168|176:184,1,150
240,72,102490,2,0,P|320:72|376:112,1,150
272,128,102869,2,0,P|192:160|88:104,1,150
176,48,103248,5,0,0:0:0
136,80,103342,1,0,0:0:0
120,128,103437,1,0,0:0:0
144,176,103532,1,0,0:0:0
192,192,103626,2,0,P|280:216|296:280,1,150
400,288,104005,6,0,P|448:224|432:160,1,150
392,128,104289,1,0,0:0:0
352,160,104384,2,0,P|272:192|208:128,1,150
288,80,104763,1,0,0:0:0
208,152,104952,5,0,0:0:0
200,160,105047,1,0,0:0:0
192,168,105142,1,0,0:0:0
296,168,105331,1,0,0:0:0
296,176,105426,1,0,0:0:0
296,184,105520,1,0,0:0:0
392,144,105710,1,0,0:0:0
400,152,105804,1,0,0:0:0
408,160,105899,1,0,0:0:0
312,272,106088,5,0,0:0:0
192,280,106278,2,0,P|144:240|144:136,1,150
152,80,107035,2,0,P|216:40|288:40,1,150
312,112,107604,1,0,0:0:0
328,184,107793,2,0,P|248:216|184:208,1,150
280,328,108550,2,0,P|208:296|192:224,1,150
208,160,109119,1,0,0:0:0
272,120,109308,1,0,0:0:0
256,192,109876,5,0,0:0:0
408,192,110255,5,0,0:0:0
408,192,110350,1,0,0:0:0
408,192,110444,1,0,0:0:0
344,152,110634,1,0,0:0:0
344,232,110823,1,0,0:0:0
256,192,111391,5,0,0:0:0
312,80,111959,6,0,P|288:56|232:72,1,75
176,80,112338,2,0,P|136:104|136:136,1,75
128,200,112717,2,0,P|112:240|128:264,1,75
192,304,113096,2,0,P|240:320|264:312,1,75
336,288,113474,2,0,P|384:256|400:224,1,75
320,232,113853,2,0,P|352:208|368:176,1,75
296,176,114232,2,0,P|328:152|344:120,1,75
240,160,114611,2,0,P|208:120|168:112,1,75
256,200,114989,2,0,P|224:240|224:272,1,75
256,192,115368,5,0,0:0:0
256,192,115936,5,0,0:0:0
104,192,116315,5,0,0:0:0
104,192,116410,1,0,0:0:0
104,192,116504,1,0,0:0:0
168,152,116694,1,0,0:0:0
168,224,116883,1,0,0:0:0
256,192,117451,5,0,0:0:0
456,96,118020,5,0,0:0:0
344,96,118209,1,0,0:0:0
408,192,118398,1,0,0:0:0
296,192,118588,1,0,0:0:0
344,96,118777,1,0,0:0:0
232,96,118966,1,0,0:0:0
176,192,119156,2,0,P|136:120,1,75
232,192,119535,2,0,P|312:192,1,75
448,144,119913,5,0,0:0:0
224,344,120292,1,0,0:0:0
56,96,120671,1,0,0:0:0
336,200,121050,1,0,0:0:0
240,80,121428,5,0,0:0:0
312,88,121618,1,0,0:0:0
368,136,121807,1,0,0:0:0
376,208,121997,1,0,0:0:0
344,272,122186,1,0,0:0:0
304,272,122281,1,0,0:0:0
264,272,122375,1,0,0:0:0
224,272,122470,1,0,0:0:0
184,272,122565,1,0,0:0:0
144,272,122659,2,0,P|104:272,3,37.5
224,264,124838,6,0,P|224:112,1,150
256,72,125122,1,0,0:0:0
288,112,125217,2,0,P|288:264,1,150
328,320,125595,2,0,P|160:320,1,150
160,216,125974,5,0,0:0:0
192,112,126163,1,0,0:0:0
352,216,126353,1,0,0:0:0
320,112,126542,1,0,0:0:0
480,192,126732,6,0,P|320:192,1,150
256,192,127016,1,0,0:0:0
184,192,127110,2,0,P|24:192,1,150
184,256,127489,2,0,P|112:280|112:280|176:328,1,150
328,256,127868,2,0,P|400:280|400:280|336:328,1,150
224,136,128247,6,0,P|168:192|168:192|224:240,1,150
256,192,128531,1,0,0:0:0
280,136,128625,2,0,P|336:192|336:192|282:238,1,150,0|0,0:0|0:0,0:0:0
256,296,129004,2,0,P|256:144,1,150
288,88,129383,6,0,P|360:32|424:32,1,150
320,176,129762,2,0,P|384:144|472:160,1,150
288,272,130140,2,0,P|376:264|448:304,1,150
224,88,130519,2,0,P|152:32|88:32,1,150
192,176,130898,2,0,P|128:144|40:160,1,150
224,272,131276,2,0,P|136:264|64:304,1,150
120,336,131561,5,0,0:0:0
176,344,131656,2,0,P|272:344|272:344|304:272,1,150
320,176,132034,1,0,0:0:0
264,64,132224,1,0,0:0:0
208,56,132318,1,0,0:0:0
152,72,132413,1,0,0:0:0
88,176,132602,2,0,P|240:176,1,150
280,288,132981,5,0,0:0:0
336,304,133076,1,0,0:0:0
384,272,133171,1,0,0:0:0
408,152,133360,2,0,P|304:40,1,150
320,160,133739,2,0,P|160:128,1,150
240,232,134118,2,0,P|80:256,1,150
128,144,134496,2,0,P|184:88|272:88,1,150
288,192,134875,5,0,0:0:0
328,240,134970,1,0,0:0:0
384,224,135064,1,0,0:0:0
352,104,135254,2,0,P|416:264,1,150
312,168,135633,2,0,P|248:304,1,150
208,192,136011,2,0,P|88:288,1,150
56,168,136390,5,0,0:0:0
152,96,136579,1,0,0:0:0
208,80,136674,1,0,0:0:0
272,80,136769,1,0,0:0:0
384,120,136958,1,0,0:0:0
272,160,137148,2,0,P|88:144,1,150
216,224,137526,2,0,P|72:264,1,150
56,312,138095,5,0,0:0:0
152,192,138284,1,0,0:0:0
224,192,138379,1,0,0:0:0
296,192,138474,1,0,0:0:0
376,312,138663,1,0,0:0:0
440,176,138853,2,0,P|448:96|384:64,1,150
376,216,139231,2,0,P|304:136|232:152,1,150
456,312,139610,5,0,0:0:0
360,192,139799,1,0,0:0:0
288,192,139894,1,0,0:0:0
216,192,139989,1,0,0:0:0
136,312,140178,1,0,0:0:0
72,176,140368,2,0,P|64:96|128:64,1,150
136,216,140746,2,0,P|208:136|280:152,1,150
392,136,141125,6,0,P|472:136,2,75
288,136,141503,1,0,0:0:0
240,152,141598,1,0,0:0:0
216,200,141693,1,0,0:0:0
216,304,141882,2,0,P|136:304,2,75
320,304,142261,1,0,0:0:0
368,288,142356,1,0,0:0:0
384,240,142450,1,0,0:0:0
296,176,142640,5,0,0:0:0
272,128,142734,1,0,0:0:0
248,80,142829,1,0,0:0:0
184,160,143018,2,0,P|128:104|128:104|48:104,1,150
56,160,143303,1,0,0:0:0
56,216,143397,2,0,P|112:280|112:280|192:280,1,150
280,280,143776,2,0,P|152:192,1,150
456,312,144155,5,0,0:0:0
360,192,144344,1,0,0:0:0
288,192,144439,1,0,0:0:0
216,192,144534,1,0,0:0:0
136,312,144723,1,0,0:0:0
72,176,144913,2,0,P|64:96|128:64,1,150
136,216,145291,2,0,P|208:136|280:152,1,150
56,312,145670,5,0,0:0:0
152,192,145859,1,0,0:0:0
224,192,145954,1,0,0:0:0
296,192,146049,1,0,0:0:0
376,312,146238,1,0,0:0:0
440,176,146428,2,0,P|448:96|384:64,1,150
376,216,146806,2,0,P|304:136|232:152,1,150
168,128,147185,6,0,P|40:40,1,150
88,144,147564,2,0,P|48:288,1,150
128,224,147942,2,0,P|280:264,1,150
256,160,148321,1,0,0:0:0
256,56,148511,1,0,0:0:0
360,56,148700,2,0,P|360:208|272:224,2,225
152,56,149457,2,0,P|152:208|240:224,2,225
256,56,150215,5,0,0:0:0
312,56,150404,2,0,P|360:56|392:96,1,75
392,120,150783,1,0,0:0:0
408,168,150973,2,0,P|432:240,1,75
360,224,151351,2,0,P|328:304,1,75
280,312,151730,1,0,0:0:0
232,296,151919,1,0,0:0:0
192,264,152109,2,0,P|144:200,1,75
200,192,152488,2,0,P|192:104,1,75
232,88,152866,5,0,0:0:0
344,88,153056,1,0,0:0:0
344,200,153245,2,0,P|344:288,1,75
232,272,153624,2,0,P|152:272,1,75
160,160,154003,2,0,P|160:80,1,75
272,88,154381,5,0,0:0:0
272,200,154571,1,0,0:0:0
384,200,154760,1,0,0:0:0
384,88,154950,1,0,0:0:0
272,88,155139,6,0,P|192:88,1,75
192,200,155518,2,0,P|192:280,1,75
304,280,155896,2,0,P|400:280,1,75
232,280,156275,2,0,P|176:208,1,75
232,168,156654,1,0,0:0:0
344,168,156843,1,0,0:0:0
344,56,157033,1,0,0:0:0
240,56,157222,1,0,0:0:0
224,56,157317,1,0,0:0:0
208,56,157411,1,0,0:0:0
96,56,157601,5,0,0:0:0
96,168,157790,2,0,P|96:256,1,75
208,248,158169,1,0,0:0:0
320,248,158358,2,0,P|400:248,1,75
320,168,158737,2,0,P|400:168,1,75
320,80,159116,2,0,P|400:80,1,75
392,192,159495,1,0,0:0:0
336,192,159589,1,0,0:0:0
280,192,159684,1,0,0:0:0
168,192,159873,5,0,0:0:0
80,120,160063,2,0,P|80:40,1,75
192,48,160442,2,0,P|280:48,1,75
376,48,160820,2,0,P|456:48,1,75
456,152,161199,6,0,P|456:304,1,150
384,224,161578,2,0,P|264:328,1,150
272,216,161957,2,0,P|88:224,1,150
80,128,162335,5,0,0:0:0
128,88,162430,1,0,0:0:0
184,72,162525,1,0,0:0:0
240,72,162619,1,0,0:0:0
304,72,162714,1,0,0:0:0
280,280,162904,5,0,0:0:0
296,224,162998,1,0,0:0:0
336,176,163093,1,0,0:0:0
216,192,163282,5,0,0:0:0
248,144,163377,1,0,0:0:0
304,120,163472,1,0,0:0:0
424,104,163661,5,0,0:0:0
408,224,163850,2,0,P|400:304|312:320,1,150
320,208,164229,2,0,P|264:272|200:256,1,150
208,144,164608,2,0,P|136:176|64:104,1,150
48,96,164892,1,0,0:0:0
32,152,164987,2,0,P|96:232|176:208,1,150
256,232,165366,5,0,0:0:0
312,256,165460,1,0,0:0:0
368,264,165555,1,0,0:0:0
320,152,165744,1,0,0:0:0
376,176,165839,1,0,0:0:0
440,176,165934,1,0,0:0:0
368,80,166123,6,0,P|272:56|224:80,1,150
184,112,166407,1,0,0:0:0
152,160,166502,2,0,P|136:256|176:304,1,150
280,296,166881,2,0,P|432:296,1,150
432,176,167259,1,0,0:0:0
352,88,167449,1,0,0:0:0
232,56,167638,1,0,0:0:0
112,56,167827,5,0,0:0:0
96,112,167922,1,0,0:0:0
104,168,168017,1,0,0:0:0
208,112,168206,1,0,0:0:0
432,128,168396,5,0,0:0:0
384,88,168491,1,0,0:0:0
328,72,168586,1,0,0:0:0
272,72,168680,1,0,0:0:0
208,72,168775,1,0,0:0:0
232,280,168965,5,0,0:0:0
216,224,169059,1,0,0:0:0
176,176,169154,1,0,0:0:0
296,192,169343,5,0,0:0:0
264,144,169438,1,0,0:0:0
208,120,169533,1,0,0:0:0
88,104,169722,5,0,0:0:0
104,224,169911,2,0,P|112:304|200:320,1,150
192,208,170290,2,0,P|248:272|312:256,1,150
304,144,170669,2,0,P|376:176|448:104,1,150
464,96,170953,1,0,0:0:0
480,152,171048,2,0,P|416:232|336:208,1,150
256,232,171427,5,0,0:0:0
200,256,171521,1,0,0:0:0
144,264,171616,1,0,0:0:0
88,160,171805,5,0,0:0:0
144,56,171994,1,0,0:0:0
248,112,172183,1,0,0:0:0
192,216,172373,1,0,0:0:0
256,320,172562,1,0,0:0:0
256,200,172751,1,0,0:0:0
312,208,172941,2,0,P|392:184|392:184|392:40,2,225
200,208,173699,2,0,P|120:184|120:184|120:40,2,225
96,280,174456,5,0,0:0:0
216,296,174645,1,0,0:0:0
280,296,174740,1,0,0:0:0
336,288,174835,1,0,0:0:0
400,184,175024,1,0,0:0:0
376,64,175213,2,0,P|320:112|296:184,1,150
176,64,175592,2,0,P|216:152|264:184,1,150
416,104,175971,5,0,0:0:0
296,88,176160,1,0,0:0:0
232,88,176255,1,0,0:0:0
176,96,176350,1,0,0:0:0
112,200,176539,1,0,0:0:0
136,320,176728,2,0,P|192:272|216:200,1,150
336,320,177107,2,0,P|296:232|248:200,1,150
256,320,177486,5,0,0:0:0
256,200,177675,1,0,0:0:0
256,136,177770,1,0,0:0:0
256,72,177865,1,0,0:0:0
256,200,178054,1,0,0:0:0
328,192,178244,2,0,P|480:192,1,150
184,192,178622,2,0,P|32:192,1,150
32,128,179001,5,0,0:0:0
152,128,179190,2,0,P|240:128,2,75
152,248,179569,1,0,0:0:0
272,248,179759,1,0,0:0:0
272,128,179948,1,0,0:0:0
328,112,180043,1,0,0:0:0
384,128,180137,1,0,0:0:0
328,232,180327,1,0,0:0:0
224,176,180516,6,0,P|144:216|136:296,1,150
80,160,180895,2,0,P|56:240|72:304,1,150
192,296,181274,1,0,0:0:0
248,272,181368,1,0,0:0:0
264,216,181463,1,0,0:0:0
168,144,181652,1,0,0:0:0
208,96,181747,1,0,0:0:0
272,96,181842,1,0,0:0:0
392,104,182031,6,0,P|392:264,1,150
328,152,182410,2,0,P|328:304,1,150
192,296,182789,2,0,P|112:256|112:256|112:176|48:128,1,225
56,136,183167,1,0,0:0:0
256,264,183546,5,0,0:0:0
288,208,183641,1,0,0:0:0
288,144,183736,1,0,0:0:0
272,88,183830,1,0,0:0:0
424,184,184114,1,0,0:0:0
304,184,184304,1,0,0:0:0
272,184,184351,1,0,0:0:0
240,184,184398,1,0,0:0:0
208,184,184446,1,0,0:0:0
104,72,184682,5,0,0:0:0
104,312,184872,1,0,0:0:0
72,192,185061,2,0,P|136:152|136:152|136:72|232:48,2,225
440,192,185819,2,0,P|376:152|376:152|376:72|280:48,2,225
256,192,186576,1,0,0:0:0
64,328,186955,6,0,P|72:240|136:160,1,150
176,96,187334,1,0,0:0:0
232,72,187429,1,0,0:0:0
288,88,187523,1,0,0:0:0
368,304,187713,1,0,0:0:0
440,88,187902,1,0,0:0:0
248,200,188091,1,0,0:0:0
