osu file format v11

[General]
AudioFilename: Nightcore- A Gangnam Style Hurly Burly.mp3
AudioLeadIn: 0
PreviewTime: -1
Countdown: 1
SampleSet: Soft
StackLeniency: 0.7
Mode: 2
LetterboxInBreaks: 1

[Editor]
DistanceSpacing: 1.5
BeatDivisor: 4
GridSize: 8

[Metadata]
Title:A Gangnam Style Hurly Burly (Nightcore Mix)
TitleUnicode:A Gangnam Style Hurly Burly (Nightcore Mix)
Artist:PSY vs. Perfume
ArtistUnicode:PSY vs. Perfume
Creator:MeGl
Version:CTB
Source:
Tags:psy perfume wolfjkeee
BeatmapID:213359
BeatmapSetID:75536

[Difficulty]
HPDrainRate:6
CircleSize:4
OverallDifficulty:10
ApproachRate:9
SliderMultiplier:1.4
SliderTickRate:2

[Events]
//Background and Video events
0,0,"Perfume BG.jpg"
//Break Periods
//Storyboard Layer 0 (Background)
//Storyboard Layer 1 (Fail)
//Storyboard Layer 2 (Pass)
//Storyboard Layer 3 (Foreground)
//Storyboard Sound Samples
//Background Colour Transformations
3,100,163,162,255

[TimingPoints]
1740,378.76396692128,4,2,0,70,1,0
4391,-50,4,2,0,70,0,0
4580,-100,4,2,0,70,0,0
7042,-50,4,2,0,70,0,0
7610,-100,4,2,0,70,0,0
9694,-50,4,2,0,70,0,0
10640,-100,4,2,0,70,0,0
12345,-50,4,2,0,70,0,0
13860,-100,4,2,0,85,0,1
13955,-100,4,2,0,70,0,0
25980,-100,4,2,0,85,0,1
26170,-100,4,2,0,70,0,0
29011,-100,4,2,0,85,0,1
29579,-100,4,2,0,70,0,0
32230,-100,4,2,0,85,0,1
32419,-100,4,2,0,70,0,0
37911,-50,4,2,0,70,0,0
54861,-50,4,2,0,5,0,0
55145,-100,4,2,0,70,0,0
57228,-50,4,2,0,70,0,0
57418,-100,4,2,0,70,0,0
57797,-100,4,2,0,85,0,1
57986,-100,4,2,0,70,0,0
63857,-50,4,2,0,85,0,1
64046,-100,4,2,0,70,0,0
69917,-100,4,2,0,85,0,1
70864,-50,4,2,0,70,0,0
72568,-100,4,2,0,70,0,0
75977,-100,4,2,0,85,0,1
76735,-100,4,2,0,70,0,0
80522,-50,4,2,0,70,0,0
81848,-100,4,2,0,70,0,0
106088,-50,4,2,0,70,0,0
123039,-50,4,2,0,5,0,0
123323,-100,4,2,0,70,0,0
125406,-50,4,2,0,70,0,0
125974,-50,4,2,0,85,0,1
126163,-50,4,2,0,70,0,0
132065,-50,4,2,0,85,0,1
132224,-50,4,2,0,70,0,0
139799,-100,4,2,0,70,0,0
143397,-50,4,2,0,70,0,0
143965,-100,4,2,0,70,0,0
144155,-100,4,2,0,85,0,1
145670,-100,4,2,0,70,0,0
148700,-50,4,2,0,70,0,0
158927,-100,4,2,0,70,0,0
162335,-50,4,2,0,85,0,1
163282,-50,4,2,0,70,0,0
174645,-100,4,2,0,70,0,0

[Colours]
Combo1 : 64,128,128
Combo2 : 128,128,0
Combo3 : 170,170,255
Combo4 : 128,128,255
Combo5 : 0,0,255

[HitObjects]
64,192,1739,1,0,0:0:0
136,192,1929,1,2,0:0:0
416,192,2118,1,0,0:0:0
344,192,2308,1,2,0:0:0
136,120,2497,1,0,0:0:0
344,120,2686,6,0,P|416:120,1,70
136,120,3065,2,0,P|56:120,1,70,0|4,0:0|0:0,0:0:0
344,120,3444,1,2,0:0:0
136,120,3633,1,0,0:0:0
344,120,3823,1,2,0:0:0
136,192,4012,1,2,0:0:0
240,192,4107,1,2,0:0:0
344,192,4201,1,2,0:0:0
176,256,4391,6,0,P|328:256,1,140
376,192,4770,6,0,P|448:192,1,70,4|2,0:0|0:0,0:0:0
224,192,5148,2,0,P|296:192,1,70,0|2,0:0|0:0,0:0:0
72,192,5527,2,0,P|152:192,1,70,0|2,0:0|0:0,0:0:0
344,128,5906,5,2,0:0:0
256,128,6095,1,2,0:0:0
168,128,6285,1,4,0:0:0
416,192,6474,1,2,0:0:0
480,192,6663,1,0,0:0:0
168,192,6853,1,2,0:0:0
416,256,7042,6,0,P|488:256,2,70,2|0|2,0:0|0:0|0:0,0:0:0
168,256,7421,2,0,P|312:256,1,140
32,192,7800,5,6,0:0:0
176,192,7989,1,2,0:0:0
104,192,8178,1,0,0:0:0
248,192,8368,1,2,0:0:0
176,192,8557,1,0,0:0:0
320,192,8747,1,0,0:0:0
320,192,8936,6,2,P|392:192,1,70,0|2,0:0|0:0,0:0:0
176,192,9315,2,0,P|104:192,1,70,6|2,0:0|0:0,0:0:0
408,120,9694,6,2,P|480:120,2,70,2|0|2,0:0|0:0|0:0,0:0:0
176,120,10072,2,0,P|32:120,1,140,0|2,0:0|0:0,0:0:0
336,120,10451,2,0,P|480:120,1,140,0|2,0:0|0:0,0:0:0
256,192,10830,5,6,0:0:0
320,192,11019,2,0,P|320:112,1,70,2|0,0:0|0:0,0:0:0
144,192,11398,2,0,P|144:120,1,70,2|0,0:0|0:0,0:0:0
432,192,11777,2,0,P|432:120,1,70
112,144,12156,1,2,0:0:0
232,96,12345,6,0,P|16:96,2,210,4|0|0,0:0|0:0|0:0,0:0:0
280,96,13102,2,0,P|496:96,2,210,6|0|0,0:0|0:0|0:0,0:0:0
256,96,13860,1,2,0:0:0
104,192,14049,6,0,P|32:192,1,70,0|0,0:0|0:0,0:0:0
256,192,14428,1,2,0:0:0
408,192,14617,2,0,P|480:192,1,70,0|2,0:0|0:0,0:0:0
104,192,14996,2,0,P|104:264,1,70,0|2,0:0|0:0,0:0:0
256,192,15375,1,4,0:0:0
408,192,15564,2,0,P|408:272,1,70
256,192,15943,1,2,0:0:0
224,136,16133,6,0,P|144:136,1,70,10|2,0:0|0:0,0:0:0
328,136,16511,2,0,P|400:136,1,70,10|2,0:0|0:0,0:0:0
104,96,16890,2,0,P|32:96,1,70,10|0,0:0|0:0,0:0:0
480,96,17269,2,0,P|408:96,1,70,8|2,0:0|0:0,0:0:0
94,192,17648,6,0,P|24:192,1,70,0|0,0:0|0:0,0:0:0
256,192,17931,1,2,0:0:0
480,192,18026,1,0,0:0:0
352,192,18216,5,2,0:0:0
160,192,18405,1,4,0:0:0
352,192,18594,1,0,0:0:0
160,192,18784,1,0,0:0:0
352,128,18973,1,0,0:0:0
256,128,19068,1,0,0:0:0
160,128,19163,1,2,0:0:0
256,192,19352,1,0,0:0:0
32,64,19541,5,2,0:0:0
160,64,19731,1,0,0:0:0
288,64,19920,1,4,0:0:0
416,64,20110,1,0,0:0:0
352,64,20299,1,0,0:0:0
224,64,20488,1,2,0:0:0
96,64,20678,1,2,0:0:0
32,136,20867,6,0,P|104:136,1,70,2|8,0:0|0:0,0:0:0
480,144,21246,2,0,P|408:144,1,70,2|8,0:0|0:0,0:0:0
32,136,21625,2,0,P|112:136,1,70,2|8,0:0|0:0,0:0:0
480,144,22003,2,0,P|400:144,1,70,2|8,0:0|0:0,0:0:0
32,208,22382,5,2,0:0:0
256,208,22477,1,2,0:0:0
480,208,22572,1,8,0:0:0
480,272,22761,5,2,0:0:0
256,272,22856,1,2,0:0:0
32,272,22950,1,8,0:0:0
256,152,23329,5,0,0:0:0
32,104,23708,5,8,0:0:0
480,112,23897,1,2,0:0:0
32,104,24087,1,8,0:0:0
480,112,24276,1,2,0:0:0
104,104,24465,6,0,P|208:104,2,105,10|0|2,0:0|0:0|0:0,0:0:0
272,104,25223,1,2,0:0:0
392,104,25412,1,0,0:0:0
272,104,25602,1,2,0:0:0
328,160,25696,5,2,0:0:0
272,160,25791,1,2,0:0:0
328,160,25886,1,0,0:0:0
328,160,25980,2,0,P|408:160,1,70,4|2,0:0|0:0,0:0:0
152,160,26359,2,0,P|80:160,1,70,8|2,0:0|0:0,0:0:0
304,160,26738,2,0,P|224:160,1,70,8|2,0:0|0:0,0:0:0
456,160,27117,2,0,P|384:160,1,70,8|6,0:0|0:0,0:0:0
384,224,27495,5,4,0:0:0
320,224,27685,1,0,0:0:0
384,288,27874,5,0,0:0:0
256,288,28064,1,2,0:0:0
384,352,28253,5,8,0:0:0
192,344,28442,1,0,0:0:0
384,288,28632,5,8,0:0:0
128,288,28821,1,2,0:0:0
80,136,29011,5,4,0:0:0
144,136,29105,1,2,0:0:0
208,136,29200,1,2,0:0:0
272,136,29295,1,0,0:0:0
336,136,29389,2,0,P|416:136,1,70,8|0,0:0|0:0,0:0:0
104,200,29768,6,0,P|32:200,1,70,8|0,0:0|0:0,0:0:0
168,200,30147,1,2,0:0:0
336,200,30336,1,0,0:0:0
168,200,30526,1,6,0:0:0
336,200,30715,1,0,0:0:0
400,200,30904,6,0,P|472:200,1,70,0|2,0:0|0:0,0:0:0
112,200,31283,2,0,P|32:200,1,70,0|8,0:0|0:0,0:0:0
208,200,31662,1,8,0:0:0
304,200,31757,1,2,0:0:0
208,200,31851,1,2,0:0:0
304,200,31946,1,2,0:0:0
256,200,32041,6,0,P|256:120,1,70,4|0,0:0|0:0,0:0:0
256,72,32419,1,0,0:0:0
208,144,32609,6,0,P|136:144,1,70,0|8,0:0|0:0,0:0:0
304,144,32988,2,0,P|376:144,1,70,0|8,0:0|0:0,0:0:0
144,144,33366,6,0,P|72:144,1,70,0|12,0:0|0:0,0:0:0
368,144,33745,2,0,P|440:144,1,70
104,144,34124,6,0,P|32:144,1,70,2|10,0:0|0:0,0:0:0
408,144,34503,2,2,P|480:144,1,70,2|10,0:0|0:0,0:0:0
480,192,34881,1,0,0:0:0
256,192,34976,1,0,0:0:0
32,192,35071,1,6,0:0:0
480,128,35260,1,0,0:0:0
32,128,35449,1,0,0:0:0
96,128,35828,6,0,P|184:128,1,70,8|0,0:0|0:0,0:0:0
384,128,36207,1,8,0:0:0
224,128,36396,1,0,0:0:0
384,128,36586,1,12,0:0:0
312,200,36775,5,2,0:0:0
376,200,36870,1,2,0:0:0
440,200,36965,1,8,0:0:0
80,200,37154,5,2,0:0:0
144,200,37249,1,2,0:0:0
208,200,37343,1,8,0:0:0
448,80,37533,5,2,0:0:0
384,80,37627,1,2,0:0:0
320,80,37722,1,8,0:0:0
64,72,37911,1,0,0:0:0
272,72,38101,6,0,P|56:72,2,210,4|2|0,0:0|0:0|0:0,0:0:0
160,192,38858,2,0,P|320:192,3,140,0|2|2|0,0:0|0:0|0:0|0:0,0:0:0
336,192,39616,2,0,P|480:192,1,140,6|0,0:0|0:0,0:0:0
176,192,39995,2,0,P|32:192,1,140,0|2,0:0|0:0,0:0:0
472,152,40373,2,0,P|328:152,1,140
40,152,40752,2,0,P|192:152,1,140,0|0,0:0|0:0,0:0:0
472,88,41131,6,2,P|392:88,2,70,8|0|0,0:0|0:0|0:0,0:0:0
40,88,41510,6,0,P|120:88,2,70,8|0|2,0:0|0:0|0:0,0:0:0
472,88,41888,6,0,P|392:88,2,70,8|0|2,0:0|0:0|0:0,0:0:0
40,88,42267,6,0,P|120:88,2,70,8|0|2,0:0|0:0|0:0,0:0:0
312,216,42646,5,8,0:0:0
360,184,42741,1,0,0:0:0
400,144,42835,1,2,0:0:0
200,216,43025,5,8,0:0:0
152,184,43120,1,0,0:0:0
112,144,43214,1,2,0:0:0
312,216,43404,5,8,0:0:0
360,184,43499,1,0,0:0:0
400,144,43593,1,2,0:0:0
200,216,43783,5,8,0:0:0
152,184,43878,1,0,0:0:0
112,144,43972,1,2,0:0:0
256,208,44161,6,0,P|256:56,1,140,12|2,0:0|0:0,0:0:0
384,216,44540,2,0,P|456:216|456:216|368:216,1,140,8|2,0:0|0:0,0:0:0
128,216,44919,2,0,P|56:216|56:216|124:216,1,140,8|2,0:0|0:0,0:0:0
384,216,45297,2,0,P|456:216|456:216|368:216,1,140,8|2,0:0|0:0,0:0:0
128,216,45676,2,0,P|56:216|56:216|124:216,1,140,8|2,0:0|0:0,0:0:0
336,160,46055,2,0,P|480:160,1,140,8|2,0:0|0:0,0:0:0
176,160,46434,2,0,P|32:160,1,140,8|2,0:0|0:0,0:0:0
336,160,46812,2,0,P|480:160,1,140,8|2,0:0|0:0,0:0:0
176,160,47191,2,0,P|32:160,1,140,8|2,0:0|0:0,0:0:0
256,264,47759,6,0,P|256:120,1,140,0|2,0:0|0:0,0:0:0
32,64,48138,1,2,0:0:0
256,64,48233,1,2,0:0:0
480,64,48327,1,8,0:0:0
256,192,48517,1,0,0:0:0
184,136,48706,2,6,P|336:136,1,140
256,328,49274,6,0,P|256:184,1,140,2|8,0:0|0:0,0:0:0
256,192,49843,5,8,0:0:0
192,192,50032,1,0,0:0:0
320,192,50221,1,12,0:0:0
128,192,50411,1,0,0:0:0
384,192,50600,1,8,0:0:0
64,192,50789,1,0,0:0:0
448,192,50979,1,12,0:0:0
32,136,51168,1,0,0:0:0
480,136,51358,1,8,0:0:0
32,136,51547,1,0,0:0:0
336,136,51736,6,0,P|440:32,1,140,12|0,0:0|0:0,0:0:0
176,136,52115,2,0,P|80:24,1,140,12|0,0:0|0:0,0:0:0
336,136,52494,6,0,P|440:32,1,140,12|0,0:0|0:0,0:0:0
176,136,52873,2,0,P|80:24,1,140,12|0,0:0|0:0,0:0:0
480,192,53251,1,12,0:0:0
32,192,53441,1,12,0:0:0
480,192,53630,1,12,0:0:0
32,192,53820,1,12,0:0:0
216,192,54009,5,8,0:0:0
296,192,54104,1,0,0:0:0
216,192,54198,1,2,0:0:0
296,192,54293,1,0,0:0:0
216,192,54388,1,8,0:0:0
296,192,54482,1,0,0:0:0
216,192,54577,1,2,0:0:0
296,192,54672,1,0,0:0:0
256,192,54766,2,0,P|256:336,1,140,14|0,0:0|0:0,0:0:0
192,192,56660,6,0,P|272:192,1,70
416,192,57039,1,8,0:0:0
192,128,57228,2,0,P|48:128,1,140,8|2,0:0|0:0,0:0:0
416,256,57797,5,6,0:0:0
120,256,57986,1,2,0:0:0
264,256,58081,1,2,0:0:0
192,256,58175,1,2,0:0:0
360,128,58365,1,0,0:0:0
192,128,58554,2,0,P|120:128,1,70,8|2,0:0|0:0,0:0:0
360,128,58933,2,0,P|280:128,1,70,8|2,0:0|0:0,0:0:0
96,256,59312,5,6,0:0:0
392,256,59501,1,2,0:0:0
248,256,59596,1,0,0:0:0
320,256,59690,1,8,0:0:0
152,128,59880,1,0,0:0:0
320,128,60069,2,0,P|392:128,1,70,8|2,0:0|0:0,0:0:0
152,128,60448,2,0,P|232:128,1,70,8|2,0:0|0:0,0:0:0
480,128,60827,1,6,0:0:0
160,192,61016,5,2,0:0:0
96,192,61111,1,0,0:0:0
32,192,61205,1,8,0:0:0
472,200,61395,5,2,0:0:0
408,200,61490,1,0,0:0:0
344,200,61584,1,8,0:0:0
320,144,61774,5,2,0:0:0
256,144,61868,1,0,0:0:0
192,144,61963,1,8,0:0:0
256,128,62152,5,0,0:0:0
32,192,62342,2,0,P|32:112,1,70,12|2,0:0|0:0,0:0:0
480,200,62720,2,0,P|480:120,1,70,8|2,0:0|0:0,0:0:0
32,192,63099,2,0,P|32:112,1,70,8|2,0:0|0:0,0:0:0
256,192,63383,1,0,0:0:0
480,200,63477,2,0,P|480:120,1,70,8|2,0:0|0:0,0:0:0
184,144,63857,6,0,P|328:144,1,140,6|0,0:0|0:0,0:0:0
160,192,64236,2,0,P|104:136,1,70,6|0,0:0|0:0,0:0:0
352,192,64614,2,0,P|401:142,1,70,6|0,0:0|0:0,0:0:0
72,200,64993,2,0,P|120:136,1,70,6|0,0:0|0:0,0:0:0
440,200,65372,2,0,P|392:136,1,70,6|0,0:0|0:0,0:0:0
128,192,65751,5,8,0:0:0
256,192,65940,1,0,0:0:0
384,192,66129,1,8,0:0:0
24,192,66318,1,2,0:0:0
256,192,66413,1,0,0:0:0
480,192,66508,1,8,0:0:0
480,136,66698,6,0,P|480:64,1,70,0|12,0:0|0:0,0:0:0
24,128,67076,2,0,P|24:48,1,70,0|12,0:0|0:0,0:0:0
176,128,67455,2,0,P|96:128,1,70,0|12,0:0|0:0,0:0:0
328,128,67834,2,0,P|232:128,1,70,0|12,0:0|0:0,0:0:0
480,128,68213,2,0,P|408:128,1,70,0|12,0:0|0:0,0:0:0
480,192,68591,5,2,0:0:0
256,192,68686,1,0,0:0:0
32,192,68781,1,8,0:0:0
136,144,68970,2,0,P|168:144,4,17.5,2|0|2|0|8,0:0|0:0|0:0|0:0|0:0,0:0:0
392,144,69349,2,2,P|360:144,4,17.5,2|2|2|2|10,0:0|0:0|0:0|0:0|0:0,0:0:0
256,192,69917,5,14,0:0:0
480,192,70106,1,2,0:0:0
368,192,70201,1,0,0:0:0
256,192,70296,1,8,0:0:0
32,192,70485,1,2,0:0:0
136,192,70580,1,0,0:0:0
256,192,70675,1,8,0:0:0
304,144,70864,6,0,P|448:144,1,140,0|8,0:0|0:0,0:0:0
208,144,71243,2,0,P|64:144,1,140,0|8,0:0|0:0,0:0:0
480,144,71621,2,2,P|336:144,1,140
32,144,72000,2,2,P|176:144,1,140
384,88,72379,5,2,0:0:0
256,88,72474,1,0,0:0:0
136,88,72568,1,8,0:0:0
256,192,72947,5,6,0:0:0
480,192,73137,5,2,0:0:0
448,192,73231,1,0,0:0:0
480,192,73326,1,8,0:0:0
24,192,73515,5,2,0:0:0
56,192,73610,1,0,0:0:0
24,192,73705,1,8,0:0:0
320,192,73894,5,2,0:0:0
416,192,73989,1,0,0:0:0
368,192,74083,1,8,0:0:0
192,192,74273,5,2,0:0:0
96,192,74367,1,0,0:0:0
144,192,74462,1,8,0:0:0
320,136,74652,6,0,P|376:88,1,70,2|8,0:0|0:0,0:0:0
88,136,75030,2,0,P|32:88,1,70,2|8,0:0|0:0,0:0:0
264,136,75314,1,0,0:0:0
464,144,75409,2,0,P|416:88,1,70,2|10,0:0|0:0,0:0:0
320,192,75977,5,6,0:0:0
320,192,76072,1,0,0:0:0
160,192,76167,1,2,0:0:0
160,192,76261,1,0,0:0:0
400,192,76356,1,8,0:0:0
400,192,76451,1,0,0:0:0
72,192,76545,1,2,0:0:0
72,192,76640,1,0,0:0:0
320,136,76735,5,8,0:0:0
369,119,76829,1,0,0:0:0
412,88,76924,1,2,0:0:0
438,42,77019,1,0,0:0:0
385,42,77114,1,8,0:0:0
332,41,77208,1,0,0:0:0
279,41,77303,1,2,0:0:0
226,42,77398,1,0,0:0:0
176,40,77492,6,12,P|128:40,3,35,10|12|2|12,0:0|0:0|0:0|0:0,0:0:0
352,192,77871,6,0,P|304:192,3,35,8|0|2|0,0:0|0:0|0:0|0:0,0:0:0
64,192,78250,6,0,P|96:192,8,17.5,8|0|0|2|2|2|0|0|10,0:0|0:0|0:0|0:0|0:0|0:0|0:0|0:0|0:0,0:0:0
480,192,79007,5,14,0:0:0
32,192,79575,1,0,0:0:0
480,192,79954,1,2,0:0:0
32,192,80333,1,0,0:0:0
272,192,80522,2,0,P|488:192,2,210,8|0|2,0:0|0:0|0:0,0:0:0
240,192,81280,2,0,P|24:192,2,210,8|0|2,0:0|0:0|0:0,0:0:0
256,96,82037,1,6,0:0:0
408,192,82226,6,2,P|480:192,1,70,2|10,0:0|0:0,0:0:0
256,192,82606,1,0,0:0:0
104,192,82794,2,0,P|32:192,1,70,8|2,0:0|0:0,0:0:0
408,192,83173,2,0,P|408:264,1,70,8|2,0:0|0:0,0:0:0
256,192,83552,1,12,0:0:0
104,192,83741,2,0,P|104:272,1,70,2|8,0:0|0:0,0:0:0
256,192,84120,1,2,0:0:0
288,136,84310,6,0,P|368:136,1,70,8|2,0:0|0:0,0:0:0
184,128,84688,2,0,P|112:128,1,70,8|2,0:0|0:0,0:0:0
408,96,85067,2,0,P|480:96,1,70,12|2,0:0|0:0,0:0:0
32,96,85446,2,0,P|104:96,1,70,8|2,0:0|0:0,0:0:0
418,192,85825,6,0,P|488:192,1,70,8|2,0:0|0:0,0:0:0
256,192,86108,1,0,0:0:0
32,192,86203,1,8,0:0:0
160,192,86393,5,2,0:0:0
352,192,86582,1,6,0:0:0
160,192,86771,1,2,0:0:0
352,192,86961,1,6,0:0:0
160,128,87150,1,2,0:0:0
256,128,87245,1,0,0:0:0
352,128,87340,1,8,0:0:0
256,192,87529,1,2,0:0:0
480,64,87718,5,8,0:0:0
352,64,87908,1,2,0:0:0
224,64,88097,1,12,0:0:0
96,64,88287,1,2,0:0:0
160,64,88476,1,8,0:0:0
288,64,88665,1,2,0:0:0
416,64,88855,1,8,0:0:0
480,136,89045,6,0,P|408:136,1,70,2|8,0:0|0:0,0:0:0
32,144,89423,2,0,P|104:144,1,70,2|12,0:0|0:0,0:0:0
480,136,89802,2,0,P|400:136,1,70,2|8,0:0|0:0,0:0:0
32,144,90180,2,2,P|112:144,1,70,2|8,0:0|0:0,0:0:0
480,208,90559,5,2,0:0:0
256,208,90654,1,0,0:0:0
32,208,90749,1,8,0:0:0
32,272,90938,5,2,0:0:0
256,272,91033,1,0,0:0:0
480,272,91128,1,12,0:0:0
256,152,91506,5,8,0:0:0
480,104,91885,5,8,0:0:0
32,112,92074,1,2,0:0:0
480,104,92264,1,8,0:0:0
32,112,92453,1,2,0:0:0
408,104,92642,6,0,P|304:104,2,105,12|0|2,0:0|0:0|0:0,0:0:0
240,104,93400,1,8,0:0:0
120,104,93589,1,0,0:0:0
240,104,93779,1,8,0:0:0
184,160,93874,5,0,0:0:0
240,160,93968,1,2,0:0:0
184,160,94063,1,0,0:0:0
184,160,94157,2,0,P|104:160,1,70,12|2,0:0|0:0,0:0:0
360,160,94536,2,0,P|432:160,1,70,8|2,0:0|0:0,0:0:0
208,160,94915,2,0,P|288:160,1,70,8|2,0:0|0:0,0:0:0
56,160,95294,2,0,P|128:160,1,70,8|2,0:0|0:0,0:0:0
128,224,95672,5,12,0:0:0
192,224,95862,1,2,0:0:0
128,288,96051,5,8,0:0:0
256,288,96241,1,0,0:0:0
128,352,96430,5,8,0:0:0
320,344,96619,1,2,0:0:0
128,288,96809,5,8,0:0:0
384,288,96998,1,0,0:0:0
432,136,97188,5,12,0:0:0
368,136,97282,1,0,0:0:0
304,136,97377,1,2,0:0:0
240,136,97472,1,0,0:0:0
176,136,97566,2,0,P|96:136,1,70,8|2,0:0|0:0,0:0:0
408,200,97945,6,0,P|480:200,1,70,8|2,0:0|0:0,0:0:0
344,200,98324,1,8,0:0:0
176,200,98513,1,2,0:0:0
344,200,98703,1,12,0:0:0
176,200,98892,1,2,0:0:0
112,200,99081,6,0,P|40:200,1,70,8|2,0:0|0:0,0:0:0
400,200,99460,2,0,P|480:200,1,70,8|2,0:0|0:0,0:0:0
304,200,99839,1,8,0:0:0
208,200,99934,1,0,0:0:0
304,200,100028,1,2,0:0:0
208,200,100123,1,0,0:0:0
256,200,100218,6,0,P|256:120,1,70,12|2,0:0|0:0,0:0:0
256,72,100596,1,8,0:0:0
304,144,100786,6,0,P|376:144,1,70,2|8,0:0|0:0,0:0:0
208,144,101165,2,0,P|136:144,1,70,2|8,0:0|0:0,0:0:0
368,144,101543,6,0,P|440:144,1,70,2|12,0:0|0:0,0:0:0
144,144,101922,2,0,P|72:144,1,70,2|8,0:0|0:0,0:0:0
408,144,102301,6,0,P|480:144,1,70,2|8,0:0|0:0,0:0:0
104,144,102680,2,0,P|32:144,1,70,2|8,0:0|0:0,0:0:0
32,192,103058,1,2,0:0:0
256,192,103153,1,0,0:0:0
480,192,103248,1,12,0:0:0
32,128,103438,1,0,0:0:0
480,128,103626,1,8,0:0:0
416,128,104005,6,0,P|328:128,1,70,8|2,0:0|0:0,0:0:0
128,128,104384,1,8,0:0:0
288,128,104573,1,0,0:0:0
128,128,104763,1,8,0:0:0
200,200,104952,5,2,0:0:0
136,200,105047,1,0,0:0:0
72,200,105142,1,8,0:0:0
432,200,105331,5,2,0:0:0
368,200,105426,1,0,0:0:0
304,200,105520,1,8,0:0:0
64,80,105710,5,2,0:0:0
128,80,105804,1,0,0:0:0
192,80,105899,1,8,0:0:0
448,72,106088,1,2,0:0:0
240,72,106278,6,0,P|456:72,2,210,12|0|2,0:0|0:0|0:0,0:0:0
352,192,107035,2,0,P|192:192,3,140,8|2|8|2,0:0|0:0|0:0|0:0,0:0:0
176,192,107793,2,0,P|32:192,1,140,8|2,0:0|0:0,0:0:0
336,192,108172,2,0,P|480:192,1,140,8|0,0:0|0:0,0:0:0
40,152,108550,2,0,P|184:152,1,140,8|2,0:0|0:0,0:0:0
472,152,108929,2,0,P|320:152,1,140,8|2,0:0|0:0,0:0:0
40,88,109308,6,0,P|120:88,2,70,12|0|2,0:0|0:0|0:0,0:0:0
472,88,109687,6,0,P|392:88,2,70,8|0|2,0:0|0:0|0:0,0:0:0
40,88,110065,6,0,P|120:88,2,70,8|0|2,0:0|0:0|0:0,0:0:0
472,88,110444,6,0,P|392:88,2,70,8|0|2,0:0|0:0|0:0,0:0:0
200,216,110823,5,12,0:0:0
152,184,110918,1,0,0:0:0
112,144,111012,1,2,0:0:0
312,216,111202,5,8,0:0:0
360,184,111297,1,0,0:0:0
400,144,111391,1,2,0:0:0
200,216,111581,5,8,0:0:0
152,184,111676,1,0,0:0:0
112,144,111770,1,2,0:0:0
312,216,111960,5,8,0:0:0
360,184,112055,1,0,0:0:0
400,144,112149,1,2,0:0:0
256,208,112338,6,0,P|256:56,1,140,12|2,0:0|0:0,0:0:0
128,216,112717,2,0,P|56:216|56:216|144:216,1,140,8|0,0:0|0:0,0:0:0
384,216,113096,2,0,P|456:216|456:216|388:216,1,140,8|2,0:0|0:0,0:0:0
128,216,113475,2,0,P|56:216|56:216|144:216,1,140,8|0,0:0|0:0,0:0:0
384,216,113853,2,0,P|456:216|456:216|388:216,1,140,8|2,0:0|0:0,0:0:0
176,160,114232,2,0,P|32:160,1,140,8|0,0:0|0:0,0:0:0
336,160,114611,2,0,P|480:160,1,140,8|2,0:0|0:0,0:0:0
176,160,114989,2,0,P|32:160,1,140,8|0,0:0|0:0,0:0:0
336,160,115369,2,0,P|480:160,1,140,8|2,0:0|0:0,0:0:0
256,264,115936,6,0,P|256:120,1,140,2|10,0:0|0:0,0:0:0
480,64,116315,1,2,0:0:0
256,64,116410,1,0,0:0:0
32,64,116504,1,8,0:0:0
256,192,116694,1,2,0:0:0
328,136,116883,2,0,P|176:136,1,140,12|2,0:0|0:0,0:0:0
256,328,117451,6,0,P|256:184,1,140,2|8,0:0|0:0,0:0:0
256,192,118020,5,8,0:0:0
320,192,118209,1,2,0:0:0
192,192,118398,1,12,0:0:0
384,192,118588,1,0,0:0:0
128,192,118777,1,8,0:0:0
448,192,118966,1,2,0:0:0
64,192,119156,1,8,0:0:0
480,136,119345,1,0,0:0:0
32,136,119535,1,8,0:0:0
480,136,119724,1,2,0:0:0
176,136,119913,6,0,P|72:32,1,140,12|2,0:0|0:0,0:0:0
336,136,120292,2,0,P|432:24,1,140,12|2,0:0|0:0,0:0:0
176,136,120671,6,0,P|72:32,1,140,12|2,0:0|0:0,0:0:0
336,136,121050,2,0,P|432:24,1,140,12|2,0:0|0:0,0:0:0
32,192,121428,1,12,0:0:0
480,192,121618,1,12,0:0:0
32,192,121807,1,12,0:0:0
480,192,121997,1,12,0:0:0
296,192,122186,5,8,0:0:0
216,192,122281,1,0,0:0:0
296,192,122375,1,2,0:0:0
216,192,122470,1,0,0:0:0
296,192,122565,1,8,0:0:0
216,192,122659,1,0,0:0:0
296,192,122754,1,2,0:0:0
216,192,122849,1,0,0:0:0
256,192,122944,2,12,P|256:336,1,140,14|0,0:0|0:0,0:0:0
288,192,124838,6,0,P|360:192,1,70,2|0,0:0|0:0,0:0:0
480,192,125217,1,8,0:0:0
216,192,125406,1,2,0:0:0
32,192,125501,1,0,0:0:0
216,192,125595,1,8,0:0:0
480,192,125785,2,0,P|336:192,1,140,2|12,0:0|0:0,0:0:0
480,128,126163,6,2,P|320:128,1,140,2|8,0:0|0:0,0:0:0
448,192,126542,2,0,P|304:192,1,140,2|8,0:0|0:0,0:0:0
424,256,126921,2,0,P|280:256,1,140,2|8,0:0|0:0,0:0:0
24,192,127300,1,0,0:0:0
480,192,127489,2,0,P|328:192,1,140,12|2,0:0|0:0,0:0:0
24,192,127868,2,0,P|176:192,1,140,8|2,0:0|0:0,0:0:0
480,192,128247,5,8,0:0:0
24,192,128436,1,2,0:0:0
24,192,128531,1,0,0:0:0
24,192,128625,1,8,0:0:0
480,192,128815,1,0,0:0:0
96,192,129004,2,0,P|168:192|168:192|88:192,1,140,12|2,0:0|0:0,0:0:0
400,192,129383,2,0,P|328:192|328:192|416:192,1,140,8|0,0:0|0:0,0:0:0
96,136,129762,6,0,P|24:16,1,140
400,136,130140,2,0,P|488:16,1,140,8|2,0:0|0:0,0:0:0
32,192,130519,1,8,0:0:0
256,192,130614,1,0,0:0:0
480,192,130709,1,2,0:0:0
480,256,130898,1,2,0:0:0
256,256,130993,1,0,0:0:0
32,256,131087,1,2,0:0:0
32,128,131277,5,8,0:0:0
480,128,131466,1,0,0:0:0
32,128,131656,1,8,0:0:0
480,128,131845,1,0,0:0:0
32,192,132034,6,0,P|104:192,2,70,12|0|2,0:0|0:0|0:0,0:0:0
480,192,132413,6,0,P|400:192,2,70,8|0|2,0:0|0:0|0:0,0:0:0
480,256,132792,5,8,0:0:0
32,256,132981,1,2,0:0:0
480,256,133171,1,8,0:0:0
32,256,133360,1,2,0:0:0
328,256,133549,6,0,P|176:256,1,140,12|2,0:0|0:0,0:0:0
256,256,133928,1,8,0:0:0
32,192,134307,5,6,0:0:0
480,192,134496,1,6,0:0:0
32,192,134686,1,6,0:0:0
480,192,134875,1,6,0:0:0
184,192,135064,6,0,P|336:192,1,140,12|2,0:0|0:0,0:0:0
328,128,135443,2,0,P|184:128,1,140,8|0,0:0|0:0,0:0:0
256,248,135822,2,0,P|408:248,1,140,8|2,0:0|0:0,0:0:0
192,64,136201,2,0,P|48:64,1,140,8|0,0:0|0:0,0:0:0
256,192,136579,1,12,0:0:0
32,192,136769,1,2,0:0:0
256,192,136864,1,0,0:0:0
480,192,136958,1,8,0:0:0
256,128,137148,5,2,0:0:0
336,128,137337,2,0,P|480:128,1,140,8|2,0:0|0:0,0:0:0
176,128,137716,2,0,P|16:128,1,140,8|2,0:0|0:0,0:0:0
256,192,138095,5,12,0:0:0
32,192,138285,5,2,0:0:0
64,192,138379,1,0,0:0:0
32,192,138473,1,8,0:0:0
488,192,138663,5,2,0:0:0
456,192,138758,1,0,0:0:0
488,192,138852,1,8,0:0:0
192,192,139042,5,2,0:0:0
96,192,139137,1,0,0:0:0
144,192,139231,1,8,0:0:0
320,192,139421,5,2,0:0:0
416,192,139515,1,0,0:0:0
368,192,139610,1,12,0:0:0
192,136,139800,6,0,P|138:90,1,70,2|8,0:0|0:0,0:0:0
424,136,140178,2,0,P|477:90,1,70,2|8,0:0|0:0,0:0:0
248,136,140462,1,0,0:0:0
48,144,140557,2,0,P|93:90,1,70,2|8,0:0|0:0,0:0:0
32,224,141125,6,0,P|32:152,1,70,12|2,0:0|0:0,0:0:0
480,224,141503,2,0,P|480:152,1,70,8|0,0:0|0:0,0:0:0
32,224,141882,6,0,P|32:152,1,70,8|2,0:0|0:0,0:0:0
480,224,142260,2,0,P|480:152,1,70,8|0,0:0|0:0,0:0:0
32,224,142640,6,0,P|32:152,1,70,12|2,0:0|0:0,0:0:0
256,192,142924,1,0,0:0:0
480,224,143018,2,0,P|480:152,1,70,8|0,0:0|0:0,0:0:0
192,192,143397,6,0,P|48:192,1,140,8|2,0:0|0:0,0:0:0
320,192,143776,2,0,P|464:192,1,140,8|2,0:0|0:0,0:0:0
160,144,144155,5,12,0:0:0
128,144,144249,1,0,0:0:0
344,144,144344,1,2,0:0:0
376,144,144439,1,0,0:0:0
160,144,144534,5,8,0:0:0
128,144,144628,1,0,0:0:0
344,144,144723,1,2,0:0:0
376,144,144818,1,0,0:0:0
160,144,144912,5,8,0:0:0
128,144,145006,1,0,0:0:0
344,144,145101,1,2,0:0:0
376,144,145196,1,0,0:0:0
160,144,145291,5,8,0:0:0
128,144,145385,1,0,0:0:0
344,144,145480,1,2,0:0:0
376,144,145575,1,0,0:0:0
480,192,145670,6,0,P|408:192,1,70,12|2,0:0|0:0,0:0:0
256,192,146049,1,8,0:0:0
32,192,146239,2,0,P|120:192,1,70,2|8,0:0|0:0,0:0:0
256,192,146806,1,0,0:0:0
392,192,147185,5,12,0:0:0
128,192,147753,1,2,0:0:0
480,192,148132,1,0,0:0:0
32,192,148511,1,2,0:0:0
272,192,148700,2,0,P|488:192,2,210,12|0|2,0:0|0:0|0:0,0:0:0
240,192,149457,2,0,P|16:192,2,210,8|0|2,0:0|0:0|0:0,0:0:0
32,128,150215,6,0,P|176:128,1,140,6|2,0:0|0:0,0:0:0
480,136,150594,1,8,0:0:0
32,192,151162,5,2,0:0:0
224,192,151351,1,8,0:0:0
432,192,151541,1,2,0:0:0
224,192,151730,1,12,0:0:0
432,192,151919,1,2,0:0:0
32,192,152109,1,8,0:0:0
32,128,152866,5,8,0:0:0
344,120,153056,1,2,0:0:0
408,120,153150,1,0,0:0:0
472,120,153245,1,12,0:0:0
144,120,153434,1,2,0:0:0
208,120,153529,1,0,0:0:0
272,120,153624,1,12,0:0:0
472,192,153813,1,0,0:0:0
24,192,154003,2,0,P|176:192,1,140,8|2,0:0|0:0,0:0:0
472,192,154381,1,8,0:0:0
336,192,154760,6,0,P|476:192,1,140,12|2,0:0|0:0,0:0:0
24,192,155139,1,8,0:0:0
24,192,156275,5,12,0:0:0
224,192,156465,1,2,0:0:0
24,192,156654,1,8,0:0:0
288,192,157222,5,2,0:0:0
424,192,157411,1,8,0:0:0
288,192,157601,1,2,0:0:0
424,192,157790,1,12,0:0:0
288,192,157980,1,2,0:0:0
152,192,158169,1,8,0:0:0
224,192,158927,6,0,P|224:112,1,70,12|2,0:0|0:0,0:0:0
344,192,159305,2,0,P|344:120,1,70,8|0,0:0|0:0,0:0:0
104,192,159684,2,0,P|104:120,1,70,8|2,0:0|0:0,0:0:0
456,192,160063,2,0,P|456:120,1,70,8|0,0:0|0:0,0:0:0
32,192,160442,2,0,P|32:112,1,70,8|2,0:0|0:0,0:0:0
480,192,160820,6,0,P|400:192,2,70,12|2|8,0:0|0:0|0:0,0:0:0
32,192,161389,1,2,0:0:0
256,192,161483,1,0,0:0:0
480,192,161578,1,8,0:0:0
32,192,161767,5,2,0:0:0
480,192,161957,1,8,0:0:0
256,192,162146,1,2,0:0:0
32,128,162335,6,0,P|104:128,2,70,12|0|2,0:0|0:0|0:0,0:0:0
160,128,162619,5,0,0:0:0
288,128,162714,6,0,P|216:128,2,70,12|0|2,0:0|0:0|0:0,0:0:0
352,128,162998,5,0,0:0:0
480,128,163093,6,0,P|408:128,2,70,12|0|2,0:0|0:0|0:0,0:0:0
480,192,163472,1,8,0:0:0
256,192,163661,1,2,0:0:0
56,192,163850,2,0,P|200:192,1,140,12|2,0:0|0:0,0:0:0
456,192,164229,2,0,P|304:192,1,140,8|2,0:0|0:0,0:0:0
32,192,164608,5,8,0:0:0
480,192,164797,1,0,0:0:0
32,192,164987,1,8,0:0:0
480,192,165176,2,0,P|408:192|408:192|488:192,1,140,2|12,0:0|0:0,0:0:0
224,192,165555,6,0,P|80:192,1,140,2|8,0:0|0:0,0:0:0
288,192,165934,2,0,P|432:192,1,140,2|8,0:0|0:0,0:0:0
80,128,166312,1,2,0:0:0
256,128,166407,1,0,0:0:0
424,128,166502,1,8,0:0:0
480,192,166691,1,2,0:0:0
24,192,166881,6,0,P|96:192|96:192|16:192,1,140,12|2,0:0|0:0,0:0:0
256,192,167259,1,8,0:0:0
24,192,167449,1,2,0:0:0
256,192,167638,5,8,0:0:0
320,192,167733,1,0,0:0:0
256,192,167827,1,2,0:0:0
320,192,167922,1,0,0:0:0
192,192,168017,2,0,P|48:192,1,140,8|2,0:0|0:0,0:0:0
336,192,168396,2,0,P|480:192,1,140,8|2,0:0|0:0,0:0:0
256,192,168774,1,8,0:0:0
32,192,169153,5,12,0:0:0
480,192,169343,1,12,0:0:0
32,192,169532,1,12,0:0:0
480,192,169721,1,12,0:0:0
32,192,169911,2,0,P|184:192,1,140,12|2,0:0|0:0,0:0:0
480,192,170289,1,8,0:0:0
32,128,170668,6,0,P|184:128,1,140,8|2,0:0|0:0,0:0:0
480,128,171047,2,0,P|336:128,1,140,8|0,0:0|0:0,0:0:0
344,72,171426,1,12,0:0:0
256,72,171520,1,0,0:0:0
168,72,171615,1,2,0:0:0
256,192,171805,5,8,0:0:0
480,192,171994,1,2,0:0:0
32,192,172183,1,8,0:0:0
480,192,172373,1,2,0:0:0
32,192,172562,1,8,0:0:0
480,192,172751,6,2,P|440:192,6,35,2|2|0|8|12|8|0,0:0|0:0|0:0|0:0|0:0|0:0|0:0,0:0:0
256,192,173225,1,0,0:0:0
32,192,173509,2,2,P|80:192,5,35,2|2|0|8|14|10,0:0|0:0|0:0|0:0|0:0|0:0,0:0:0
256,192,174077,1,8,0:0:0
368,144,174266,1,2,0:0:0
312,144,174314,1,0,0:0:0
256,144,174361,1,0,0:0:0
200,144,174409,1,0,0:0:0
144,144,174456,1,12,0:0:0
104,192,174645,6,2,P|32:192,1,70,2|10,0:0|0:0,0:0:0
256,192,175024,1,0,0:0:0
408,192,175213,2,0,P|480:192,1,70,8|2,0:0|0:0,0:0:0
104,192,175592,2,0,P|104:264,1,70,8|2,0:0|0:0,0:0:0
256,192,175971,1,12,0:0:0
408,192,176160,2,0,P|408:272,1,70,2|8,0:0|0:0,0:0:0
256,192,176539,1,0,0:0:0
224,136,176729,6,0,P|144:136,1,70,8|2,0:0|0:0,0:0:0
328,128,177107,2,0,P|400:128,1,70,8|0,0:0|0:0,0:0:0
104,96,177486,2,0,P|32:96,1,70,12|2,0:0|0:0,0:0:0
480,96,177865,2,0,P|408:96,1,70,8|0,0:0|0:0,0:0:0
94,192,178244,6,0,P|24:192,1,70,8|2,0:0|0:0,0:0:0
256,192,178527,1,0,0:0:0
480,192,178622,1,8,0:0:0
352,192,178812,5,6,0:0:0
160,192,179001,1,12,0:0:0
352,192,179190,1,6,0:0:0
160,192,179380,1,12,0:0:0
352,128,179569,1,2,0:0:0
256,128,179664,1,0,0:0:0
160,128,179759,1,8,0:0:0
256,192,179948,1,2,0:0:0
32,64,180137,5,8,0:0:0
160,64,180327,1,2,0:0:0
288,64,180516,1,12,0:0:0
416,64,180706,1,2,0:0:0
416,128,180895,1,0,0:0:0
160,128,181084,1,2,0:0:0
416,128,181274,1,8,0:0:0
32,136,181463,6,0,P|104:136,1,70,0|8,0:0|0:0,0:0:0
480,144,181842,2,0,P|408:144,1,70,2|12,0:0|0:0,0:0:0
32,136,182221,2,0,P|112:136,1,70,2|8,0:0|0:0,0:0:0
480,144,182599,2,0,P|400:144,1,70,2|12,0:0|0:0,0:0:0
32,208,182978,5,2,0:0:0
256,208,183073,1,0,0:0:0
480,208,183168,1,8,0:0:0
480,272,183357,5,2,0:0:0
256,272,183452,1,0,0:0:0
32,280,183546,2,0,P|88:280,4,35,12|0|2|0|8,0:0|0:0|0:0|0:0|0:0,0:0:0
256,208,184114,5,2,0:0:0
480,144,184304,2,8,P|456:144,5,17.5,8|8|0|2|2|2,0:0|0:0|0:0|0:0|0:0|0:0,0:0:0
328,144,184682,1,12,0:0:0
184,144,184872,1,12,0:0:0
336,80,185061,1,14,0:0:0
32,80,185345,1,0,0:0:0
480,200,185629,1,2,0:0:0
32,192,185819,1,8,0:0:0
32,136,186103,1,0,0:0:0
480,136,186387,1,2,0:0:0
208,192,186955,6,8,P|280:192,1,70,8|10,0:0|0:0,0:0:0
488,192,187334,1,8,0:0:0
104,136,187523,2,0,P|64:136,2,35,2|0|0,0:0|0:0|0:0,0:0:0
488,256,187902,1,0,0:0:0
256,192,188091,1,14,0:0:0
