osu file format v5

[General]
AudioFilename: We_Are_The_One-redrock77.mp3
AudioLeadIn: 0
PreviewTime: -1
Countdown: 1
SampleSet: Normal
EditorBookmarks: 26229,75243,82004,131299,140454

[Metadata]
Title:We Are The One
Artist:PSY
Creator:minyeob
Version:Easy

[Difficulty]
HPDrainRate:5
CircleSize:5
OverallDifficulty:3
SliderMultiplier:1.4
SliderTickRate:2

[Events]
//Background and Video events
//Break Periods
2,75126,81693
2,131112,139402
//Storyboard Layer 0 (Background)
//Storyboard Layer 1 (Failing)
//Storyboard Layer 2 (Passing)
//Storyboard Layer 3 (Foreground)
//Storyboard Sound Samples
//Background Colour Transformations
3,100,163,162,255

[TimingPoints]
42984,498.090652498755,4,1,0,100

[HitObjects]
256,96,26920,1,0
256,192,27418,1,0
256,288,27916,1,0
128,192,28912,5,0
256,192,29411,1,0
384,192,29909,1,0
256,64,30905,5,0
256,128,31403,1,0
256,192,31901,1,0
256,256,32399,1,0
160,192,32897,5,0
224,192,33395,1,0
288,192,33893,1,0
352,192,34391,1,0
256,128,34890,5,0
160,160,36882,5,0
224,160,37380,1,0
288,160,37878,1,0
352,160,38376,1,0
320,224,38874,5,0
256,160,39870,1,0
256,96,40369,1,0
256,224,40867,1,0
256,224,41240,1,0
256,224,41614,1,0
256,96,42485,5,0
224,160,42983,1,0
160,160,43482,1,0
96,160,43980,1,0
32,192,44851,2,0,B|192:192,1,140
320,192,45848,1,0
448,192,46346,1,0
160,192,46844,6,0,B|448:192,3,280
256,96,50953,5,0
256,160,51451,2,0,B|256:288,1,105
96,192,52945,5,0
160,192,53443,1,0
224,192,53941,1,0
256,128,54938,6,0,B|256:224,2,70
320,128,55934,2,0,B|320:288,1,140
256,96,56930,2,0,B|288:224,1,105
256,192,57677,1,0
256,256,57926,1,0
256,320,58424,1,0
256,192,58922,12,0,60915
256,96,62409,1,0
256,96,62658,1,0
256,160,62907,1,0
256,192,63405,1,0
256,224,63654,1,0
256,288,64152,1,0
256,288,64899,2,0,B|256:128,7,140
256,160,68884,5,0
256,96,70378,5,0
256,96,70503,1,0
256,128,70877,1,0
256,192,71375,1,0
160,192,71624,1,0
352,192,72122,1,0
256,224,72620,1,0
256,288,73118,1,0
256,288,73367,1,0
256,192,73616,1,0
256,96,74114,1,0
256,192,74986,5,0
256,96,82955,5,0
256,160,83453,1,0
256,224,83951,1,0
256,288,84450,1,0
160,192,84948,5,0
224,192,85446,1,0
288,192,85944,1,0
352,192,86442,1,0
256,64,86940,5,0
256,128,87438,1,0
256,192,87936,1,0
256,256,88434,1,0
288,64,88808,2,0,B|352:64,5,35
352,128,89929,2,0,B|256:128,2,70
256,64,90925,5,0
256,128,91423,1,0
256,192,91921,1,0
256,192,92294,1,0
256,192,92668,1,0
256,320,93166,5,0
256,256,93415,1,0
256,128,93913,1,0
256,128,94287,1,0
256,128,94660,1,0
256,64,94909,5,0
256,192,95408,1,0
256,256,95906,1,0
256,320,96404,1,0
128,192,96902,5,0
256,192,97275,1,0
384,192,97649,1,0
256,64,98396,5,0
256,128,98894,1,0
256,192,99392,1,0
256,256,99890,1,0
256,64,100887,1,0
256,128,101385,1,0
256,192,101883,1,0
256,256,102381,1,0
256,64,102879,5,0
256,192,103875,1,0
256,352,104871,1,0
192,128,106864,2,0,B|352:128,3,140
352,192,108856,2,0,B|192:192,3,140
256,64,110973,1,0
256,128,111471,1,0
256,192,111969,1,0
256,256,112467,1,0
256,192,112965,12,0,114460
256,96,114958,5,0
256,192,115954,1,0
256,192,116452,1,0
256,192,116950,1,0
256,64,118444,5,0
256,64,118693,1,0
256,128,118942,1,0
256,192,119440,1,0
256,224,119689,1,0
256,288,120188,1,0
96,192,120686,5,0
256,192,121184,1,0
256,192,121433,1,0
416,192,121682,1,0
416,192,122180,1,0
256,192,122927,12,0,124919
256,64,126414,5,0
256,64,126663,1,0
256,128,126912,1,0
256,192,127410,1,0
256,256,127659,1,0
256,320,128157,1,0
256,256,128904,2,0,B|256:96,4,140
256,96,140485,5,0
256,192,141107,1,0
256,288,141730,1,0
256,288,141979,1,0
256,64,142851,5,0
256,192,143473,1,0
256,320,144096,1,0
160,192,145217,5,0
256,192,145839,1,0
256,128,147084,1,0
256,256,147707,1,0
256,192,148330,1,0
256,288,148828,1,0
256,288,149201,1,0
256,288,149575,1,0
256,96,150073,5,0
256,192,150696,1,0
256,192,150945,1,0
256,288,151318,1,0
256,352,151941,1,0
160,192,152563,5,0
256,192,153062,1,0
256,192,153311,1,0
256,64,153684,1,0
256,320,154307,1,0
384,192,154929,5,0
256,192,155427,1,0
256,192,155677,1,0
256,64,156050,1,0
256,320,156673,1,0
192,192,157295,5,0
256,192,157918,1,0
256,128,158541,1,0
256,128,158790,1,0
256,128,159039,1,0
256,192,161529,12,0,164020
256,96,165514,1,0
256,96,165763,1,0
256,160,166012,1,0
256,224,166510,1,0
256,288,166759,1,0
256,352,167257,1,0
128,192,167755,5,0
192,160,168253,1,0
192,224,168502,1,0
256,192,168751,1,0
352,192,169249,1,0
256,96,169997,5,0
256,192,170993,1,0
256,256,171491,1,0
256,320,171989,1,0
256,96,173483,5,0
256,96,173732,1,0
256,160,173981,1,0
256,224,174479,1,0
256,256,174728,1,0
256,320,175227,1,0
256,128,175725,1,0
256,128,175974,1,0
256,160,176223,1,0
256,160,176472,1,0
256,192,176721,1,0
256,224,177219,1,0
256,288,177966,1,0
256,192,178340,12,0,179460
256,192,179958,12,0,181453
256,192,181951,12,0,183445
256,192,183943,12,0,185437
256,64,185936,1,0
256,192,186434,1,0
192,192,187928,5,0
320,192,188426,1,0
256,96,188924,1,0
256,288,189422,1,0
256,192,189920,1,0
256,128,190418,1,0
256,288,190916,1,0
256,192,191415,1,0
160,192,191913,5,0
256,192,193033,1,0
352,192,193531,1,0
256,192,194029,12,0,196022
