osu file format v9

[General]
AudioFilename: Right Now.mp3
AudioLeadIn: 0
PreviewTime: 86880
Countdown: 0
SampleSet: Normal
StackLeniency: 0.7
Mode: 0
LetterboxInBreaks: 1
SkinPreference:ouendan2

[Editor]
Bookmarks: 42240,49920,57600,76800,88320,103680,115200,134400,138720,145920,172800,180480,195840,215040,240617
DistanceSpacing: 1.2
BeatDivisor: 4
GridSize: 8

[Metadata]
Title:Right Now!
Artist:PSY
Creator:maryisasailor
Version:Normal
Source:
Tags:Park Jae-sang

[Difficulty]
HPDrainRate:5
CircleSize:4
OverallDifficulty:5
ApproachRate:5
SliderMultiplier:1.2
SliderTickRate:1

[Events]
//Background and Video events
Video,0,"Right Now.avi"
0,0,"RightNow.png"
//Break Periods
2,130280,137520
2,172400,179280
//Storyboard Layer 0 (Background)
//Storyboard Layer 1 (Fail)
//Storyboard Layer 2 (Pass)
//Storyboard Layer 3 (Foreground)
//Storyboard Sound Samples
//Background Colour Transformations
3,100,163,162,255

[TimingPoints]
42240,480,4,1,1,70,1,0
51360,-100,4,1,1,50,0,0
86400,-100,4,1,1,30,0,0
88320,-100,4,1,1,80,0,1
103680,-100,4,1,1,60,0,0
115200,-100,4,1,1,60,0,0
138720,-100,4,1,1,80,0,1
139200,-100,4,1,1,70,0,0
145920,-100,4,1,1,90,0,1
153120,-100,4,1,1,90,0,0
153600,-100,4,1,1,90,0,1
161280,-100,4,1,1,60,0,0
172800,-100,4,1,1,100,0,0
180000,-100,4,1,1,30,0,0
182400,-100,4,1,1,40,0,0
184320,-100,4,1,1,50,0,0
186240,-100,4,1,1,60,0,0
187920,-100,4,1,1,70,0,0
190080,-100,4,1,1,80,0,0
191520,-100,4,1,1,90,0,0
193920,-100,4,1,1,90,0,0
195840,-100,4,1,1,100,0,1
203040,-100,4,1,1,90,0,0
203520,-100,4,1,1,90,0,1
210720,-100,4,1,1,80,0,0
215040,-100,4,1,1,100,0,0
215520,-100,4,2,1,40,0,0
216960,-100,4,1,1,60,0,0
217920,-100,4,1,1,80,0,0
218880,-100,4,1,1,90,0,1
226560,-100,4,1,1,60,0,0
238080,-100,4,1,1,40,0,1
238560,-100,4,1,1,70,0,0
240617,480,4,1,1,100,1,1
240617,-100,4,1,1,90,0,1
255977,-100,4,1,1,60,0,0
267497,-100,4,1,1,40,0,1
267977,-100,4,1,1,100,0,0

[HitObjects]
384,64,42960,2,2,B|496:128|480:192|504:248|384:320,1,330
208,320,44880,1,0
144,288,45120,1,2
144,288,45360,1,0
80,256,45600,1,2
80,256,45840,1,0
16,224,46080,2,2,B|24:152|80:112|144:112,1,180
256,192,47280,1,0
256,192,47520,1,8
376,112,48000,5,2
256,32,48480,1,2
256,32,48720,1,0
216,96,48960,1,2
216,96,49200,1,0
176,32,49440,1,2
176,32,49680,1,0
104,32,49920,5,4
472,88,51360,5,2
416,128,51600,1,0
360,168,51840,1,4
40,264,53280,5,0
96,304,53520,1,0
152,344,53760,1,4
472,264,54720,5,2
416,304,54960,1,0
360,344,55200,1,2
304,304,55440,1,0
248,264,55680,1,4
360,80,56400,1,0
360,80,56640,1,8
72,112,57600,6,2,B|40:152|40:208,2,90
112,48,58560,1,0
184,24,58800,1,2
440,112,59520,6,2,B|472:152|472:208,2,90
400,48,60480,1,0
328,24,60720,1,2
256,208,61440,5,2
256,208,61680,1,0
216,272,61920,1,2
216,272,62160,1,0
176,336,62400,2,2,B|216:352|264:352,2,90
136,272,63360,1,2
136,272,63600,1,0
96,208,63840,1,2
96,208,64080,1,0
176,208,64320,1,2
176,136,64560,1,2
336,56,65280,6,0,B|400:80|416:144,1,120,6|2
472,272,66240,1,0
440,336,66480,1,2
176,56,67200,6,0,B|112:80|96:144,1,120,2|2
40,272,68160,1,0
72,336,68400,1,2
256,312,69120,5,2
328,312,69360,1,0
400,312,69600,1,2
256,224,70080,5,2
184,224,70320,1,0
112,224,70560,1,2
48,96,71040,6,2,B|112:72|168:96|224:120|288:96,1,240
424,64,72480,1,4
320,256,76800,6,2,B|376:208|328:128,1,120
192,128,77760,2,2,B|136:176|184:256,1,120
256,352,78720,1,0
256,208,79200,1,2
152,112,79680,2,2,B|216:64|256:88|296:64|360:112,1,220,0|4
480,32,81120,5,2
400,312,82080,1,2
112,312,83040,1,2
32,32,84000,1,2
128,136,84480,5,0
256,72,84960,1,2
384,136,85440,1,0
256,200,85920,1,2
112,232,86400,2,0,B|160:320|256:368|352:320|400:232,1,360,4|0
464,104,88320,5,4
320,80,88800,1,0
248,64,89040,1,0
176,48,89280,2,2,B|80:72|56:152|112:248,1,240
248,280,90720,1,0
384,320,91200,2,2,B|480:296|504:216|448:120,1,240
328,56,92640,5,0
184,56,93120,2,2,B|80:56,2,90,2|0|0
144,136,94080,2,2,B|152:200|208:248|280:248,2,180,2|0|2
280,104,96000,5,4
424,72,96480,1,0
408,144,96720,1,0
384,216,96960,2,2,B|304:272|272:240|240:272|160:216,1,240
32,144,98400,1,0
152,64,98880,2,2,B|200:120|152:176|104:232|152:296,1,240
424,32,100800,5,2
456,176,101280,1,0
488,320,101760,2,2,B|400:368|304:320,2,180
440,184,103680,6,0,B|344:152,3,90,4|0|4|0
256,120,105120,1,4
72,48,105600,2,0,B|168:88,3,90,4|0|4|0
440,48,107520,6,0,B|356:82,3,90,4|0|4|0
256,120,108960,1,4
72,184,109440,2,0,B|157:155,3,90,4|0|4|0
256,192,110880,5,4
256,120,111120,1,0
256,48,111360,1,4
256,192,111600,12,0,114600
424,112,115200,6,0,B|328:112|304:112|312:72|288:72|184:72,1,240,2|0
48,72,116640,1,2
56,216,117120,6,0,B|152:216|176:216|168:256|192:256|296:256,1,240,2|0
432,256,118560,1,2
392,120,119040,5,0
256,176,119520,1,2
120,120,120000,1,0
256,176,120480,1,2
328,48,120960,1,2
184,48,121440,1,0
80,144,121920,2,2,B|16:208|56:320|160:320,1,240
296,312,123360,5,2
440,312,123840,1,0
296,312,124320,1,2
400,208,124800,5,0
328,208,125040,1,0
256,208,125280,1,2
112,208,125760,1,0
256,208,126240,1,2
296,72,126720,6,2,B|352:80|392:120,2,90
216,72,127680,2,2,B|160:80|120:120,2,90
256,128,128640,2,2,B|288:192|256:248|216:304|256:360,1,240
392,304,130080,1,4
88,312,138720,5,8
160,296,138960,1,0
232,280,139200,1,2
88,312,139680,1,2
184,208,140160,5,0
256,192,140400,1,0
328,176,140640,1,2
184,208,141120,1,2
288,104,141600,5,0
360,88,141840,1,0
432,72,142080,1,2
224,280,142560,1,0
152,296,142800,1,0
80,312,143040,1,2
256,192,143520,1,2
256,192,144000,12,0,145440
48,280,145920,5,4
192,304,146400,1,0
264,320,146640,1,0
336,336,146880,2,2,B|432:312|456:232|400:136,1,240
264,104,148320,1,0
128,64,148800,2,2,B|32:88|8:168|64:264,1,240
184,328,150240,5,0
328,328,150720,2,2,B|432:328,2,90
376,248,151680,2,2,B|368:184|312:136|240:136,2,180
240,280,153600,5,4
96,312,154080,1,0
120,240,154320,1,0
152,168,154560,2,2,B|232:112|264:144|296:112|376:168,1,240
504,248,156000,1,0
376,312,156480,2,2,B|328:256|376:200|424:144|376:80,1,240
88,352,158400,5,2
56,208,158880,1,0
24,64,159360,2,2,B|112:16|208:64,2,180
72,200,161280,6,0,B|168:232,3,90,4|0|4|0
256,264,162720,1,4
440,336,163200,2,0,B|344:296,3,90,4|0|4|0
72,336,165120,6,0,B|156:302,3,90,4|0|4|0
256,264,166560,1,4
440,200,167040,2,0,B|355:229,3,90,4|0|4|0
256,192,168480,5,4
256,120,168720,1,0
256,48,168960,1,4
256,192,169200,12,0,172200
56,280,180480,5,0
128,296,180720,1,0
200,312,180960,1,4
344,344,181440,2,2,B|424:344|448:264,1,120
456,104,182400,5,0
384,88,182640,1,0
312,72,182880,1,2
168,40,183360,2,2,B|88:40|64:120,1,120
72,240,184320,6,0,B|72:320|160:328,1,120,2|0
216,328,185040,1,0
288,328,185280,1,2
432,328,185760,1,2
480,192,186240,1,2
408,192,186480,1,0
336,192,186720,1,0
264,192,186960,1,0
192,192,187200,2,2,B|72:192,1,120
136,64,188160,5,4
208,40,188400,1,0
280,40,188640,1,2
352,56,188880,1,0
416,88,189120,2,2,B|464:128|464:200,1,120
440,264,189840,5,0
384,312,190080,1,2
312,336,190320,1,0
240,352,190560,1,2
168,336,190800,1,0
104,304,191040,2,2,B|48:280|32:208,1,120
32,136,191760,5,0
32,136,192000,1,2
32,136,192240,1,0
80,80,192480,1,2
144,48,192720,1,0
216,32,192960,6,2,B|288:32|336:48,1,120
424,72,193680,1,0
512,96,193920,1,2
448,160,194160,1,0
384,224,194400,1,2
352,136,194640,1,0
336,48,194880,2,2,B|272:32|208:48,1,120
256,224,195840,5,4
104,320,196320,5,0
72,152,196800,2,2,B|72:104|104:64,2,90
64,240,197760,1,0
240,192,198240,5,0
416,224,198720,2,2,B|416:272|384:312,2,90
328,208,199680,1,0
344,32,200160,5,2
256,56,200400,1,0
168,80,200640,2,2,B|48:112,1,120
232,144,201600,2,0,B|328:184,2,90,2|0|2
240,232,202560,5,2
384,120,203040,1,2
216,56,203520,1,4
64,152,204000,5,0
120,320,204480,2,2,B|168:344|224:320,2,90
88,240,205440,1,0
264,240,205920,5,0
440,240,206400,2,2,B|464:200|456:144,2,90
352,240,207360,1,0
344,64,207840,5,2
256,64,208080,1,0
168,64,208320,2,2,B|48:64,1,120
48,240,209280,2,0,B|144:240,2,90,2|0|2
48,152,210240,5,2
224,152,210720,1,2
400,152,211200,1,4
256,192,215520,12,4,218880
368,312,219360,5,2
408,232,219600,1,0
448,152,219840,2,2,B|456:88|416:40,1,120
256,120,220800,1,0
96,40,221280,5,2
56,120,221520,1,0
16,200,221760,2,2,B|24:264|80:304,1,120
256,304,222720,1,0
256,128,223200,5,2
256,40,223440,1,0
336,80,223680,1,2
176,80,224160,1,0
168,256,224640,2,2,B|224:288|256:272|288:288|344:256,2,180
32,136,226560,6,0,B|136:136,3,90,4|0|4|0
256,136,228000,1,4
480,136,228480,2,0,B|390:136,3,90,4|0|4|0
144,336,230400,6,0,B|192:256,3,90,4|0|4|0
256,136,231840,1,4
368,336,232320,2,0,B|321:258,3,90,4|0|4|0
344,128,233760,5,4
168,128,234240,1,4
256,192,234480,12,0,237480
256,256,238080,5,4
256,128,240180,5,0
256,256,240617,1,4
152,160,241097,5,0
72,288,241577,2,2,B|112:328|168:328,2,90
112,224,242537,1,0
256,192,243017,1,0
400,224,243497,2,2,B|448:232|480:272,2,90
328,208,244457,5,0
256,88,244937,1,0
184,208,245417,2,2,B|56:208,1,120
184,280,246377,2,0,B|88:280,2,90,2|0|2
256,280,247337,5,2
400,280,247817,1,2
328,152,248297,1,4
256,24,248777,1,0
392,64,249257,2,2,B|432:120|424:184|352:224,1,180
288,216,250217,5,2
160,280,250697,1,0
32,352,251177,2,2,B|0:288|40:224|72:168|32:96,1,240
176,56,252617,1,0
312,104,253097,2,2,B|408:104,2,90
312,176,254057,2,0,B|408:176,2,90,2|0|2
256,224,255017,1,2
256,48,255497,5,2
88,112,255977,2,0,B|176:152,3,90,4|0|4|0
256,48,257417,1,4
424,112,257897,2,0,B|336:152,3,90,4|0|4|0
88,272,259817,6,0,B|176:232,3,90,4|0|4|0
256,336,261257,1,4
424,272,261737,2,0,B|336:232,3,90,4|0|4|0
256,136,263177,1,4
256,136,263417,1,0
256,136,263657,1,4
256,192,263897,12,0,266897
256,336,267497,5,4
