osu file format v10

[General]
AudioFilename: Right Now.mp3
AudioLeadIn: 0
PreviewTime: 86880
Countdown: 0
SampleSet: Normal
StackLeniency: 0.7
Mode: 0
LetterboxInBreaks: 1
SkinPreference:ouendan2

[Editor]
Bookmarks: 42240,49920,57600,72480,88320,103680,115200,138720,145920,172800,180480,195840,215040,240617
DistanceSpacing: 2
BeatDivisor: 4
GridSize: 8
CurrentTime: 0

[Metadata]
Title:Right Now!
TitleUnicode:
Artist:PSY
ArtistUnicode:
Creator:maryisasailor
Version:Hard
Source:
Tags:Park Jae-sang
BeatmapID:180782
BeatmapSetID:59425

[Difficulty]
HPDrainRate:6
CircleSize:4
OverallDifficulty:6
ApproachRate:6
SliderMultiplier:1.5
SliderTickRate:1

[Events]
//Background and Video events
Video,0,"Right Now.avi"
0,0,"RightNow.png"
//Break Periods
2,72680,74070
2,172400,178950
2,211039,214470
//Storyboard Layer 0 (Background)
//Storyboard Layer 1 (Fail)
//Storyboard Layer 2 (Pass)
//Storyboard Layer 3 (Foreground)
//Storyboard Sound Samples
//Background Colour Transformations
3,100,163,162,255

[TimingPoints]
42240,480,4,1,1,70,1,0
51360,-100,4,1,1,70,0,0
86400,-133.333333333333,4,1,1,30,0,0
88320,-66.6666666666667,4,1,1,90,0,1
103680,-66.6666666666667,4,1,1,60,0,0
115200,-100,4,1,1,60,0,0
138720,-100,4,1,1,80,0,1
139200,-100,4,1,1,70,0,0
145920,-66.6666666666667,4,1,1,90,0,1
153120,-100,4,1,1,90,0,0
153600,-66.6666666666667,4,1,1,90,0,1
161280,-66.6666666666667,4,1,1,60,0,0
172800,-100,4,1,1,100,0,0
180000,-100,4,1,1,30,0,0
182400,-100,4,1,1,40,0,0
184320,-100,4,1,1,50,0,0
186240,-100,4,1,1,60,0,0
187920,-100,4,1,1,70,0,0
190080,-100,4,1,1,80,0,0
191520,-100,4,1,1,90,0,0
193920,-66.6666666666667,4,1,1,100,0,0
195840,-66.6666666666667,4,1,1,100,0,1
203040,-100,4,1,1,100,0,0
203520,-66.6666666666667,4,1,1,100,0,1
210720,-66.6666666666667,4,1,1,30,0,0
215040,-100,4,1,1,100,0,0
215520,-100,4,2,1,40,0,0
216960,-100,4,1,1,60,0,0
217920,-100,4,1,1,80,0,0
218880,-66.6666666666667,4,1,1,100,0,1
226560,-100,4,1,1,60,0,0
238080,-66.6666666666667,4,1,1,40,0,1
238560,-100,4,1,1,70,0,0
240617,480,4,1,1,100,1,1
240617,-66.6666666666667,4,1,1,90,0,1
255977,-100,4,1,1,60,0,0
267497,-66.6666666666667,4,1,1,40,0,1
267977,-100,4,1,1,100,0,0

[HitObjects]
144,80,42960,2,2,B|224:-8|352:-8|456:72|456:192,1,412.5,2|0,0:0|0:0,0:0
328,336,44880,5,2,0:0
392,296,45120,1,0,0:0
328,256,45360,1,2,0:0
392,216,45600,1,8,0:0
328,176,45840,1,2,0:0
392,136,46080,2,2,B|352:80|296:88|232:120|248:192|264:216,1,225
128,280,47280,1,2,0:0
128,280,47520,1,0,0:0
48,152,48000,5,8,0:0
136,32,48480,2,2,B|224:32,1,75,2|0,0:0|0:0,0:0
232,104,48960,2,2,B|320:104,1,75,2|0,0:0|0:0,0:0
328,32,49440,2,2,B|424:32,1,75,2|0,0:0|0:0,0:0
480,32,49920,1,4,0:0
472,312,51360,5,2,0:0
400,336,51600,1,0,0:0
416,264,51840,1,6,0:0
40,312,53280,5,2,0:0
112,336,53520,1,0,0:0
96,264,53760,1,6,0:0
152,40,54720,5,2,0:0
192,104,54960,1,0,0:0
256,64,55200,1,2,0:0
320,104,55440,1,0,0:0
360,40,55680,1,6,0:0
256,240,56400,1,2,0:0
192,280,56640,2,2,B|216:320|256:312|296:320|320:280,1,150
432,336,57600,5,10,0:0
416,264,57840,1,0,0:0
416,264,57960,1,2,0:0
440,192,58200,1,0,0:0
440,192,58320,1,2,0:0
488,248,58560,1,4,0:0
368,208,58800,1,0,0:0
208,128,59280,1,0,0:0
208,128,59520,5,10,0:0
136,152,59760,1,0,0:0
136,152,59880,1,2,0:0
64,128,60120,1,0,0:0
64,128,60240,1,2,0:0
120,80,60480,1,4,0:0
80,200,60720,1,0,0:0
256,336,61440,5,2,0:0
328,336,61680,1,0,0:0
400,336,61920,1,2,0:0
472,336,62160,1,0,0:0
432,272,62400,2,2,B|408:216|432:160,2,112.5
360,272,63360,5,2,0:0
288,272,63600,1,0,0:0
216,272,63840,1,2,0:0
144,272,64080,1,0,0:0
72,272,64320,2,2,B|48:240|72:200,1,75,6|2,0:0|0:0,0:0
72,48,65040,1,10,0:0
72,48,65280,5,10,0:0
136,88,65520,1,0,0:0
200,48,65760,1,10,0:0
200,48,66000,1,0,0:0
264,88,66240,1,2,0:0
328,48,66480,1,10,0:0
464,144,66960,1,10,0:0
464,144,67200,6,0,B|464:232,1,75,10|0,0:0|0:0,0:0
464,256,67560,2,2,B|440:280|392:280|360:256,1,112.5,2|2,0:0|0:0,0:0
288,280,68160,1,8,0:0
216,256,68400,1,10,0:0
40,40,69120,5,10,0:0
40,128,69360,1,0,0:0
40,128,69480,1,0,0:0
40,128,69600,2,2,B|88:160|136:160|184:128,1,150,2|10,0:0|0:0,0:0
224,200,70320,1,0,0:0
224,200,70440,1,0,0:0
224,200,70560,2,2,B|264:176|328:176|368:200,1,150,2|10,0:0|0:0,0:0
400,280,71280,1,2,0:0
400,280,71400,1,0,0:0
320,280,71640,1,0,0:0
320,280,71760,1,2,0:0
240,280,72000,2,0,B|152:280,1,75,2|0,0:0|0:0,0:0
88,280,72480,5,4,0:0
440,304,75120,5,2,0:0
440,232,75360,2,2,B|440:152,1,75
480,88,75840,5,4,0:0
488,96,76080,1,0,0:0
400,88,76320,5,4,0:0
392,96,76560,1,0,0:0
304,96,76800,6,2,B|208:96|104:96,1,187.5,2|0,0:0|0:0,0:0
24,192,77760,2,2,B|120:192|224:192,1,187.5,2|0,0:0|0:0,0:0
344,192,78720,5,2,0:0
424,320,79200,1,2,0:0
272,320,79680,2,2,B|160:320,2,100,2|0|2,0:0|0:0|0:0,0:0
336,320,80560,1,4,0:0
432,192,81120,5,10,0:0
480,136,81360,1,0,0:0
408,120,81600,2,0,B|360:56|272:80,1,150,2|10,0:0|0:0,0:0
224,136,82320,1,0,0:0
296,152,82560,1,0,0:0
248,208,82800,5,0,0:0
176,192,83040,2,0,B|96:168,1,75,10|0,0:0|0:0,0:0
72,160,83400,2,0,B|-8:136,1,75,2|0,0:0|0:0,0:0
32,32,84000,1,10,0:0
104,32,84240,1,0,0:0
176,32,84480,5,6,0:0
256,160,84960,1,2,0:0
344,280,85440,1,2,0:0
432,160,85920,5,2,0:0
432,160,86040,1,0,0:0
432,160,86160,1,2,0:0
432,160,86280,1,0,0:0
432,160,86400,2,0,B|432:64|352:-8|240:0|176:64,1,337.500012874604,8|0,0:0|0:0,0:0
56,160,88320,6,0,B|8:248|88:328|184:280,1,225.000008583069,4|2,0:0|0:0,0:0
256,272,89040,1,0,0:0
192,208,89280,5,2,0:0
256,88,89640,1,2,0:0
320,208,90000,2,2,B|416:184|464:264|456:320|416:368,1,225.000008583069
344,344,90720,1,2,0:0
256,344,90960,1,0,0:0
168,344,91200,5,2,0:0
208,264,91440,1,0,0:0
208,264,91560,1,2,0:0
296,264,91800,1,0,0:0
296,264,91920,2,2,B|368:264|384:192|368:128|288:120,1,225.000008583069,2|0,0:0|0:0,0:0
200,120,92640,1,2,0:0
112,120,92880,1,0,0:0
160,192,93120,5,2,0:0
256,56,93480,1,2,0:0
352,192,93840,1,2,0:0
352,192,94080,5,2,0:0
256,56,94440,1,2,0:0
160,192,94800,1,2,0:0
160,280,95040,2,2,B|192:336|256:336|320:336|352:280,1,225.000008583069
472,152,96000,5,4,0:0
344,24,96480,1,2,0:0
256,24,96720,1,0,0:0
168,24,96960,1,2,0:0
80,24,97200,1,0,0:0
80,24,97320,2,0,B|48:48|48:96|80:120,1,112.500004291535,2|0,0:0|0:0,0:0
112,152,97680,2,2,B|168:192|168:248|168:304|112:344,1,225.000008583069
208,344,98400,5,2,0:0
296,344,98640,1,0,0:0
384,344,98880,2,0,B|336:320|360:272|336:224|384:200,2,168.750006437302,2|2|2,0:0|0:0|0:0,0:0
472,344,99840,2,0,B|472:104,1,225.000008583069,2|2,0:0|0:0,0:0
472,32,100560,1,0,0:0
392,72,100800,5,2,0:0
256,160,101160,1,2,0:0
120,72,101520,1,2,0:0
120,72,101760,5,2,0:0
256,160,102120,1,2,0:0
392,72,102480,1,2,0:0
328,112,102720,2,2,B|312:32|256:16|200:32|184:112,1,225.000008583069
48,48,103680,5,4,0:0
184,120,104040,1,0,0:0
48,192,104400,1,4,0:0
184,264,104760,1,0,0:0
48,336,105120,1,4,0:0
48,336,105360,1,4,0:0
48,336,105600,1,4,0:0
184,264,105960,1,0,0:0
48,192,106320,1,4,0:0
184,120,106680,1,0,0:0
464,48,107520,5,4,0:0
328,120,107880,1,0,0:0
464,192,108240,1,4,0:0
328,264,108600,1,0,0:0
464,336,108960,1,4,0:0
464,336,109200,1,4,0:0
464,336,109440,1,4,0:0
328,264,109800,1,0,0:0
464,192,110160,1,4,0:0
328,120,110520,1,0,0:0
192,192,110880,5,0,0:0
40,88,111360,2,2,B|-8:144|-8:232|40:296,1,225.000008583069,6|0,0:0|0:0,0:0
256,192,111960,12,0,114600,0:0
80,48,115200,5,6,0:0
48,144,115440,1,0,0:0
48,144,115560,2,2,B|24:208|64:256,1,112.5
120,320,116160,1,0,0:0
200,280,116400,1,2,0:0
432,48,117120,5,2,0:0
464,144,117360,1,0,0:0
464,144,117480,2,2,B|488:208|448:256,1,112.5
392,320,118080,1,0,0:0
312,280,118320,1,2,0:0
256,40,119040,5,2,0:0
216,112,119280,1,0,0:0
216,112,119400,1,2,0:0
296,112,119640,1,2,0:0
256,184,119880,1,2,0:0
256,184,120000,1,0,0:0
216,256,120240,1,2,0:0
296,256,120480,1,0,0:0
336,328,120720,5,2,0:0
256,328,120960,2,2,B|168:328,1,75,2|0,0:0|0:0,0:0
96,328,121440,2,2,B|16:328,1,75,2|0,0:0|0:0,0:0
24,248,121920,2,2,B|-8:192|24:136,2,112.5
104,248,122880,5,4,0:0
256,248,123360,1,2,0:0
408,248,123840,1,0,0:0
256,248,124320,1,2,0:0
176,168,124800,5,0,0:0
256,168,125040,1,2,0:0
336,168,125280,1,0,0:0
256,168,125520,1,2,0:0
256,88,125760,1,0,0:0
256,88,126240,1,2,0:0
296,248,126720,6,2,B|424:248,2,112.5
216,248,127680,2,2,B|88:248,2,112.5,2|2|2,0:0|0:0|0:0,0:0
208,168,128640,2,0,B|152:152|136:80|184:56|184:56|256:112|328:56|328:56|376:80|360:152|304:168,1,450,2|2,0:0|0:0,0:0
216,304,130560,5,4,0:0
200,304,130800,1,0,0:0
296,304,131040,1,2,0:0
312,304,131280,1,0,0:0
184,304,131520,5,0,0:0
168,304,131760,1,0,0:0
328,304,132000,1,2,0:0
344,304,132240,1,0,0:0
256,160,132720,1,0,0:0
216,232,132960,2,2,B|304:232,1,75
336,160,133440,5,4,0:0
344,152,133680,1,0,0:0
176,160,133920,1,4,0:0
168,152,134160,1,0,0:0
168,72,134400,6,2,B|224:32|288:32|344:72,1,187.5,0|0,0:0|0:0,0:0
344,192,135360,2,2,B|288:152|224:152|168:192,1,187.5,0|0,0:0|0:0,0:0
72,264,136320,5,2,0:0
256,336,136800,1,2,0:0
448,264,137280,2,0,B|448:160,2,100,0|0|0,0:0|0:0|0:0,0:0
448,312,138120,1,2,0:0
448,72,138720,5,8,0:0
408,144,138960,1,0,0:0
368,72,139200,1,2,0:0
288,72,139440,1,0,0:0
288,72,139560,1,0,0:0
328,144,139800,1,2,0:0
448,72,140160,5,0,0:0
368,72,140400,1,0,0:0
408,144,140640,1,2,0:0
328,144,140880,1,0,0:0
328,144,141000,1,0,0:0
288,72,141240,1,2,0:0
168,72,141600,5,6,0:0
88,72,141840,1,2,0:0
8,72,142080,1,2,0:0
48,232,142560,1,2,0:0
128,232,142800,1,0,0:0
208,232,143040,1,2,0:0
248,72,143520,1,2,0:0
416,72,144000,2,2,B|488:176|448:320|328:368|200:312,1,450
32,248,145920,5,4,0:0
32,72,146400,1,2,0:0
96,136,146640,1,0,0:0
120,48,146880,2,2,B|160:-8|232:-16|280:40,1,168.750006437302
368,112,147600,2,2,B|464:192|408:368|256:344,1,337.500012874604
184,344,148560,5,0,0:0
96,344,148800,1,2,0:0
136,264,149040,1,0,0:0
136,264,149160,1,2,0:0
48,264,149400,1,0,0:0
48,264,149520,2,2,B|8:176|96:120|48:40,1,225.000008583069
144,48,150240,5,2,0:0
232,48,150480,1,0,0:0
320,48,150720,2,0,B|376:128|320:208,2,168.750006437302,2|2|2,0:0|0:0|0:0,0:0
408,48,151680,2,0,B|456:128|408:208,2,168.750006437302,2|2|2,0:0|0:0|0:0,0:0
496,48,152640,2,2,B|536:120|520:192|480:264,1,225.000008583069,2|2,0:0|0:0,0:0
344,376,153600,5,4,0:0
168,376,154080,1,2,0:0
80,376,154320,1,0,0:0
128,296,154560,1,2,0:0
216,296,154800,1,0,0:0
216,296,154920,1,2,0:0
352,296,155280,2,2,B|408:240|408:144|352:88,1,225.000008583069
304,24,156000,5,2,0:0
208,24,156240,1,0,0:0
144,96,156480,1,2,0:0
256,184,156840,1,2,0:0
368,96,157200,2,2,B|432:144|424:192|432:240|368:288,1,225.000008583069
368,376,157920,5,2,0:0
280,376,158160,1,0,0:0
192,376,158400,2,0,B|192:208,2,168.750006437302,2|2|2,0:0|0:0|0:0,0:0
104,376,159360,2,0,B|104:208,2,168.750006437302,2|2|2,0:0|0:0|0:0,0:0
16,376,160320,2,2,B|16:152,1,225.000008583069
16,8,161280,5,4,0:0
136,80,161640,1,0,0:0
256,8,162000,1,4,0:0
376,80,162360,1,0,0:0
496,8,162720,1,4,0:0
496,8,162960,1,4,0:0
496,8,163200,1,4,0:0
376,80,163560,1,0,0:0
256,8,163920,1,4,0:0
136,80,164280,1,0,0:0
16,304,165120,5,4,0:0
136,232,165480,1,0,0:0
256,304,165840,1,4,0:0
376,232,166200,1,0,0:0
496,304,166560,1,4,0:0
496,304,166800,1,4,0:0
496,304,167040,1,4,0:0
376,232,167400,1,0,0:0
256,304,167760,1,4,0:0
136,232,168120,1,0,0:0
256,160,168480,5,4,0:0
256,160,168720,1,0,0:0
256,160,168960,1,4,0:0
256,192,169200,12,0,172200,0:0
40,40,180000,5,0,0:0
40,40,180120,1,0,0:0
40,40,180240,1,0,0:0
40,40,180360,1,0,0:0
40,40,180480,2,0,B|120:40,1,75,4|0,0:0|0:0,0:0
184,40,180960,2,0,B|264:40,1,75,0|0,0:0|0:0,0:0
328,40,181440,2,0,B|480:40,1,150,2|2,0:0|0:0,0:0
480,56,182040,5,0,0:0
480,72,182160,1,0,0:0
480,88,182280,1,0,0:0
480,104,182400,2,0,B|456:128|408:128,1,75
336,128,182880,2,0,B|240:128,1,75,2|0,0:0|0:0,0:0
184,128,183360,2,0,B|120:128|56:128|40:176,1,150,2|2,0:0|0:0,0:0
40,344,184320,6,0,B|120:344|128:336,1,75
200,328,184800,2,0,B|280:320,1,75,2|0,0:0|0:0,0:0
368,312,185280,2,0,B|488:304|504:264,1,150,2|2,0:0|0:0,0:0
480,104,186240,6,0,B|472:152|424:168,1,75,2|0,0:0|0:0,0:0
336,224,186720,2,0,B|264:264,1,75,2|0,0:0|0:0,0:0
168,312,187200,2,2,B|112:336|56:360|24:328,1,150,0|2,0:0|0:0,0:0
96,240,187920,5,2,0:0
96,240,188040,1,0,0:0
96,240,188160,2,0,B|96:200|128:176,1,75,2|0,0:0|0:0,0:0
216,104,188640,2,0,B|256:80|296:104,1,75,2|0,0:0|0:0,0:0
384,160,189120,2,2,B|448:240|384:320,1,150
288,296,189840,1,0,0:0
176,296,190080,6,0,B|136:296|104:264,1,75,2|0,0:0|0:0,0:0
48,152,190560,2,0,B|56:112|88:80,1,75,2|0,0:0|0:0,0:0
200,32,191040,2,2,B|272:32|344:48,1,112.5
368,64,191520,6,0,B|416:96,1,37.5,2|0,0:0|0:0,0:0
448,128,191760,2,0,B|472:176,1,37.5
472,224,192000,2,0,B|456:264,1,37.5,2|0,0:0|0:0,0:0
416,312,192240,1,0,0:0
296,368,192480,2,0,B|256:376|216:368,1,75,2|2,0:0|0:0,0:0
88,336,192960,2,2,B|48:320|24:272|40:208,1,150
96,72,193680,1,0,0:0
232,16,193920,6,2,B|296:16|352:48,1,112.500004291535,2|0,0:0|0:0,0:0
448,168,194400,2,2,B|464:232|432:280,1,112.500004291535,2|0,0:0|0:0,0:0
216,344,194880,2,2,B|80:320|64:192,1,225.000008583069,2|2,0:0|0:0,0:0
256,32,195840,5,4,0:0
312,248,196320,1,2,0:0
200,248,196560,1,0,0:0
256,136,196800,5,2,0:0
104,312,197160,1,2,0:0
408,312,197520,1,2,0:0
480,224,197760,2,0,B|488:144|440:72|352:56,1,225.000008583069,0|2,0:0|0:0,0:0
256,104,198480,1,0,0:0
152,56,198720,5,2,0:0
72,136,198960,1,0,0:0
72,136,199080,1,2,0:0
56,248,199320,1,0,0:0
56,248,199440,2,2,B|104:304|192:336|256:336,1,225.000008583069
312,240,200160,1,2,0:0
200,240,200400,1,0,0:0
104,184,200640,5,2,0:0
256,104,201000,1,2,0:0
408,184,201360,1,2,0:0
408,184,201600,5,2,0:0
256,104,201960,1,2,0:0
104,184,202320,1,2,0:0
152,288,202560,2,2,B|200:320|256:344|312:320|360:288,1,225.000008583069
256,40,203520,5,4,0:0
32,40,204000,1,2,0:0
32,152,204240,1,0,0:0
32,264,204480,1,2,0:0
136,216,204720,1,0,0:0
136,216,204840,2,0,B|192:184|248:216,1,112.500004291535,2|0,0:0|0:0,0:0
296,240,205200,2,2,B|368:272|456:272|504:200,1,225.000008583069
496,96,205920,5,2,0:0
400,152,206160,1,0,0:0
400,40,206400,1,2,0:0
256,136,206760,1,2,0:0
112,40,207120,2,2,B|56:96|56:136|56:184|112:240,1,225.000008583069
200,304,207840,5,2,0:0
312,304,208080,1,0,0:0
408,240,208320,1,2,0:0
256,160,208680,1,2,0:0
104,240,209040,1,2,0:0
104,240,209280,5,2,0:0
256,160,209640,1,2,0:0
408,240,210000,1,2,0:0
408,240,210240,1,2,0:0
256,72,210720,6,0,B|256:0,1,56.2500021457673,4|0,0:0|0:0,0:0
216,296,215520,5,0,0:0
296,296,215760,1,0,0:0
352,216,216000,5,4,0:0
256,216,216360,1,0,0:0
160,216,216720,1,0,0:0
136,128,216960,5,0,0:0
216,128,217200,1,0,0:0
296,128,217440,1,0,0:0
376,128,217680,1,0,0:0
416,40,217920,5,0,0:0
376,40,218040,1,0,0:0
336,40,218160,1,0,0:0
296,40,218280,1,0,0:0
256,40,218400,1,0,0:0
216,40,218520,1,0,0:0
176,40,218640,1,0,0:0
136,40,218760,1,0,0:0
96,40,218880,5,4,0:0
32,352,219360,1,2,0:0
144,352,219600,1,0,0:0
256,352,219840,1,2,0:0
200,256,220080,1,0,0:0
200,256,220200,1,2,0:0
32,256,220560,2,2,B|32:184|32:112|112:48,1,225.000008583069
200,112,221280,5,2,0:0
312,112,221520,1,0,0:0
400,184,221760,1,2,0:0
256,32,222120,1,2,0:0
112,184,222480,1,2,0:0
144,288,222720,6,0,B|368:288,1,225.000008583069,2|2,0:0|0:0,0:0
480,288,223440,1,0,0:0
424,192,223680,1,2,0:0
256,192,224040,1,2,0:0
88,192,224400,1,2,0:0
88,192,224640,5,2,0:0
256,192,225000,1,2,0:0
424,192,225360,1,2,0:0
360,104,225600,2,2,B|312:56|256:104|200:152|152:104,1,225.000008583069
32,192,226560,5,4,0:0
160,144,226920,1,0,0:0
216,264,227280,1,4,0:0
88,312,227640,1,0,0:0
32,192,228000,1,4,0:0
32,192,228240,1,4,0:0
32,192,228480,1,4,0:0
88,312,228840,1,0,0:0
216,264,229200,1,4,0:0
160,144,229560,1,0,0:0
480,192,230400,5,4,0:0
352,240,230760,1,0,0:0
296,120,231120,1,4,0:0
424,72,231480,1,0,0:0
480,192,231840,1,4,0:0
480,192,232080,1,4,0:0
480,192,232320,1,4,0:0
424,72,232680,1,0,0:0
296,120,233040,1,4,0:0
352,240,233400,1,0,0:0
256,336,233760,5,4,0:0
256,336,234000,1,0,0:0
256,336,234240,1,4,0:0
256,192,234480,12,0,237480,0:0
256,48,238080,5,4,0:0
464,344,240060,5,0,0:0
464,344,240180,2,0,B|416:344|368:320,1,93.75
304,288,240617,1,4,0:0
104,288,241097,5,2,0:0
200,288,241337,1,0,0:0
152,216,241577,1,2,0:0
256,104,241937,1,2,0:0
360,216,242297,2,2,B|432:224|456:288|440:352|360:360,1,225.000008583069
256,360,243017,5,2,0:0
152,360,243257,1,0,0:0
48,360,243497,1,2,0:0
96,272,243737,1,0,0:0
96,272,243857,1,2,0:0
200,272,244097,1,0,0:0
200,272,244217,2,2,B|256:216|248:176|256:128|200:72,1,225.000008583069
96,72,244937,5,2,0:0
96,176,245177,1,0,0:0
184,128,245417,1,2,0:0
256,264,245777,1,2,0:0
328,128,246137,1,2,0:0
328,128,246377,5,2,0:0
256,264,246737,1,2,0:0
184,128,247097,1,2,0:0
152,216,247337,2,2,B|216:208|256:176|256:176|296:208|360:216,1,225.000008583069
352,40,248297,5,4,0:0
160,40,248777,1,2,0:0
256,40,249017,1,0,0:0
208,120,249257,1,2,0:0
304,120,249497,1,0,0:0
304,120,249617,1,2,0:0
440,120,249977,2,2,B|496:152|512:208|496:272|440:304,1,225.000008583069
352,304,250697,5,2,0:0
256,304,250937,1,0,0:0
304,224,251177,1,2,0:0
256,96,251537,1,2,0:0
208,224,251897,1,2,0:0
160,304,252137,6,0,B|104:304|48:280|24:232|24:160,1,225.000008583069,2|2,0:0|0:0,0:0
112,160,252857,1,0,0:0
160,80,253097,1,2,0:0
256,176,253457,1,2,0:0
352,80,253817,1,2,0:0
352,80,254057,5,2,0:0
256,176,254417,1,2,0:0
160,80,254777,1,2,0:0
72,80,255017,2,2,B|48:136|72:192|96:248|72:304,1,225.000008583069
192,304,255977,5,4,0:0
344,144,256337,5,0,0:0
320,336,256697,5,4,0:0
144,112,257057,5,0,0:0
256,192,257417,5,4,0:0
256,192,257657,1,4,0:0
256,192,257897,1,4,0:0
424,112,258257,5,0,0:0
352,272,258617,5,4,0:0
256,64,258977,5,0,0:0
88,312,259817,5,4,0:0
136,160,260177,5,0,0:0
360,280,260537,5,4,0:0
312,88,260897,5,0,0:0
256,224,261257,5,4,0:0
256,224,261497,1,4,0:0
256,224,261737,1,4,0:0
424,168,262097,5,0,0:0
256,72,262457,5,4,0:0
368,280,262817,5,0,0:0
136,176,263177,5,4,0:0
136,176,263417,1,0,0:0
136,176,263657,1,4,0:0
256,192,263897,12,0,266897,0:0
192,320,267497,5,4,0:0
