osu file format v9

[General]
AudioFilename: Right Now.mp3
AudioLeadIn: 0
PreviewTime: 86880
Countdown: 0
SampleSet: Normal
StackLeniency: 0.7
Mode: 0
LetterboxInBreaks: 1
SkinPreference:ouendan2

[Editor]
Bookmarks: 42240,49920,57600,72480,88320,103680,115200,138720,145920,172800,180480,195840,215040,240617
DistanceSpacing: 1
BeatDivisor: 2
GridSize: 8

[Metadata]
Title:Right Now!
Artist:PSY
Creator:maryisasailor
Version:Easy
Source:
Tags:Park Jae-sang

[Difficulty]
HPDrainRate:2
CircleSize:3
OverallDifficulty:2
ApproachRate:2
SliderMultiplier:1
SliderTickRate:1

[Events]
//Background and Video events
Video,0,"Right Now.avi"
0,0,"RightNow.png"
//Break Periods
2,72680,75240
2,130760,132840
2,172400,178920
//Storyboard Layer 0 (Background)
//Storyboard Layer 1 (Fail)
//Storyboard Layer 2 (Pass)
//Storyboard Layer 3 (Foreground)
//Storyboard Sound Samples
//Background Colour Transformations
3,100,163,162,255

[TimingPoints]
42240,480,4,1,1,70,1,0
51360,-100,4,1,1,50,0,0
86400,-100,4,1,1,30,0,0
88320,-100,4,1,1,80,0,1
103680,-100,4,1,1,60,0,0
115200,-100,4,1,1,60,0,0
138720,-100,4,1,1,80,0,1
139200,-100,4,1,1,70,0,0
145920,-100,4,1,1,90,0,1
153120,-100,4,1,1,90,0,0
153600,-100,4,1,1,90,0,1
161280,-100,4,1,1,60,0,0
172800,-100,4,1,1,100,0,0
180000,-100,4,1,1,30,0,0
182400,-100,4,1,1,40,0,0
184320,-100,4,1,1,50,0,0
186240,-100,4,1,1,60,0,0
187920,-100,4,1,1,70,0,0
190080,-100,4,1,1,80,0,0
191520,-100,4,1,1,90,0,0
193920,-100,4,1,1,90,0,0
195840,-100,4,1,1,100,0,1
203040,-100,4,1,1,90,0,0
203520,-100,4,1,1,90,0,1
210720,-100,4,1,1,80,0,0
215040,-100,4,1,1,100,0,0
215520,-100,4,2,1,40,0,0
216960,-100,4,1,1,60,0,0
217920,-100,4,1,1,80,0,0
218880,-100,4,1,1,90,0,1
226560,-100,4,1,1,60,0,0
238080,-100,4,1,1,40,0,1
238560,-100,4,1,1,70,0,0
240617,480,4,1,1,100,1,1
240617,-100,4,1,1,90,0,1
255977,-100,4,1,1,60,0,0
267497,-100,4,1,1,40,0,1
267977,-100,4,1,1,100,0,0

[HitObjects]
136,88,42960,2,2,B|256:24|376:88,1,250
464,328,45120,1,2
368,328,45600,1,2
272,328,46080,2,2,B|104:328,1,150
88,192,47520,1,0
64,88,48000,5,8
160,88,48480,1,2
256,88,48960,1,2
352,88,49440,1,2
448,88,49920,1,4
464,336,51360,5,2
400,256,51840,1,4
48,336,53280,5,2
112,256,53760,1,4
336,184,54720,5,2
256,248,55200,1,2
176,184,55680,1,4
256,0,56640,1,0
40,88,57600,6,0,B|96:64|144:88|192:112|240:88,1,200,2|0
472,176,59520,2,0,B|416:152|368:176|320:200|272:176,1,200,2|0
40,264,61440,1,0
144,264,61920,1,2
240,264,62400,1,0
336,264,62880,1,2
432,264,63360,2,2,B|456:208|432:160|408:112|432:64,1,200
120,48,65280,5,4
32,104,65760,1,0
120,152,66240,1,2
120,336,67200,5,0
32,280,67680,1,0
120,232,68160,1,2
448,336,69120,5,0
496,248,69600,1,2
416,184,70080,1,0
472,104,70560,1,2
384,56,71040,2,2,B|168:56,1,200
88,88,72480,1,4
56,336,76800,6,2,B|200:336,1,100,2|0
256,336,77760,2,2,B|376:336,1,100,2|0
456,336,78720,1,2
408,248,79200,1,2
456,160,79680,2,2,B|432:96|384:56|312:40,1,183.333333333333
256,136,81120,5,4
256,136,82080,1,0
256,136,83040,1,0
256,136,84000,1,2
288,40,84480,5,2
192,56,84960,1,0
112,0,85440,1,2
88,96,85920,1,2
64,192,86400,6,0,B|136:232|208:192|280:144|360:192,1,300,2|0
424,112,88320,1,4
464,304,89280,6,2,B|416:344|320:320|296:248,1,200
48,304,91200,2,2,B|96:344|192:320|216:248,1,200
256,56,93120,5,2
256,256,94080,1,2
344,80,95040,1,2
256,128,95520,1,2
168,80,96000,1,4
208,280,96960,6,2,B|144:280|72:240|56:152,1,200
304,280,98880,2,2,B|368:280|440:240|456:152,1,200
256,128,100800,1,2
256,328,101760,1,2
80,240,102720,1,2
80,144,103200,1,2
168,192,103680,5,4
256,72,104400,1,4
344,192,105120,1,4
344,192,105600,1,4
256,72,106320,1,4
168,192,107040,1,0
112,272,107520,5,4
256,320,108240,1,4
400,272,108960,1,4
400,272,109440,1,4
256,320,110160,1,4
112,272,110880,1,0
256,192,111360,12,0,114600
256,160,115200,5,4
360,160,115680,2,2,B|416:216|416:280|360:336,1,200
256,336,117120,1,2
152,336,117600,2,2,B|96:280|96:216|152:160,1,200
168,64,119040,5,0
256,112,119520,1,2
344,64,120000,1,0
256,112,120480,1,2
208,200,120960,1,0
304,200,121440,1,2
400,200,121920,6,2,B|456:256|456:320|400:376,1,200,4|0
304,376,123360,1,2
352,288,123840,1,0
256,288,124320,1,2
208,376,124800,6,2,B|96:376,1,100,0|2
8,376,125760,1,0
56,288,126240,1,2
104,200,126720,6,0,B|104:96,1,100,2|0
208,104,127680,2,0,B|208:232,1,100,2|0
312,208,128640,1,0
400,256,129120,1,2
488,208,129600,1,2
400,160,130080,1,2
400,64,130560,5,4
456,336,134400,6,2,B|312:336,1,100
256,336,135360,2,2,B|136:336,1,100
56,336,136320,1,0
104,248,136800,1,0
56,160,137280,2,0,B|64:96|120:56|184:56,1,175,2|0
304,56,138720,5,4
400,56,139200,1,2
208,328,140160,5,2
112,328,140640,1,0
40,136,141600,5,2
136,136,142080,1,2
232,136,142560,2,0,B|336:136,1,100
432,136,143520,1,2
432,136,144000,2,2,B|432:208|384:264|304:264,1,200
208,264,145440,1,0
256,176,145920,5,4
464,80,146880,2,2,B|416:40|320:64|296:136,1,200
48,80,148800,2,2,B|96:40|192:64|216:136,1,200
256,328,150720,5,2
256,128,151680,1,2
344,304,152640,1,2
256,256,153120,1,2
168,304,153600,1,4
208,104,154560,6,2,B|144:104|72:144|56:232,1,200
304,104,156480,2,2,B|368:104|440:144|456:232,1,200
256,256,158400,1,2
256,56,159360,1,2
80,144,160320,1,2
80,240,160800,1,2
168,192,161280,5,4
256,312,162000,1,4
344,192,162720,1,4
344,192,163200,1,4
256,312,163920,1,4
168,192,164640,1,0
112,112,165120,5,4
256,64,165840,1,4
400,112,166560,1,4
400,112,167040,1,4
256,64,167760,1,4
112,112,168480,1,0
256,192,168960,12,0,172200
56,48,180480,6,0,B|160:48,1,100,0|0
256,48,181440,1,2
456,144,182400,6,0,B|352:144,1,100
256,144,183360,1,2
56,240,184320,6,0,B|160:240,1,100
256,240,185280,1,2
456,336,186240,6,0,B|352:336,1,100
256,336,187200,1,2
160,336,187680,1,0
64,336,188160,5,0
16,248,188640,1,0
112,248,189120,1,2
176,56,190080,5,0
256,112,190560,1,0
336,56,191040,1,2
400,248,192000,5,0
496,248,192480,1,0
448,336,192960,1,2
352,336,193440,1,2
296,248,193920,1,0
344,160,194400,1,2
440,160,194880,2,2,B|440:56,1,100
336,64,195840,5,4
472,208,196800,2,2,B|448:320|328:336,1,200
256,272,198240,1,0
176,334,198720,2,2,B|64:320|40:208,1,200
40,112,200160,5,0
128,160,200640,1,2
256,8,201600,1,2
384,160,202560,1,2
472,112,203040,1,2
472,208,203520,5,4
376,32,204480,2,2,B|288:32|224:48|192:104,1,200
256,176,205920,1,0
316,97,206400,2,2,B|288:48|224:32|136:32,1,200
80,232,208320,5,2
432,232,209280,1,2
256,288,210240,1,2
256,192,210720,1,2
256,96,211200,1,4
256,192,215040,12,4,218880
480,144,219840,6,2,B|464:208|408:264|328:264,1,200
256,200,221280,1,0
175,263,221760,2,2,B|103:263|47:207|31:143,1,200
32,48,223200,5,0
128,48,223680,2,2,B|240:48,1,100
328,48,224640,1,2
464,192,225600,1,2
464,288,226080,1,0
376,240,226560,5,4
256,152,227280,1,4
136,240,228000,1,4
136,240,228480,1,4
256,152,229200,1,4
376,240,229920,1,0
416,152,230400,5,4
256,216,231120,1,4
96,152,231840,1,4
96,152,232320,1,4
256,216,233040,1,4
416,152,233760,1,0
256,192,234240,12,0,237480
256,128,238080,5,4
304,352,240120,5,0
208,352,240617,1,0
48,232,241577,6,0,B|56:168|104:112|184:96,1,200
256,160,243017,1,0
333,97,243497,2,0,B|408:112|456:168|464:232,1,200
464,328,244937,1,0
376,280,245417,5,0
256,120,246377,1,0
136,280,247337,1,0
48,328,247817,1,0
48,224,248297,1,0
136,40,249257,6,0,B|224:40|288:80|328:128,1,200
256,192,250697,1,0
196,114,251177,2,0,B|224:80|288:40|376:40,1,200
472,40,252617,1,0
472,136,253097,2,0,B|472:240,1,100
384,192,254057,1,0
208,96,255017,1,0
304,96,255497,1,0
400,96,255977,5,0
256,176,256697,1,0
112,96,257417,1,0
112,96,257897,1,0
256,176,258617,1,0
400,96,259337,1,0
360,192,259817,5,0
256,48,260537,1,0
152,192,261257,1,0
152,192,261737,1,0
256,48,262457,1,0
360,192,263177,1,0
360,192,263657,1,0
256,192,263897,12,0,266897
256,288,267497,5,0
