osu file format v12

[General]
AudioFilename: Gentleman(Fast Ver.).mp3
AudioLeadIn: 0
PreviewTime: 106852
Countdown: 1
SampleSet: Normal
StackLeniency: 0.7
Mode: 0
LetterboxInBreaks: 1

[Editor]
Bookmarks: 23023,37142
DistanceSpacing: 0.7
BeatDivisor: 4
GridSize: 4

[Metadata]
Title:Oppan GentleMan (Speed Ver.)
TitleUnicode:Oppan GentleMan (Speed Ver.)
Artist:PSY
ArtistUnicode:PSY
Creator:[Pisces]
Version:Insane
Source:
Tags:MineC24 kpop
BeatmapID:246592
BeatmapSetID:91022

[Difficulty]
HPDrainRate:7
CircleSize:4
OverallDifficulty:8
ApproachRate:8
SliderMultiplier:2.3
SliderTickRate:1

[Events]
//Background and Video events
0,0,"bg.png",0,0
//Break Periods
//Storyboard Layer 0 (Background)
//Storyboard Layer 1 (Fail)
//Storyboard Layer 2 (Pass)
//Storyboard Layer 3 (Foreground)
//Storyboard Sound Samples
//Background Colour Transformations
3,100,163,162,255

[TimingPoints]
202,414.9377593361,4,1,2,80,1,0
6841,-100,4,1,1,80,0,0
11820,-100,4,1,1,50,0,0
13065,-100,4,1,2,80,0,0
13480,-100,4,1,1,80,0,0
26343,-100,4,1,2,80,0,0
26758,-100,4,1,1,80,0,0
39621,-100,4,1,2,80,0,0
40036,-100,4,1,1,80,0,1
40243,-100,4,1,1,80,0,0
46260,-200,4,1,2,80,0,0
46675,-100,4,1,1,80,0,0
47712,-100,4,1,1,90,0,0
47919,-100,4,1,1,100,0,0
48334,-100,4,1,1,80,0,0
49372,-100,4,1,1,90,0,0
49579,-100,4,1,1,100,0,0
49994,-100,4,1,1,80,0,0
50409,-100,4,1,1,90,0,0
50824,-100,4,1,1,100,0,0
51239,-100,4,1,1,60,0,0
52899,-100,4,1,2,100,0,0
53314,-100,4,1,1,80,0,1
59745,-100,4,1,1,80,0,0
59953,-100,4,1,1,80,0,1
66177,-100,4,1,2,80,0,1
66592,-100,4,1,1,80,0,0
67421,-100,4,1,1,40,0,0
68251,-100,4,1,1,80,0,0
81114,-133.333333333333,4,1,2,80,0,0
81529,-100,4,1,1,80,0,0
91073,-133.333333333333,4,1,1,80,0,0
91488,-100,4,1,1,80,0,0
94392,-100,4,1,2,80,0,0
94807,-100,4,1,1,80,0,1
95015,-100,4,1,1,80,0,0
101031,-200,4,1,2,80,0,0
101446,-100,4,1,1,80,0,0
102484,-100,4,1,1,90,0,0
102691,-100,4,1,1,100,0,0
103106,-100,4,1,1,80,0,0
104143,-100,4,1,1,90,0,0
104351,-100,4,1,1,100,0,0
104766,-100,4,1,1,80,0,0
105181,-100,4,1,1,90,0,0
105596,-100,4,1,1,100,0,0
106011,-100,4,1,1,60,0,0
107670,-100,4,1,2,60,0,0
108085,-100,4,1,1,80,0,1
114621,-100,4,1,1,80,0,0
114724,-100,4,1,1,80,0,1
120948,-100,4,1,2,80,0,0
120948,-100,4,1,1,80,0,0
121363,-100,4,1,1,80,0,1
121571,-100,4,1,1,80,0,0
129040,-100,4,1,1,90,0,0
129247,-100,4,1,1,100,0,0
129662,-100,4,1,1,80,0,0
130699,-100,4,1,1,90,0,0
130907,-100,4,1,1,100,0,0
131322,-100,4,1,1,80,0,0
132359,-100,4,1,1,90,0,0
132567,-100,4,1,1,100,0,0
132982,-100,4,1,1,80,0,0
138376,-100,4,1,1,90,0,0
138791,-100,4,1,1,100,0,0
139206,-100,4,1,1,60,0,0
140865,-100,4,1,2,80,0,0
141280,-100,4,1,1,80,0,1
147712,-100,4,1,1,80,0,0
147919,-100,4,1,1,80,0,1
154143,-100,4,1,1,80,0,0
154558,-100,4,1,1,50,0,0
160782,-100,4,1,2,80,0,0
160990,-100,4,1,2,50,0,0
161197,-100,4,1,1,60,0,0
167525,-100,4,1,1,10,0,0

[Colours]
Combo1 : 192,192,192
Combo2 : 0,64,128
Combo3 : 128,128,255
Combo4 : 0,255,255
Combo5 : 255,128,128

[HitObjects]
440,96,6426,1,12,0:0:0:0:
72,96,6841,6,0,P|128:104|192:256,1,230,2|8,0:0|0:0,0:0:0:0:
88,216,7463,1,0,0:0:0:0:
80,256,7567,1,0,0:0:0:0:
88,296,7670,1,2,0:0:0:0:
192,352,7878,2,0,L|304:304,2,115,0|8|0,0:0|0:0|0:0,0:0:0:0:
320,32,8500,5,2,0:0:0:0:
224,272,8708,1,0,0:0:0:0:
192,160,8915,1,8,0:0:0:0:
304,128,9123,1,0,0:0:0:0:
328,240,9330,2,0,P|392:256|440:248,1,115,2|0,0:0|0:0,0:0:0:0:
192,160,9745,2,0,P|128:144|80:152,1,115,8|0,0:0|0:0,0:0:0:0:
104,40,10160,6,0,P|80:152|104:272,1,230,2|8,0:0|0:0,0:0:0:0:
216,248,10782,1,0,0:0:0:0:
216,248,10886,1,0,0:0:0:0:
216,248,10990,1,2,0:0:0:0:
100,264,11197,1,0,0:0:0:0:
216,248,11405,2,0,P|208:320|168:360,1,115,8|0,0:0|0:0,0:0:0:0:
296,136,11820,21,2,0:0:0:0:
392,192,12027,1,0,0:0:0:0:
384,232,12131,1,0,0:0:0:0:
392,272,12235,1,0,0:0:0:0:
288,312,12442,1,0,0:0:0:0:
312,344,12546,1,0,0:0:0:0:
352,360,12650,22,0,P|416:352|464:368,1,115
160,360,13065,2,0,P|96:352|48:367,1,115,8|0,0:0|0:0,0:0:0:0:
48,256,13480,6,0,P|96:200|104:40,1,230,6|8,0:0|0:0,0:0:0:0:
224,32,14102,1,0,0:0:0:0:
320,104,14309,2,0,P|384:104|424:72,1,115,2|0,0:0|0:0,0:0:0:0:
320,280,14724,2,0,P|384:280|422:310,1,115,8|0,0:0|0:0,0:0:0:0:
432,192,15139,1,2,0:0:0:0:
320,104,15347,1,0,0:0:0:0:
320,280,15554,1,8,0:0:0:0:
432,192,15762,22,0,L|312:192,2,115,0|2|0,0:0|0:0|0:0,0:0:0:0:
256,352,16384,1,8,0:0:0:0:
80,192,16592,1,0,0:0:0:0:
256,32,16799,6,0,P|216:80|160:88,1,115,2|0,0:0|0:0,0:0:0:0:
208,200,17214,2,0,P|184:264|136:296,1,115,8|0,0:0|0:0,0:0:0:0:
80,192,17629,1,2,0:0:0:0:
32,296,17836,1,0,0:0:0:0:
208,200,18044,1,8,0:0:0:0:
32,296,18251,1,0,0:0:0:0:
208,200,18459,22,0,P|288:200|320:176,1,115,2|0,0:0|0:0,0:0:0:0:
328,64,18874,2,0,P|408:96|424:192,1,172.5,8|0,0:0|0:0,0:0:0:0:
416,216,19289,2,0,P|416:280|440:328,1,115,2|0,0:0|0:0,0:0:0:0:
74,325,19704,2,0,P|96:280|96:216,1,115,8|0,0:0|0:0,0:0:0:0:
32,120,20119,22,0,P|88:104|152:128,1,115,6|0,0:0|0:0,0:0:0:0:
232,192,20533,1,8,0:0:0:0:
320,120,20741,1,0,0:0:0:0:
416,176,20948,2,0,P|440:240|480:272,1,115,2|0,0:0|0:0,0:0:0:0:
320,120,21363,2,0,P|360:80|376:16,1,115,8|0,0:0|0:0,0:0:0:0:
320,224,21778,1,2,0:0:0:0:
352,336,21986,1,0,0:0:0:0:
240,304,22193,2,0,P|184:336|72:320,1,172.5,8|0,0:0|0:0,0:0:0:0:
56,296,22608,6,0,P|64:232|40:184,1,115,2|0,0:0|0:0,0:0:0:0:
456,88,23023,2,0,P|448:152|472:200,1,115,8|0,0:0|0:0,0:0:0:0:
352,192,23438,1,2,0:0:0:0:
312,296,23645,1,0,0:0:0:0:
280,312,23749,1,0,0:0:0:0:
240,312,23853,6,0,P|168:296|120:312,1,115,8|0,0:0|0:0,0:0:0:0:
48,224,24268,1,2,0:0:0:0:
129,306,24475,1,0,0:0:0:0:
48,224,24683,1,8,0:0:0:0:
72,112,24890,1,0,0:0:0:0:
72,112,24994,1,0,0:0:0:0:
72,112,25098,6,0,P|120:152|176:152,1,115,2|0,0:0|0:0,0:0:0:0:
208,152,25409,1,0,0:0:0:0:
248,136,25513,2,0,P|312:120|376:144,1,115,8|0,0:0|0:0,0:0:0:0:
456,192,25928,1,2,0:0:0:0:
352,240,26135,1,0,0:0:0:0:
352,352,26343,6,0,P|256:296|200:320,1,172.5,8|0,0:0|0:0,0:0:0:0:
168,336,26758,5,4,0:0:0:0:
64,288,26965,2,0,P|88:224|80:176,2,115,0|8|0,0:0|0:0|0:0,0:0:0:0:
64,96,27587,1,2,0:0:0:0:
64,288,27795,1,0,0:0:0:0:
64,96,28002,2,0,P|128:104|160:152,1,115,8|0,0:0|0:0,0:0:0:0:
256,200,28417,2,0,L|360:144,1,115
464,200,28832,2,0,L|360:256,1,115,8|0,0:0|0:0,0:0:0:0:
264,88,29247,2,0,L|365:33,1,115,2|0,0:0|0:0,0:0:0:0:
362,254,29662,6,0,P|336:336|256:344,1,172.5,8|0,0:0|0:0,0:0:0:0:
224,328,30077,2,0,P|168:320|112:344,1,115,6|0,0:0|0:0,0:0:0:0:
48,248,30492,1,8,0:0:0:0:
80,136,30699,1,0,0:0:0:0:
192,168,30907,6,0,P|192:96|160:48,1,115,2|0,0:0|0:0,0:0:0:0:
320,168,31322,2,0,P|320:96|352:48,1,115,8|0,0:0|0:0,0:0:0:0:
432,136,31737,2,0,P|440:200|312:288,1,230,2|8,0:0|0:0,0:0:0:0:
208,272,32359,1,0,0:0:0:0:
168,288,32463,1,0,0:0:0:0:
128,288,32567,2,0,P|64:248|16:248,1,115,2|0,0:0|0:0,0:0:0:0:
24,128,32982,2,0,P|88:112|136:80,1,115,8|0,0:0|0:0,0:0:0:0:
152,48,33293,1,0,0:0:0:0:
192,48,33397,6,0,P|256:80|328:80,1,115,6|0,0:0|0:0,0:0:0:0:
392,136,33811,1,8,0:0:0:0:
480,64,34019,1,0,0:0:0:0:
298,68,34226,1,2,0:0:0:0:
392,136,34434,1,0,0:0:0:0:
450,318,34641,2,0,P|400:296|368:248,1,115,8|0,0:0|0:0,0:0:0:0:
272,312,35056,21,2,0:0:0:0:
240,72,35264,1,0,0:0:0:0:
256,312,35471,1,8,0:0:0:0:
256,72,35679,1,0,0:0:0:0:
144,96,35886,2,0,P|136:152|96:200,1,115,2|0,0:0|0:0,0:0:0:0:
48,296,36301,2,0,P|112:312|200:240,1,172.5,8|0,0:0|0:0,0:0:0:0:
216,224,36716,2,0,P|272:184|328:184,1,115,6|0,0:0|0:0,0:0:0:0:
480,312,37131,2,0,P|424:352|368:352,2,115,8|0|2,0:0|0:0|0:0,0:0:0:0:
440,200,37753,1,0,0:0:0:0:
480,88,37961,1,8,0:0:0:0:
480,312,38168,1,0,0:0:0:0:
480,88,38376,6,0,P|408:80|352:112,1,115,2|0,0:0|0:0,0:0:0:0:
32,88,38791,2,0,P|104:80|160:112,1,115,8|0,0:0|0:0,0:0:0:0:
256,32,39206,2,0,L|256:264,2,230,2|8|12,0:0|0:0|0:0,0:0:0:0:
480,192,40450,21,8,0:0:0:0:
256,32,40865,1,8,0:0:0:0:
432,256,41280,1,8,0:0:0:0:
208,96,41695,1,8,0:0:0:0:
376,312,42110,1,8,0:0:0:0:
152,152,42525,1,8,0:0:0:0:
320,368,42940,1,8,0:0:0:0:
128,64,43355,21,8,0:0:0:0:
384,320,43770,1,8,0:0:0:0:
128,192,44185,1,8,0:0:0:0:
384,192,44600,1,8,0:0:0:0:
128,320,45015,1,8,0:0:0:0:
384,64,45430,1,8,0:0:0:0:
256,320,45845,1,8,0:0:0:0:
256,64,46260,54,0,L|256:152,1,86.25,8|0,0:0|0:0,0:0:0:0:
144,192,46675,21,6,0:0:0:0:
64,104,46882,2,0,P|40:128|32:168,1,57.5
32,192,47089,2,0,P|48:256|32:320,1,115,2|0,0:0|0:0,0:0:0:0:
144,344,47504,1,2,0:0:0:0:
256,320,47712,1,8,0:0:0:0:
368,344,47919,1,10,0:0:0:0:
440,256,48127,1,8,0:0:0:0:
424,216,48231,1,0,0:0:0:0:
432,176,48334,22,0,P|440:96|368:24,1,172.5,2|0,0:0|0:0,0:0:0:0:
344,24,48749,2,0,P|280:72|240:72,1,115,2|0,0:0|0:0,0:0:0:0:
168,360,49164,2,0,P|232:312|272:312,1,115,2|8,0:0|0:0,0:0:0:0:
152,144,49579,1,8,0:0:0:0:
360,240,49787,1,8,0:0:0:0:
152,144,49994,22,0,L|144:176,7,28.75
128,200,50409,22,0,L|96:232,7,28.75
80,232,50824,6,0,L|32:232,7,28.75
24,224,51239,22,0,P|32:288|16:352,1,115
256,32,52899,5,8,0:0:0:0:
256,264,53314,22,0,P|312:176|424:192,1,230,6|8,0:0|0:0,0:0:0:0:
376,296,53936,1,0,0:0:0:0:
360,336,54040,1,0,0:0:0:0:
328,360,54143,1,2,0:0:0:0:
256,264,54351,1,0,0:0:0:0:
168,344,54558,1,8,0:0:0:0:
104,240,54766,1,0,0:0:0:0:
152,136,54973,22,0,P|176:72|160:16,1,115,2|0,0:0|0:0,0:0:0:0:
360,136,55388,2,0,P|336:72|352:16,1,115,8|0,0:0|0:0,0:0:0:0:
152,136,55803,2,0,P|208:184|208:240,1,115,2|0,0:0|0:0,0:0:0:0:
360,136,56218,2,0,P|304:184|304:240,1,115,8|0,0:0|0:0,0:0:0:0:
344,328,56633,6,0,P|256:352|120:320,1,230,2|8,0:0|0:0,0:0:0:0:
40,240,57255,1,0,0:0:0:0:
56,200,57359,1,0,0:0:0:0:
72,160,57463,2,0,P|80:104|64:40,1,115,2|0,0:0|0:0,0:0:0:0:
184,32,57878,1,8,0:0:0:0:
288,72,58085,1,0,0:0:0:0:
400,32,58293,6,0,P|400:104|368:152,1,115,2|0,0:0|0:0,0:0:0:0:
352,168,58604,1,0,0:0:0:0:
312,184,58708,2,0,P|232:200|216:240,1,115,8|0,0:0|0:0,0:0:0:0:
184,240,59019,1,0,0:0:0:0:
144,232,59123,2,0,P|80:232|24:192,1,115,2|8,0:0|0:0,0:0:0:0:
368,232,59538,2,0,P|432:232|488:192,1,115,8|0,0:0|0:0,0:0:0:0:
256,352,59953,6,0,L|256:120,1,230,6|8,0:0|0:0,0:0:0:0:
184,32,60575,2,0,L|128:64,2,57.5,0|0|2,0:0|0:0|0:0,0:0:0:0:
296,16,60990,1,0,0:0:0:0:
376,96,61197,2,0,P|400:168|448:192,1,115,8|0,0:0|0:0,0:0:0:0:
444,325,61612,22,0,P|432:304|352:272,1,115,2|0,0:0|0:0,0:0:0:0:
67,325,62027,2,0,P|80:304|160:272,1,115,8|0,0:0|0:0,0:0:0:0:
430,187,62442,2,0,B|393:189|393:189|354:174|310:187,1,115,2|0,0:0|0:0,0:0:0:0:
81,187,62857,2,0,B|119:189|119:189|158:174|202:187,1,115,8|0,0:0|0:0,0:0:0:0:
256,88,63272,6,0,P|160:40|48:80,1,230,2|8,0:0|0:0,0:0:0:0:
81,187,63894,1,0,0:0:0:0:
80,224,63998,1,0,0:0:0:0:
64,256,64102,2,0,P|40:320|40:368,1,115,2|0,0:0|0:0,0:0:0:0:
256,328,64517,2,0,P|280:264|280:218,1,115,8|0,0:0|0:0,0:0:0:0:
256,104,64932,5,2,0:0:0:0:
360,56,65139,2,0,L|424:32,2,57.5,0|0|8,0:0|0:0|0:0,0:0:0:0:
392,192,65554,2,0,L|464:192,2,57.5,0|0|2,0:0|0:0|0:0,0:0:0:0:
360,328,65969,1,0,0:0:0:0:
256,240,66177,2,0,P|216:304|176:320,1,115,8|0,0:0|0:0,0:0:0:0:
48,304,66592,1,2,0:0:0:0:
32,32,67421,5,0,0:0:0:0:
96,128,67629,1,0,0:0:0:0:
208,120,67836,2,0,P|264:96|336:112,1,115,0|0,0:0|0:0,0:0:0:0:
292,216,68251,22,0,P|332:88|428:64,1,230,6|8,0:0|0:0,0:0:0:0:
472,160,68874,1,0,0:0:0:0:
440,272,69081,2,0,P|400:336|344:352,1,115,2|0,0:0|0:0,0:0:0:0:
256,320,69496,2,0,P|192:288|136:304,1,115,8|0,0:0|0:0,0:0:0:0:
40,328,69911,1,2,0:0:0:0:
32,216,70119,1,0,0:0:0:0:
144,184,70326,2,0,P|216:136|224:40,1,172.5,8|0,0:0|0:0,0:0:0:0:
256,24,70741,6,0,P|320:40|376:32,1,115,2|0,0:0|0:0,0:0:0:0:
480,240,71156,2,0,P|416:224|360:232,1,115,8|0,0:0|0:0,0:0:0:0:
392,120,71571,2,0,P|368:176|432:336,1,230,2|8,0:0|0:0,0:0:0:0:
304,344,72193,5,0,0:0:0:0:
264,328,72297,1,0,0:0:0:0:
224,336,72401,2,0,P|168:352|104:336,1,115,2|0,0:0|0:0,0:0:0:0:
56,144,72816,2,0,P|112:128|176:144,1,115,8|0,0:0|0:0,0:0:0:0:
256,216,73231,1,2,0:0:0:0:
144,240,73438,1,0,0:0:0:0:
166,139,73645,2,0,P|232:120|288:32,1,172.5,8|0,0:0|0:0,0:0:0:0:
287,36,74060,5,2,0:0:0:0:
392,88,74268,1,0,0:0:0:0:
256,216,74475,1,8,0:0:0:0:
144,240,74683,1,0,0:0:0:0:
368,184,74890,22,0,P|392:264|368:312,1,115,6|0,0:0|0:0,0:0:0:0:
256,216,75305,2,0,P|248:296|216:328,1,115,8|0,0:0|0:0,0:0:0:0:
144,240,75720,2,0,P|144:176|176:128,1,115,2|0,0:0|0:0,0:0:0:0:
368,144,76135,2,0,P|368:208|336:256,1,115,8|0,0:0|0:0,0:0:0:0:
256,176,76550,1,2,0:0:0:0:
256,64,76758,1,0,0:0:0:0:
256,176,76965,2,0,P|376:136|392:88,1,172.5,8|0,0:0|0:0,0:0:0:0:
392,64,77380,21,2,0:0:0:0:
480,192,77587,1,0,0:0:0:0:
376,312,77795,2,0,P|304:320|264:352,1,115,8|0,0:0|0:0,0:0:0:0:
208,248,78210,6,0,P|160:296|16:240,1,230,2|8,0:0|0:0,0:0:0:0:
40,136,78832,1,0,0:0:0:0:
152,128,79040,2,0,P|192:72|200:16,1,115,2|0,0:0|0:0,0:0:0:0:
360,128,79455,2,0,P|320:72|312:16,1,115,8|0,0:0|0:0,0:0:0:0:
208,248,79870,1,2,0:0:0:0:
152,128,80077,1,0,0:0:0:0:
256,72,80284,2,0,P|360:128|416:120,1,172.5,8|0,0:0|0:0,0:0:0:0:
448,112,80699,1,2,0:0:0:0:
480,224,80907,1,0,0:0:0:0:
392,296,81114,6,0,P|368:216|392:160,1,129.375004935265,8|0,0:0|0:0,0:0:0:0:
480,224,81529,6,0,P|504:272|496:344,1,115,6|0,0:0|0:0,0:0:0:0:
392,296,81944,2,0,P|336:320|280:312,1,115,8|0,0:0|0:0,0:0:0:0:
120,88,82359,2,0,P|176:64|232:72,1,115,2|0,0:0|0:0,0:0:0:0:
256,184,82774,1,8,0:0:0:0:
344,104,82982,1,0,0:0:0:0:
256,184,83189,2,0,P|296:240|296:288,1,115,2|0,0:0|0:0,0:0:0:0:
64,176,83604,2,0,P|24:120|23:75,1,115,8|0,0:0|0:0,0:0:0:0:
48,288,84019,2,0,P|120:280|168:136,2,230,2|8|2,0:0|0:0|0:0,0:0:0:0:
64,176,85056,21,0,0:0:0:0:
88,64,85264,1,8,0:0:0:0:
192,104,85471,1,0,0:0:0:0:
256,16,85679,1,2,0:0:0:0:
320,104,85886,1,0,0:0:0:0:
424,64,86094,2,0,P|432:144|368:208,1,172.5,8|0,0:0|0:0,0:0:0:0:
328,208,86509,2,0,P|264:192|200:216,1,115,2|0,0:0|0:0,0:0:0:0:
116,152,86923,6,0,L|76:112,2,57.5
168,256,87338,2,0,P|176:328|208:360,1,115,2|0,0:0|0:0,0:0:0:0:
344,128,87753,2,0,P|336:56|304:24,1,115,8|0,0:0|0:0,0:0:0:0:
256,32,88065,1,0,0:0:0:0:
216,56,88168,22,0,P|168:96|112:96,1,115,6|0,0:0|0:0,0:0:0:0:
56,192,88583,1,8,0:0:0:0:
112,288,88791,1,0,0:0:0:0:
224,272,88998,1,2,0:0:0:0:
56,192,89206,1,0,0:0:0:0:
224,272,89413,1,8,0:0:0:0:
264,264,89517,1,0,0:0:0:0:
304,280,89621,1,0,0:0:0:0:
376,192,89828,5,2,0:0:0:0:
416,296,90036,1,0,0:0:0:0:
432,96,90243,2,0,P|376:80|320:96,1,115,8|0,0:0|0:0,0:0:0:0:
288,112,90554,1,0,0:0:0:0:
248,112,90658,2,0,P|176:136|120:120,1,115,2|0,0:0|0:0,0:0:0:0:
40,192,91073,38,0,P|32:120|56:64,1,129.375004935265,8|0,0:0|0:0,0:0:0:0:
139,129,91488,54,0,P|144:192|112:248,1,115,2|0,0:0|0:0,0:0:0:0:
192,328,91903,1,8,0:0:0:0:
296,280,92110,22,0,P|368:296|400:328,1,115,0|2,0:0|0:0,0:0:0:0:
192,328,92525,2,0,P|216:208|312:168,1,230
376,72,93148,6,0,P|416:120|416:192,1,115,2|0,0:0|0:0,0:0:0:0:
256,32,93562,2,0,L|256:152,1,115,8|0,0:0|0:0,0:0:0:0:
136,72,93977,2,0,P|96:120|96:192,1,115,2|0,0:0|0:0,0:0:0:0:
208,192,94392,2,0,P|144:280|32:264,1,230,8|12,0:0|0:0,0:0:0:0:
480,192,95222,21,8,0:0:0:0:
256,352,95637,1,8,0:0:0:0:
432,128,96052,1,8,0:0:0:0:
208,288,96467,1,8,0:0:0:0:
376,72,96882,1,8,0:0:0:0:
152,232,97297,1,8,0:0:0:0:
320,16,97712,1,8,0:0:0:0:
128,320,98127,21,8,0:0:0:0:
384,64,98542,1,8,0:0:0:0:
128,192,98957,1,8,0:0:0:0:
384,192,99372,1,8,0:0:0:0:
128,64,99787,1,8,0:0:0:0:
384,320,100202,1,8,0:0:0:0:
256,64,100617,1,8,0:0:0:0:
256,320,101031,54,0,L|256:232,1,86.25,8|0,0:0|0:0,0:0:0:0:
344,152,101446,22,0,P|416:104|496:168,1,172.5,6|0,0:0|0:0,0:0:0:0:
480,184,101861,1,2,0:0:0:0:
392,256,102069,1,8,0:0:0:0:
344,152,102276,2,0,P|280:144|232:160,1,115,2|8,0:0|0:0,0:0:0:0:
120,192,102691,1,8,0:0:0:0:
56,96,102899,1,0,0:0:0:0:
88,80,103002,1,0,0:0:0:0:
128,80,103106,6,0,P|136:136|80:240,1,172.5,2|0,0:0|0:0,0:0:0:0:
64,272,103521,2,0,P|64:344|96:384,1,115,2|8,0:0|0:0,0:0:0:0:
196,336,103936,1,2,0:0:0:0:
336,344,104143,1,8,0:0:0:0:
400,224,104351,1,8,0:0:0:0:
320,112,104558,1,0,0:0:0:0:
184,152,104766,6,0,L|160:136,7,28.75,2|0|0|0|0|0|0|0,0:0|0:0|0:0|0:0|0:0|0:0|0:0|0:0,0:0:0:0:
128,136,105181,22,0,L|88:144,7,28.75,2|0|0|0|0|0|0|0,0:0|0:0|0:0|0:0|0:0|0:0|0:0|0:0,0:0:0:0:
80,160,105596,6,0,L|64:200,7,28.75,2|0|0|0|0|0|0|0,0:0|0:0|0:0|0:0|0:0|0:0|0:0|0:0,0:0:0:0:
72,216,106011,6,0,P|120:264|128:312,1,115,2|0,0:0|0:0,0:0:0:0:
256,192,106426,12,8,107670,0:0:0:0:
64,88,108085,6,0,P|128:80|232:192,1,230,6|8,0:0|0:0,0:0:0:0:
304,280,108708,1,0,0:0:0:0:
344,264,108811,1,0,0:0:0:0:
384,272,108915,2,0,P|440:304|496:304,1,115,2|0,0:0|0:0,0:0:0:0:
128,272,109330,2,0,P|72:304|16:304,1,115,8|0,0:0|0:0,0:0:0:0:
72,80,109745,21,2,0:0:0:0:
32,192,109953,1,0,0:0:0:0:
200,64,110160,1,8,0:0:0:0:
72,80,110367,1,0,0:0:0:0:
256,192,110575,2,0,P|312:160|328:104,1,115,2|8,0:0|0:0,0:0:0:0:
416,192,110990,2,0,P|456:240|456:312,1,115,8|0,0:0|0:0,0:0:0:0:
344,280,111405,6,0,P|416:192|432:80,1,230,2|8,0:0|0:0,0:0:0:0:
328,40,112027,1,0,0:0:0:0:
288,48,112131,1,0,0:0:0:0:
248,40,112235,1,2,0:0:0:0:
152,96,112442,1,0,0:0:0:0:
40,80,112650,2,0,L|16:24,2,57.5,8|0|0,0:0|0:0|0:0,0:0:0:0:
72,192,113065,6,0,P|96:264|144:288,1,115,2|0,0:0|0:0,0:0:0:0:
168,296,113376,1,0,0:0:0:0:
208,288,113480,1,8,0:0:0:0:
264,192,113687,1,0,0:0:0:0:
304,184,113791,1,0,0:0:0:0:
344,200,113894,2,0,P|400:208|456:192,1,115,2|8,0:0|0:0,0:0:0:0:
424,304,114309,2,0,P|456:232|440:136,1,172.5,8|0,0:0|0:0,0:0:0:0:
424,104,114724,6,0,P|360:80|328:32,1,115,6|0,0:0|0:0,0:0:0:0:
224,72,115139,1,8,0:0:0:0:
112,48,115347,1,0,0:0:0:0:
96,88,115450,1,0,0:0:0:0:
64,120,115554,1,2,0:0:0:0:
96,224,115762,1,0,0:0:0:0:
96,224,115969,2,0,P|160:232|224:208,1,115,8|0,0:0|0:0,0:0:0:0:
304,166,116384,21,2,0:0:0:0:
207,217,116592,1,0,0:0:0:0:
416,160,116799,1,8,0:0:0:0:
96,224,117006,1,0,0:0:0:0:
304,166,117214,2,0,P|320:96|360:64,1,115,2|0,0:0|0:0,0:0:0:0:
416,160,117629,1,8,0:0:0:0:
420,200,117733,1,0,0:0:0:0:
400,240,117836,1,0,0:0:0:0:
288,272,118044,6,0,P|240:312|136:280,1,172.5,2|0,0:0|0:0,0:0:0:0:
112,256,118459,2,0,P|136:184|128:144,1,115,8|0,0:0|0:0,0:0:0:0:
112,112,118770,1,0,0:0:0:0:
104,72,118874,1,2,0:0:0:0:
216,104,119081,1,0,0:0:0:0:
304,32,119289,2,0,P|344:80|408:96,1,115,8|0,0:0|0:0,0:0:0:0:
456,192,119704,6,0,P|432:256|384:280,1,115,2|0,0:0|0:0,0:0:0:0:
352,272,120015,1,0,0:0:0:0:
320,248,120119,2,0,L|200:280,1,115,8|0,0:0|0:0,0:0:0:0:
168,280,120430,1,0,0:0:0:0:
136,304,120533,2,0,P|72:296|48:248,1,115,2|0,0:0|0:0,0:0:0:0:
32,368,120948,2,0,P|48:240|24:136,1,230,8|12,0:0|0:0,0:0:0:0:
96,56,121571,5,0,0:0:0:0:
136,72,121675,1,0,0:0:0:0:
176,72,121778,2,0,P|240:72|296:96,1,115,8|0,0:0|0:0,0:0:0:0:
224,184,122193,2,0,P|288:88|400:64,1,230,8|8,0:0|0:0,0:0:0:0:
360,288,123023,21,8,0:0:0:0:
248,280,123231,1,0,0:0:0:0:
208,264,123334,1,0,0:0:0:0:
168,248,123438,2,0,P|104:240|56:256,1,115,8|0,0:0|0:0,0:0:0:0:
120,352,123853,2,0,P|56:256|104:152,1,230,8|8,0:0|0:0,0:0:0:0:
200,32,124683,5,8,0:0:0:0:
232,56,124787,1,0,0:0:0:0:
272,64,124890,1,0,0:0:0:0:
312,56,124994,1,0,0:0:0:0:
344,32,125098,2,0,L|472:32,1,115,8|0,0:0|0:0,0:0:0:0:
480,192,125513,2,0,P|368:192|304:288,2,230,8|8|8,0:0|0:0|0:0,0:0:0:0:
32,192,126758,1,8,0:0:0:0:
32,192,127172,2,0,B|64:208|64:208|72:168|72:168|104:192|104:192|112:152|112:152|144:184|144:184|160:136|160:136|280:168|352:64,1,460,8|12,0:0|0:0,0:0:0:0:
392,176,128210,5,0,0:0:0:0:
424,200,128314,1,0,0:0:0:0:
464,200,128417,1,8,0:0:0:0:
408,296,128625,1,0,0:0:0:0:
296,304,128832,1,2,0:0:0:0:
200,240,129040,1,8,0:0:0:0:
184,128,129247,1,8,0:0:0:0:
256,40,129455,1,8,0:0:0:0:
296,144,129662,6,0,P|224:144|144:88,1,172.5,6|0,0:0|0:0,0:0:0:0:
112,64,130077,2,0,P|48:56|0:72,1,115,8|0,0:0|0:0,0:0:0:0:
32,184,130492,1,0,0:0:0:0:
24,296,130699,1,8,0:0:0:0:
136,336,130907,1,8,0:0:0:0:
224,264,131114,1,8,0:0:0:0:
200,152,131322,21,6,0:0:0:0:
236,136,131426,1,0,0:0:0:0:
272,120,131529,1,0,0:0:0:0:
308,104,131633,1,0,0:0:0:0:
344,88,131737,2,0,L|456:40,1,115,2|8,0:0|0:0,0:0:0:0:
428,156,132152,1,2,0:0:0:0:
480,260,132359,1,8,0:0:0:0:
400,344,132567,1,8,0:0:0:0:
296,292,132774,1,8,0:0:0:0:
36,196,132982,6,0,P|104:208|156:292,1,172.5,6|0,0:0|0:0,0:0:0:0:
155,291,133397,2,8,P|192:228|240:208,1,115,10|0,0:0|0:0,0:0:0:0:
256,100,133811,2,0,P|328:72|364:32,1,115,2|8,0:0|0:0,0:0:0:0:
444,116,134226,2,8,P|372:144|336:184,1,115,8|0,0:0|0:0,0:0:0:0:
256,100,134641,6,0,P|184:72|148:32,1,115,10|0,0:0|0:0,0:0:0:0:
68,116,135056,2,0,P|140:144|176:184,1,115,8|0,0:0|0:0,0:0:0:0:
215,320,135471,2,0,P|168:312|116:272,1,115,2|0,0:0|0:0,0:0:0:0:
256,192,135886,2,0,P|303:200|355:240,1,115,8|0,0:0|0:0,0:0:0:0:
460,192,136301,5,2,0:0:0:0:
428,164,136405,1,0,0:0:0:0:
412,128,136509,1,0,0:0:0:0:
416,88,136612,1,0,0:0:0:0:
328,32,136716,21,2,0:0:0:0:
296,56,136820,1,0,0:0:0:0:
256,68,136923,1,0,0:0:0:0:
216,60,137027,1,0,0:0:0:0:
120,104,137131,5,2,0:0:0:0:
136,140,137235,1,0,0:0:0:0:
136,180,137338,1,0,0:0:0:0:
120,216,137442,1,0,0:0:0:0:
92,244,137546,6,0,P|80:280|80:304,3,57.5,2|0|0|0,0:0|0:0|0:0|0:0,0:0:0:0:
96,336,137961,6,0,L|140:352,7,28.75,2|0|0|0|0|0|0|0,0:0|0:0|0:0|0:0|0:0|0:0|0:0|0:0,0:0:0:0:
152,348,138376,22,0,L|192:344,7,28.75,2|0|0|0|0|0|0|0,0:0|0:0|0:0|0:0|0:0|0:0|0:0|0:0,0:0:0:0:
208,336,138791,6,0,L|240:308,7,28.75,2|0|0|0|0|0|0|0,0:0|0:0|0:0|0:0|0:0|0:0|0:0|0:0,0:0:0:0:
244,292,139206,6,0,P|280:260|348:256,1,115,2|0,0:0|0:0,0:0:0:0:
256,36,140865,5,8,0:0:0:0:
256,36,141280,22,8,P|224:112|80:136,1,230,6|0,0:0|0:0,0:0:0:0:
40,244,141903,1,0,0:0:0:0:
56,280,142006,1,0,0:0:0:0:
92,296,142110,2,0,P|164:300|200:320,1,115,2|0,0:0|0:0,0:0:0:0:
312,288,142525,2,0,L|348:331,2,57.5,8|0|0,0:0|0:0|0:0,0:0:0:0:
256,188,142940,5,2,0:0:0:0:
324,96,143148,1,0,0:0:0:0:
436,124,143355,1,8,0:0:0:0:
256,188,143562,1,0,0:0:0:0:
436,124,143770,2,0,P|416:188|424:244,1,115,0|8,0:0|0:0,0:0:0:0:
324,96,144185,2,0,P|268:68|204:80,1,115,8|0,0:0|0:0,0:0:0:0:
184,96,144496,1,0,0:0:0:0:
144,92,144600,6,0,P|120:152|16:228,1,172.5,2|0,0:0|0:0,0:0:0:0:
24,260,145015,1,8,0:0:0:0:
116,328,145222,1,0,0:0:0:0:
156,320,145326,1,0,0:0:0:0:
196,332,145430,1,2,0:0:0:0:
256,208,145637,1,0,0:0:0:0:
360,300,145845,1,8,0:0:0:0:
416,172,146052,1,0,0:0:0:0:
344,56,146260,5,2,0:0:0:0:
240,100,146467,1,0,0:0:0:0:
204,116,146571,1,0,0:0:0:0:
164,120,146675,1,8,0:0:0:0:
120,224,146882,1,0,0:0:0:0:
112,264,146986,1,0,0:0:0:0:
88,296,147089,1,2,0:0:0:0:
256,352,147297,1,8,0:0:0:0:
424,296,147504,22,0,P|388:252|392:180,1,115,8|0,0:0|0:0,0:0:0:0:
500,208,147919,2,0,P|396:200|300:108,1,230,4|8,0:0|0:0,0:0:0:0:
192,104,148542,1,0,0:0:0:0:
160,128,148645,1,0,0:0:0:0:
120,132,148749,1,2,0:0:0:0:
80,240,148957,1,0,0:0:0:0:
164,320,149164,2,0,P|116:356|44:348,1,115,8|0,0:0|0:0,0:0:0:0:
80,240,149579,5,2,0:0:0:0:
192,212,149787,1,0,0:0:0:0:
304,236,149994,1,8,0:0:0:0:
392,312,150202,1,0,0:0:0:0:
488,248,150409,2,0,P|464:184|472:136,1,115,2|0,0:0|0:0,0:0:0:0:
412,40,150824,1,8,0:0:0:0:
300,64,151031,1,0,0:0:0:0:
260,76,151135,1,0,0:0:0:0:
220,76,151239,6,0,P|144:64|92:72,1,115,2|0,0:0|0:0,0:0:0:0:
32,156,151654,1,8,0:0:0:0:
96,252,151861,1,0,0:0:0:0:
136,252,151965,1,0,0:0:0:0:
168,280,152069,1,2,0:0:0:0:
256,204,152276,1,0,0:0:0:0:
356,264,152484,1,8,0:0:0:0:
440,184,152691,1,0,0:0:0:0:
340,128,152899,6,0,P|380:88|448:76,1,115,2|0,0:0|0:0,0:0:0:0:
172,256,153314,2,0,P|132:296|64:308,1,115,8|0,0:0|0:0,0:0:0:0:
204,172,153728,1,2,0:0:0:0:
308,212,153936,1,0,0:0:0:0:
200,56,154143,1,8,0:0:0:0:
44,224,154558,21,2,0:0:0:0:
44,224,154662,1,0,0:0:0:0:
44,224,154766,1,0,0:0:0:0:
100,324,154973,1,8,0:0:0:0:
208,304,155181,1,0,0:0:0:0:
248,300,155284,1,0,0:0:0:0:
284,312,155388,2,0,P|348:324|400:312,1,115,2|0,0:0|0:0,0:0:0:0:
228,72,155803,1,8,0:0:0:0:
189,61,155906,1,0,0:0:0:0:
149,61,156010,1,0,0:0:0:0:
156,180,156218,5,2,0:0:0:0:
272,176,156426,2,0,L|304:228,2,57.5,0|0|8,0:0|0:0|0:0,0:0:0:0:
340,84,156841,2,0,L|396:100,2,57.5,0|0|2,0:0|0:0|0:0,0:0:0:0:
388,188,157255,1,0,0:0:0:0:
440,292,157463,2,0,L|480:248,2,57.5,8|0|0,0:0|0:0|0:0,0:0:0:0:
328,308,157878,5,2,0:0:0:0:
288,300,157982,1,0,0:0:0:0:
252,312,158085,1,0,0:0:0:0:
136,312,158293,1,8,0:0:0:0:
92,208,158500,1,0,0:0:0:0:
104,168,158604,1,0,0:0:0:0:
96,128,158708,1,2,0:0:0:0:
168,36,158915,1,0,0:0:0:0:
272,84,159123,2,0,L|320:48,2,57.5,8|0|0,0:0|0:0|0:0,0:0:0:0:
312,192,159538,6,0,L|424:108,1,115,2|0,0:0|0:0,0:0:0:0:
200,192,159953,2,0,L|88:276,1,115,8|0,0:0|0:0,0:0:0:0:
220,284,160367,1,2,0:0:0:0:
292,100,160575,1,0,0:0:0:0:
180,80,160782,2,0,P|124:108|44:92,1,115,8|0,0:0|0:0,0:0:0:0:
292,100,161197,21,4,0:0:0:0:
332,96,161301,1,0,0:0:0:0:
368,76,161405,1,0,0:0:0:0:
440,168,161612,1,8,0:0:0:0:
404,276,161820,1,0,0:0:0:0:
364,268,161923,1,0,0:0:0:0:
324,276,162027,1,2,0:0:0:0:
212,304,162235,2,0,P|220:232|252:196,2,115,0|8|0,0:0|0:0|0:0,0:0:0:0:
100,276,162857,6,0,P|64:220|72:160,1,115,2|0,0:0|0:0,0:0:0:0:
92,144,163168,1,0,0:0:0:0:
120,116,163272,2,0,P|184:120|232:92,1,115,8|0,0:0|0:0,0:0:0:0:
264,76,163583,1,0,0:0:0:0:
304,72,163687,2,0,P|364:92|428:76,1,115,2|0,0:0|0:0,0:0:0:0:
476,256,164102,2,0,P|416:236|352:252,1,115,8|0,0:0|0:0,0:0:0:0:
340,276,164413,1,0,0:0:0:0:
300,288,164517,5,2,0:0:0:0:
260,280,164621,1,0,0:0:0:0:
240,248,164724,1,0,0:0:0:0:
136,300,164932,1,8,0:0:0:0:
52,220,165139,1,0,0:0:0:0:
68,184,165243,1,0,0:0:0:0:
64,144,165347,1,2,0:0:0:0:
180,152,165554,2,0,P|244:132|296:156,2,115,0|8|0,0:0|0:0|0:0,0:0:0:0:
256,192,166177,12,0,167525,0:0:0:0:
