osu file format v12

[General]
AudioFilename: Gentleman(Fast Ver.).mp3
AudioLeadIn: 0
PreviewTime: 106852
Countdown: 1
SampleSet: Normal
StackLeniency: 0.7
Mode: 0
LetterboxInBreaks: 1

[Editor]
Bookmarks: 23023,37142
DistanceSpacing: 1
BeatDivisor: 4
GridSize: 4

[Metadata]
Title:Oppan GentleMan (Speed Ver.)
TitleUnicode:Oppan GentleMan (Speed Ver.)
Artist:PSY
ArtistUnicode:PSY
Creator:[Pisces]
Version:Easy
Source:
Tags:MineC24 kpop
BeatmapID:246855
BeatmapSetID:91022

[Difficulty]
HPDrainRate:2
CircleSize:3
OverallDifficulty:2
ApproachRate:3
SliderMultiplier:0.899999999999999
SliderTickRate:1

[Events]
//Background and Video events
0,0,"bg.png",0,0
//Break Periods
2,40243,44820
2,95007,99591
//Storyboard Layer 0 (Background)
//Storyboard Layer 1 (Fail)
//Storyboard Layer 2 (Pass)
//Storyboard Layer 3 (Foreground)
//Storyboard Sound Samples
//Background Colour Transformations
3,100,163,162,255

[TimingPoints]
202,414.9377593361,4,1,2,80,1,0
6841,-100,4,1,1,80,0,0
11820,-100,4,1,1,50,0,0
13065,-100,4,1,2,80,0,0
13480,-100,4,1,1,80,0,0
26343,-100,4,1,2,80,0,0
26758,-100,4,1,1,80,0,0
39621,-100,4,1,2,80,0,0
40036,-100,4,1,1,80,0,1
40243,-100,4,1,2,80,0,0
46675,-100,4,1,1,80,0,0
47712,-100,4,1,1,90,0,0
47919,-100,4,1,1,100,0,0
48334,-100,4,1,1,80,0,0
49372,-100,4,1,1,90,0,0
49579,-100,4,1,1,100,0,0
49994,-100,4,1,1,80,0,0
50409,-100,4,1,1,90,0,0
50824,-100,4,1,1,100,0,0
51239,-100,4,1,1,60,0,0
52899,-100,4,1,2,100,0,0
53314,-100,4,1,1,80,0,1
59538,-100,4,1,2,80,0,0
59953,-100,4,1,1,80,0,1
66177,-100,4,1,2,80,0,1
66592,-100,4,1,1,80,0,0
67421,-100,4,1,1,40,0,0
68251,-100,4,1,1,80,0,0
81114,-100,4,1,2,80,0,0
81529,-100,4,1,1,80,0,0
94392,-100,4,1,2,80,0,0
94807,-100,4,1,1,80,0,1
95015,-100,4,1,2,80,0,0
101446,-100,4,1,1,80,0,0
102484,-100,4,1,1,90,0,0
102691,-100,4,1,1,100,0,0
103106,-100,4,1,1,80,0,0
104143,-100,4,1,1,90,0,0
104351,-100,4,1,1,100,0,0
104766,-100,4,1,1,80,0,0
105181,-100,4,1,1,90,0,0
105596,-100,4,1,1,100,0,0
106011,-100,4,1,1,60,0,0
107670,-100,4,1,2,60,0,0
108085,-100,4,1,1,80,0,1
114621,-100,4,1,1,80,0,0
114724,-100,4,1,1,80,0,1
120948,-100,4,1,1,80,0,0
120948,-100,4,1,2,80,0,0
121363,-100,4,1,1,80,0,1
121571,-100,4,1,1,80,0,0
129040,-100,4,1,1,90,0,0
129247,-100,4,1,1,100,0,0
129662,-100,4,1,1,80,0,0
130699,-100,4,1,1,90,0,0
130907,-100,4,1,1,100,0,0
131322,-100,4,1,1,80,0,0
132359,-100,4,1,1,90,0,0
132567,-100,4,1,1,100,0,0
132982,-100,4,1,1,80,0,0
138376,-100,4,1,1,90,0,0
138791,-100,4,1,1,100,0,0
139206,-100,4,1,1,60,0,0
140865,-100,4,1,2,80,0,0
141280,-100,4,1,1,80,0,1
147504,-100,4,1,2,80,0,0
147919,-100,4,1,1,80,0,1
154143,-100,4,1,2,80,0,0
154558,-100,4,1,1,50,0,0
160782,-100,4,1,2,80,0,0
160990,-100,4,1,2,50,0,0
161197,-100,4,1,1,60,0,0
167525,-100,4,1,1,10,0,0

[Colours]
Combo1 : 255,128,128
Combo2 : 0,64,128
Combo3 : 128,128,255
Combo4 : 0,255,255

[HitObjects]
32,332,6426,1,12,0:0:0:0:
120,320,6841,2,0,P|168:296|216:308,1,89.9999999999999,0|8,0:0|0:0,0:0:0:0:
376,308,8085,1,8,0:0:0:0:
416,228,8500,2,0,P|396:180|404:132,1,89.9999999999999,0|8,0:0|0:0,0:0:0:0:
256,36,9745,1,8,0:0:0:0:
168,36,10160,2,0,P|168:108|80:160,2,180,0|0|2,0:0|0:0|0:0,0:0:0:0:
256,292,13065,5,12,0:0:0:0:
320,228,13480,1,0,0:0:0:0:
361,150,13894,2,0,P|396:136|428:96,2,89.9999999999999,8|0|8,0:0|0:0|0:0,0:0:0:0:
196,84,15554,1,8,0:0:0:0:
56,192,16384,1,8,0:0:0:0:
88,276,16799,6,0,P|132:256|192:268,1,89.9999999999999,0|8,0:0|0:0,0:0:0:0:
336,336,18044,1,8,0:0:0:0:
400,272,18459,1,0,0:0:0:0:
380,184,18874,1,8,0:0:0:0:
256,52,19704,1,8,0:0:0:0:
168,36,20119,6,0,P|140:92|104:112,1,89.9999999999999,4|8,0:0|0:0,0:0:0:0:
32,264,21363,1,8,0:0:0:0:
120,240,21778,1,0,0:0:0:0:
200,280,22193,1,8,0:0:0:0:
232,364,22608,2,0,P|308:312|392:328,1,180
456,268,23853,5,8,0:0:0:0:
416,92,24683,2,0,P|368:120|320:120,2,89.9999999999999,8|0|8,0:0|0:0|0:0,0:0:0:0:
348,32,25928,2,0,P|260:48|232:136,1,180,0|4,0:0|0:0,0:0:0:0:
140,136,27172,5,8,0:0:0:0:
60,296,28002,1,8,0:0:0:0:
148,312,28417,1,0,0:0:0:0:
232,284,28832,1,8,0:0:0:0:
404,332,29662,2,0,P|416:280|408:236,1,89.9999999999999,8|0,0:0|0:0,0:0:0:0:
436,156,30492,5,8,0:0:0:0:
352,120,30907,2,0,L|396:32,2,89.9999999999999,0|8|0,0:0|0:0|0:0,0:0:0:0:
284,60,32152,2,0,P|256:124|152:132,1,180,8|8,0:0|0:0,0:0:0:0:
88,192,33397,5,4,0:0:0:0:
88,280,33811,1,8,0:0:0:0:
256,348,34641,1,8,0:0:0:0:
424,280,35471,1,8,0:0:0:0:
404,192,35886,2,0,P|416:136|448:104,1,89.9999999999999,0|8,0:0|0:0,0:0:0:0:
384,40,36716,1,0,0:0:0:0:
296,36,37131,6,8,B|208:72|200:32|124:80,1,180,8|8,0:0|0:0,0:0:0:0:
56,140,38376,2,0,P|100:168|140:164,1,89.9999999999999,0|8,0:0|0:0,0:0:0:0:
228,164,39206,1,0,0:0:0:0:
296,224,39621,1,12,0:0:0:0:
292,312,40036,1,4,0:0:0:0:
256,192,46260,5,12,0:0:0:0:
168,192,46675,6,0,B|124:204|124:180|80:192,2,89.9999999999999,0|8|0,0:0|0:0|0:0,0:0:0:0:
256,192,47919,1,8,0:0:0:0:
344,192,48334,2,0,B|388:204|388:180|432:192,2,89.9999999999999,0|8|0,0:0|0:0|0:0,0:0:0:0:
256,192,49579,1,8,0:0:0:0:
256,192,49994,6,0,L|256:112,6,45
256,192,52899,5,12,0:0:0:0:
184,136,53314,6,0,P|152:192|32:192,1,180,4|0,0:0|0:0,0:0:0:0:
32,112,54558,1,8,0:0:0:0:
40,292,55388,1,8,0:0:0:0:
216,320,56218,1,8,0:0:0:0:
256,240,56633,2,0,P|348:232|408:296,2,180
180,192,58708,1,8,0:0:0:0:
92,212,59123,2,0,P|52:192|28:144,2,89.9999999999999,0|0|4,0:0|0:0|0:0,0:0:0:0:
116,124,60367,5,8,0:0:0:0:
276,40,61197,1,8,0:0:0:0:
380,188,62027,1,8,0:0:0:0:
256,240,62650,2,0,L|256:296,1,45,8|8,0:0|0:0,0:0:0:0:
176,324,63272,6,0,P|120:328|76:308,1,89.9999999999999,0|8,0:0|0:0,0:0:0:0:
40,144,64517,1,8,0:0:0:0:
88,68,64932,2,8,P|144:92|188:88,1,89.9999999999999
256,124,65762,2,0,L|256:24,2,89.9999999999999,0|12|2,0:0|0:0|0:0,0:0:0:0:
416,40,67421,6,0,P|420:92|448:128,1,89.9999999999999,0|0,0:0|0:0,0:0:0:0:
472,208,68251,5,4,0:0:0:0:
428,284,68666,1,8,0:0:0:0:
256,340,69496,1,8,0:0:0:0:
196,276,69911,1,0,0:0:0:0:
108,268,70326,1,8,0:0:0:0:
32,316,70741,6,0,P|16:252|96:176,1,180
124,92,71986,1,8,0:0:0:0:
300,132,72816,1,8,0:0:0:0:
372,80,73231,2,0,P|420:100|480:92,2,89.9999999999999,0|8|0,0:0|0:0|0:0,0:0:0:0:
300,132,74475,1,8,0:0:0:0:
220,88,74890,5,4,0:0:0:0:
136,124,75305,2,0,P|116:188|12:228,1,180,8|8,0:0|0:0,0:0:0:0:
180,308,76965,1,8,0:0:0:0:
256,260,77380,1,0,0:0:0:0:
332,308,77795,1,8,0:0:0:0:
408,260,78210,2,0,P|416:208|456:168,1,89.9999999999999,0|8,0:0|0:0,0:0:0:0:
324,40,79455,6,0,B|320:104|256:136|256:136|236:108|200:96,1,180,8|8,0:0|0:0,0:0:0:0:
116,80,80699,1,0,0:0:0:0:
40,124,81114,1,12,0:0:0:0:
28,212,81529,6,0,P|68:240|80:292,1,89.9999999999999,4|8,0:0|0:0,0:0:0:0:
256,316,82774,1,8,0:0:0:0:
340,280,83189,2,0,L|436:312,1,89.9999999999999,0|8,0:0|0:0,0:0:0:0:
312,168,84434,2,0,P|348:196|400:200,1,89.9999999999999,8|0,0:0|0:0,0:0:0:0:
456,136,85264,6,0,P|396:68|312:60,1,180,8|8,0:0|0:0,0:0:0:0:
224,40,86509,1,2,0:0:0:0:
140,68,86923,2,0,P|100:44|28:60,2,89.9999999999999,8|0|8,0:0|0:0|0:0,0:0:0:0:
76,132,88168,6,0,P|100:176|56:292,1,180,4|0,0:0|0:0,0:0:0:0:
132,340,89413,1,8,0:0:0:0:
300,276,90243,1,8,0:0:0:0:
388,296,90658,1,0,0:0:0:0:
464,248,91073,5,8,0:0:0:0:
484,160,91488,2,0,P|464:116|472:56,1,89.9999999999999,0|8,0:0|0:0,0:0:0:0:
384,40,92318,2,0,P|312:84|208:52,1,180,0|2,0:0|0:0,0:0:0:0:
136,40,93562,2,0,P|132:88|96:124,2,89.9999999999999,8|0|12,0:0|0:0|0:0,0:0:0:0:
48,52,94807,5,12,0:0:0:0:
256,192,101031,5,12,0:0:0:0:
256,280,101446,6,0,B|267:324|244:324|255:368,2,89.9999999999999,2|8|0,0:0|0:0|0:0,0:0:0:0:
256,192,102691,1,10,0:0:0:0:
256,104,103106,2,0,B|268:60|244:60|256:16,2,89.9999999999999,0|8|0,0:0|0:0|0:0,0:0:0:0:
256,192,104351,1,8,0:0:0:0:
256,192,104766,6,0,L|176:191,6,45,2|0|2|0|2|0|2,0:0|0:0|0:0|0:0|0:0|0:0|0:0,0:0:0:0:
256,192,107670,5,12,0:0:0:0:
328,248,108085,6,0,P|360:192|480:192,1,180,4|0,0:0|0:0,0:0:0:0:
480,272,109330,1,8,0:0:0:0:
472,92,110160,1,8,0:0:0:0:
296,64,110990,1,8,0:0:0:0:
256,144,111405,6,0,P|164:152|104:88,2,180
332,192,113480,1,8,0:0:0:0:
420,172,113894,2,0,P|460:192|484:240,2,89.9999999999999,0|0|4,0:0|0:0|0:0,0:0:0:0:
396,260,115139,5,8,0:0:0:0:
236,344,115969,1,8,0:0:0:0:
132,196,116799,1,8,0:0:0:0:
256,144,117421,2,0,L|256:88,1,45,8|8,0:0|0:0,0:0:0:0:
336,60,118044,6,0,P|392:56|436:76,1,89.9999999999999,0|8,0:0|0:0,0:0:0:0:
472,240,119289,1,8,0:0:0:0:
424,316,119704,2,8,P|368:292|324:296,1,89.9999999999999
256,260,120533,2,0,L|256:360,2,89.9999999999999,0|12|6,0:0|0:0|0:0,0:0:0:0:
176,216,121778,5,8,0:0:0:0:
92,248,122193,1,8,0:0:0:0:
232,136,123023,5,8,0:0:0:0:
284,60,123438,1,8,0:0:0:0:
372,40,123853,1,8,0:0:0:0:
468,192,124683,5,8,0:0:0:0:
420,268,125098,1,8,0:0:0:0:
328,268,125513,2,0,P|276:236|148:284,1,180,8|8,0:0|0:0,0:0:0:0:
108,332,126758,5,8,0:0:0:0:
76,248,127172,2,0,B|56:156|104:156|80:68,1,180,8|4,0:0|0:0,0:0:0:0:
164,40,128417,5,8,0:0:0:0:
252,64,128832,1,0,0:0:0:0:
300,140,129247,1,8,0:0:0:0:
276,228,129662,6,0,P|312:256|372:264,2,89.9999999999999,0|8|0,0:0|0:0|0:0,0:0:0:0:
208,168,130907,1,8,0:0:0:0:
140,224,131322,2,8,P|104:252|61:261,3,89.9999999999999
208,168,132982,5,4,0:0:0:0:
256,92,133397,1,8,0:0:0:0:
340,64,133811,2,0,P|380:96|504:72,2,180,0|4|4,0:0|0:0|0:0,0:0:0:0:
256,92,135886,1,0,0:0:0:0:
184,40,136301,6,0,L|84:76,1,89.9999999999999,4|0,0:0|0:0,0:0:0:0:
140,152,137131,2,0,L|55:182,1,89.9999999999999
40,272,137961,2,0,L|28:320,6,45,0|0|0|0|0|0|2,0:0|0:0|0:0|0:0|0:0|0:0|0:0,0:0:0:0:
312,36,140865,5,12,0:0:0:0:
256,104,141280,2,0,P|340:124|400:56,1,180
472,116,142525,1,8,0:0:0:0:
416,288,143355,1,8,0:0:0:0:
328,272,143770,1,0,0:0:0:0:
256,328,144185,1,8,0:0:0:0:
84,276,145015,6,0,P|28:276|-4:256,2,89.9999999999999,8|0|8,0:0|0:0|0:0,0:0:0:0:
160,224,146260,1,0,0:0:0:0:
148,136,146675,1,8,0:0:0:0:
64,100,147089,2,0,P|56:148|76:192,1,89.9999999999999,0|12,0:0|0:0,0:0:0:0:
148,136,147919,6,0,P|212:72|300:72,1,180,4|0,0:0|0:0,0:0:0:0:
388,72,149164,1,8,0:0:0:0:
332,244,149994,2,0,P|388:260|424:248,2,89.9999999999999,8|0|8,0:0|0:0|0:0,0:0:0:0:
160,192,151654,1,8,0:0:0:0:
92,136,152069,1,0,0:0:0:0:
112,48,152484,1,8,0:0:0:0:
196,20,152899,2,0,P|212:72|256:92,2,89.9999999999999
284,8,154143,1,0,0:0:0:0:
364,48,154558,6,0,B|408:136|368:148|416:224,1,180,4|0,0:0|0:0,0:0:0:0:
380,304,155803,1,0,0:0:0:0:
288,304,156218,2,0,P|256:260|212:240,1,89.9999999999999
136,228,157048,2,0,P|112:252|40:264,1,89.9999999999999,0|8,0:0|0:0,0:0:0:0:
32,180,157878,6,0,P|72:120|188:120,1,180
256,76,159123,1,8,0:0:0:0:
338,111,159538,2,0,P|384:96|436:124,2,89.9999999999999,0|8|0,0:0|0:0|0:0,0:0:0:0:
380,192,160782,1,12,0:0:0:0:
296,228,161197,6,0,P|328:268|448:256,2,180,4|0|0,0:0|0:0|0:0,0:0:0:0:
212,192,163272,1,8,0:0:0:0:
132,236,163687,1,0,0:0:0:0:
128,324,164102,1,8,0:0:0:0:
208,280,164517,2,0,P|172:248|48:272,2,180,0|0|2,0:0|0:0|0:0,0:0:0:0:
256,192,166384,12,0,167525,0:0:0:0:
