osu file format v12

[General]
AudioFilename: PSY () - Gentleman ().mp3
AudioLeadIn: 2000
PreviewTime: 77284
Countdown: 0
SampleSet: Normal
StackLeniency: 0.7
Mode: 1
LetterboxInBreaks: 0

[Editor]
Bookmarks: 45856,61094,76332,108713,123951,139189,162046,177284
DistanceSpacing: 1.5
BeatDivisor: 4
GridSize: 4

[Metadata]
Title:GENTLEMAN
TitleUnicode:GENTLEMAN
Artist:PSY
ArtistUnicode:PSY
Creator:Midnaait
Version:Muzukashii
Source:
Tags:k-pop Smoothie kazukisinx taiko
BeatmapID:245546
BeatmapSetID:88218

[Difficulty]
HPDrainRate:4
CircleSize:4
OverallDifficulty:5
ApproachRate:5
SliderMultiplier:1.4
SliderTickRate:2

[Events]
//Background and Video events
0,0,"bg.jpg",0,0
Video,0,"GENTLEMAN.avi"
//Break Periods
//Storyboard Layer 0 (Background)
//Storyboard Layer 1 (Fail)
//Storyboard Layer 2 (Pass)
//Storyboard Layer 3 (Foreground)
//Storyboard Sound Samples
//Background Colour Transformations
3,100,163,162,255

[TimingPoints]
142,476.190476190476,4,1,0,100,1,0
61094,-100,4,1,0,100,0,1
76332,-100,4,1,0,100,0,0
123951,-100,4,1,0,100,0,1
139189,-100,4,1,0,100,0,0
162046,-100,4,1,0,100,0,1
177284,-100,4,1,0,100,0,0

[Colours]
Combo1 : 140,255,255
Combo2 : 64,193,255
Combo3 : 18,124,255

[HitObjects]
256,188,142,1,0,0:0:0:0:
256,188,618,1,8,0:0:0:0:
256,188,1094,1,0,0:0:0:0:
256,188,1570,1,8,0:0:0:0:
256,188,2046,1,0,0:0:0:0:
256,188,2522,1,8,0:0:0:0:
256,188,2999,1,0,0:0:0:0:
256,188,3475,1,8,0:0:0:0:
256,188,3951,1,0,0:0:0:0:
256,188,4427,1,8,0:0:0:0:
256,188,4903,1,0,0:0:0:0:
256,188,5380,1,8,0:0:0:0:
256,188,5856,1,0,0:0:0:0:
256,188,6332,1,8,0:0:0:0:
256,188,6808,1,0,0:0:0:0:
256,188,7284,1,4,0:0:0:0:
256,188,7761,1,0,0:0:0:0:
256,188,8237,1,8,0:0:0:0:
256,188,8475,1,0,0:0:0:0:
256,188,8713,1,0,0:0:0:0:
256,188,8951,1,0,0:0:0:0:
256,188,9189,1,8,0:0:0:0:
256,188,9427,1,0,0:0:0:0:
256,188,9665,1,0,0:0:0:0:
256,188,9903,1,0,0:0:0:0:
256,188,10141,1,8,0:0:0:0:
256,188,10618,1,0,0:0:0:0:
256,188,10856,1,8,0:0:0:0:
256,188,11094,1,8,0:0:0:0:
256,188,11332,1,0,0:0:0:0:
256,188,11570,1,0,0:0:0:0:
256,188,12046,1,8,0:0:0:0:
256,188,12284,1,0,0:0:0:0:
256,188,12522,1,0,0:0:0:0:
256,188,12761,1,0,0:0:0:0:
256,188,12999,1,8,0:0:0:0:
256,188,13237,1,0,0:0:0:0:
256,188,13475,1,0,0:0:0:0:
256,188,13951,1,8,0:0:0:0:
256,188,14427,1,0,0:0:0:0:
180,144,14903,1,12,0:0:0:0:
180,144,15380,1,4,0:0:0:0:
180,144,15856,1,8,0:0:0:0:
180,144,16332,1,0,0:0:0:0:
180,144,16570,1,0,0:0:0:0:
180,144,16808,1,8,0:0:0:0:
180,144,17046,1,0,0:0:0:0:
180,144,17284,1,0,0:0:0:0:
180,144,17522,1,0,0:0:0:0:
180,144,17761,1,8,0:0:0:0:
256,188,18237,1,0,0:0:0:0:
256,188,18475,1,8,0:0:0:0:
256,188,18713,1,8,0:0:0:0:
256,188,18951,1,0,0:0:0:0:
256,188,19189,1,8,0:0:0:0:
256,188,19665,1,8,0:0:0:0:
256,188,20141,1,0,0:0:0:0:
256,188,20380,1,0,0:0:0:0:
256,188,20618,1,8,0:0:0:0:
256,188,20856,1,0,0:0:0:0:
256,188,21094,1,0,0:0:0:0:
256,188,21332,1,0,0:0:0:0:
256,188,21570,1,8,0:0:0:0:
256,188,22046,1,0,0:0:0:0:
256,188,22284,1,0,0:0:0:0:
256,188,22522,1,8,0:0:0:0:
256,188,22761,1,0,0:0:0:0:
256,188,22999,1,12,0:0:0:0:
256,188,23475,1,8,0:0:0:0:
256,188,23713,1,0,0:0:0:0:
256,188,23951,1,0,0:0:0:0:
256,188,24189,1,0,0:0:0:0:
256,188,24427,1,8,0:0:0:0:
256,188,24665,1,0,0:0:0:0:
256,188,24903,1,8,0:0:0:0:
256,188,25141,1,0,0:0:0:0:
256,188,25380,1,8,0:0:0:0:
256,188,25856,1,0,0:0:0:0:
256,188,26094,1,0,0:0:0:0:
256,188,26332,1,8,0:0:0:0:
256,188,26570,1,0,0:0:0:0:
256,188,26808,1,8,0:0:0:0:
256,188,27284,1,8,0:0:0:0:
256,188,27522,1,0,0:0:0:0:
256,188,27761,1,8,0:0:0:0:
256,188,27999,1,8,0:0:0:0:
256,188,28237,1,8,0:0:0:0:
256,188,28475,1,0,0:0:0:0:
256,188,28713,1,0,0:0:0:0:
256,188,28951,1,0,0:0:0:0:
256,188,29189,1,8,0:0:0:0:
256,188,29427,1,0,0:0:0:0:
256,188,29665,1,8,0:0:0:0:
256,188,29903,1,0,0:0:0:0:
256,188,30141,1,12,0:0:0:0:
256,188,30618,1,12,0:0:0:0:
256,188,30856,1,0,0:0:0:0:
256,188,31332,1,0,0:0:0:0:
256,188,31451,1,0,0:0:0:0:
256,188,31570,1,0,0:0:0:0:
256,188,31808,1,0,0:0:0:0:
256,188,32046,1,8,0:0:0:0:
256,188,32284,1,0,0:0:0:0:
256,188,32522,1,8,0:0:0:0:
256,188,32761,1,0,0:0:0:0:
256,188,32999,1,8,0:0:0:0:
256,188,33237,1,0,0:0:0:0:
256,188,33475,1,8,0:0:0:0:
256,188,33713,1,8,0:0:0:0:
256,188,33951,1,8,0:0:0:0:
256,188,34427,1,8,0:0:0:0:
256,188,34665,1,0,0:0:0:0:
256,188,35380,1,0,0:0:0:0:
256,188,35618,1,0,0:0:0:0:
256,188,35856,1,8,0:0:0:0:
256,188,36094,1,0,0:0:0:0:
256,188,36332,1,8,0:0:0:0:
256,188,36808,1,8,0:0:0:0:
256,188,37046,1,0,0:0:0:0:
256,188,37284,1,8,0:0:0:0:
256,188,37522,1,0,0:0:0:0:
256,188,37761,1,8,0:0:0:0:
256,188,38237,1,12,0:0:0:0:
256,188,38475,1,0,0:0:0:0:
256,188,38713,1,8,0:0:0:0:
256,188,38951,1,0,0:0:0:0:
256,188,39189,1,8,0:0:0:0:
256,188,39427,1,0,0:0:0:0:
256,188,39665,1,8,0:0:0:0:
256,188,39903,1,0,0:0:0:0:
256,188,40141,1,8,0:0:0:0:
256,188,40380,1,0,0:0:0:0:
256,188,40618,1,8,0:0:0:0:
256,188,41094,1,0,0:0:0:0:
256,188,41332,1,0,0:0:0:0:
256,188,41570,1,8,0:0:0:0:
256,188,42046,1,8,0:0:0:0:
256,188,42284,1,0,0:0:0:0:
256,188,42760,1,8,0:0:0:0:
256,188,42999,1,0,0:0:0:0:
256,188,43237,1,8,0:0:0:0:
256,188,43713,1,0,0:0:0:0:
256,188,43951,1,0,0:0:0:0:
256,188,44189,1,0,0:0:0:0:
256,188,44427,1,8,0:0:0:0:
256,188,44665,1,0,0:0:0:0:
256,188,44903,1,8,0:0:0:0:
256,188,45141,1,0,0:0:0:0:
256,188,45380,1,4,0:0:0:0:
256,188,45856,1,12,0:0:0:0:
256,188,46332,1,8,0:0:0:0:
256,188,46808,1,8,0:0:0:0:
256,188,47284,1,8,0:0:0:0:
256,188,47761,1,8,0:0:0:0:
256,188,48237,1,8,0:0:0:0:
256,188,48713,1,8,0:0:0:0:
256,188,49189,1,8,0:0:0:0:
256,188,49665,1,8,0:0:0:0:
256,188,50141,1,8,0:0:0:0:
256,188,50618,1,8,0:0:0:0:
256,188,51094,1,8,0:0:0:0:
256,188,51570,1,8,0:0:0:0:
256,188,52046,1,8,0:0:0:0:
256,188,52522,1,8,0:0:0:0:
256,188,52999,1,8,0:0:0:0:
256,188,53475,1,8,0:0:0:0:
256,188,53832,1,8,0:0:0:0:
256,188,54189,1,8,0:0:0:0:
256,188,54427,1,0,0:0:0:0:
256,188,54665,1,8,0:0:0:0:
256,188,54903,1,8,0:0:0:0:
256,188,55141,1,0,0:0:0:0:
256,188,55380,1,8,0:0:0:0:
256,188,55737,1,8,0:0:0:0:
256,188,56094,1,8,0:0:0:0:
256,188,56332,1,0,0:0:0:0:
256,188,56570,1,8,0:0:0:0:
256,188,56808,1,8,0:0:0:0:
256,188,57046,1,0,0:0:0:0:
256,192,57284,12,0,58713,0:0:0:0:
256,188,59189,5,8,0:0:0:0:
256,188,59427,1,0,0:0:0:0:
256,188,59665,1,8,0:0:0:0:
256,188,60141,1,8,0:0:0:0:
256,188,60380,1,0,0:0:0:0:
256,188,60618,1,4,0:0:0:0:
256,188,61094,1,12,0:0:0:0:
256,188,61570,1,0,0:0:0:0:
256,188,61808,1,8,0:0:0:0:
256,188,61927,1,8,0:0:0:0:
256,188,62046,1,8,0:0:0:0:
256,188,62284,1,0,0:0:0:0:
256,188,62522,1,8,0:0:0:0:
256,188,62761,1,0,0:0:0:0:
256,188,62999,1,8,0:0:0:0:
256,188,63237,1,8,0:0:0:0:
256,188,63475,1,0,0:0:0:0:
256,188,63713,1,8,0:0:0:0:
256,188,63951,1,8,0:0:0:0:
256,188,64189,1,0,0:0:0:0:
256,188,64427,1,8,0:0:0:0:
256,188,64665,1,0,0:0:0:0:
256,188,64903,1,8,0:0:0:0:
256,188,65380,1,0,0:0:0:0:
256,188,65618,1,8,0:0:0:0:
256,188,65737,1,8,0:0:0:0:
256,188,65856,1,8,0:0:0:0:
256,188,66094,1,0,0:0:0:0:
256,188,66332,1,8,0:0:0:0:
256,188,66570,1,0,0:0:0:0:
256,188,66808,1,8,0:0:0:0:
256,188,67046,1,0,0:0:0:0:
256,188,67284,1,8,0:0:0:0:
256,188,67522,1,0,0:0:0:0:
256,188,67761,1,0,0:0:0:0:
256,188,67999,1,0,0:0:0:0:
256,188,68237,1,12,0:0:0:0:
256,188,68713,1,4,0:0:0:0:
256,188,69189,1,0,0:0:0:0:
256,188,69427,1,8,0:0:0:0:
256,188,69546,1,8,0:0:0:0:
256,188,69665,1,8,0:0:0:0:
256,188,69903,1,0,0:0:0:0:
256,188,70141,1,8,0:0:0:0:
256,188,70380,1,0,0:0:0:0:
256,188,70618,1,8,0:0:0:0:
256,188,70856,1,8,0:0:0:0:
256,188,71094,1,0,0:0:0:0:
256,188,71332,1,8,0:0:0:0:
256,188,71570,1,0,0:0:0:0:
256,188,71808,1,8,0:0:0:0:
256,188,72046,1,8,0:0:0:0:
256,188,72284,1,0,0:0:0:0:
256,188,72522,1,8,0:0:0:0:
256,188,72999,1,0,0:0:0:0:
256,188,73237,1,8,0:0:0:0:
256,188,73356,1,8,0:0:0:0:
256,188,73475,1,8,0:0:0:0:
256,188,73713,1,0,0:0:0:0:
256,188,73951,1,8,0:0:0:0:
256,188,74189,1,0,0:0:0:0:
256,188,74427,1,8,0:0:0:0:
256,188,74665,1,0,0:0:0:0:
256,188,74903,1,8,0:0:0:0:
256,188,75141,1,0,0:0:0:0:
256,188,75380,1,0,0:0:0:0:
256,188,75618,1,0,0:0:0:0:
256,188,75856,1,12,0:0:0:0:
256,188,76332,1,4,0:0:0:0:
256,188,78237,1,4,0:0:0:0:
256,188,78713,1,8,0:0:0:0:
256,188,79189,1,8,0:0:0:0:
256,188,79427,1,0,0:0:0:0:
256,188,79665,1,8,0:0:0:0:
256,188,79903,1,0,0:0:0:0:
256,188,80141,1,8,0:0:0:0:
256,188,80379,1,0,0:0:0:0:
256,188,80618,1,8,0:0:0:0:
256,188,81094,1,0,0:0:0:0:
256,188,81332,1,0,0:0:0:0:
256,188,81570,1,8,0:0:0:0:
256,188,81808,1,0,0:0:0:0:
256,188,82046,1,8,0:0:0:0:
256,188,82522,1,8,0:0:0:0:
256,188,82998,1,8,0:0:0:0:
256,188,83237,1,0,0:0:0:0:
256,188,83475,1,8,0:0:0:0:
256,188,83713,1,0,0:0:0:0:
256,188,83951,1,8,0:0:0:0:
256,188,84189,1,0,0:0:0:0:
256,188,84427,1,8,0:0:0:0:
256,188,84903,1,0,0:0:0:0:
256,188,85141,1,0,0:0:0:0:
256,188,85379,1,8,0:0:0:0:
256,188,85618,1,0,0:0:0:0:
256,188,85856,1,12,0:0:0:0:
256,188,86332,1,8,0:0:0:0:
256,188,86570,1,0,0:0:0:0:
256,188,86808,1,8,0:0:0:0:
256,188,87046,1,0,0:0:0:0:
256,188,87284,1,8,0:0:0:0:
256,188,87522,1,0,0:0:0:0:
256,188,87760,1,0,0:0:0:0:
256,188,87998,1,0,0:0:0:0:
256,188,88237,1,8,0:0:0:0:
256,188,88713,1,0,0:0:0:0:
256,188,88951,1,0,0:0:0:0:
256,188,89189,1,8,0:0:0:0:
256,188,89427,1,0,0:0:0:0:
256,188,89665,1,8,0:0:0:0:
256,188,90141,1,8,0:0:0:0:
256,188,90379,1,0,0:0:0:0:
256,188,90618,1,8,0:0:0:0:
256,188,90856,1,0,0:0:0:0:
256,188,91094,1,8,0:0:0:0:
256,188,91332,1,0,0:0:0:0:
256,188,91570,1,8,0:0:0:0:
256,188,91808,1,0,0:0:0:0:
256,188,92046,1,8,0:0:0:0:
256,188,92284,1,0,0:0:0:0:
256,188,92522,1,0,0:0:0:0:
256,188,92760,1,0,0:0:0:0:
256,188,92998,1,0,0:0:0:0:
256,188,93475,1,12,0:0:0:0:
256,188,93713,1,0,0:0:0:0:
256,188,93951,1,8,0:0:0:0:
256,188,94189,1,8,0:0:0:0:
256,188,94427,1,0,0:0:0:0:
256,188,94665,1,0,0:0:0:0:
256,188,94903,1,8,0:0:0:0:
256,188,95141,1,0,0:0:0:0:
256,188,95379,1,8,0:0:0:0:
256,188,95618,1,0,0:0:0:0:
256,188,95856,1,8,0:0:0:0:
256,188,96094,1,8,0:0:0:0:
256,188,96332,1,0,0:0:0:0:
256,188,96808,1,8,0:0:0:0:
256,188,97284,1,8,0:0:0:0:
256,188,97522,1,0,0:0:0:0:
256,188,97760,1,8,0:0:0:0:
256,188,98237,1,0,0:0:0:0:
256,188,98475,1,0,0:0:0:0:
256,188,98713,1,8,0:0:0:0:
256,188,98951,1,0,0:0:0:0:
256,188,99189,1,8,0:0:0:0:
256,188,99665,1,8,0:0:0:0:
256,188,99903,1,0,0:0:0:0:
256,188,100141,1,8,0:0:0:0:
256,188,100379,1,0,0:0:0:0:
256,188,100618,1,8,0:0:0:0:
256,188,101094,1,12,0:0:0:0:
256,188,101332,1,0,0:0:0:0:
256,188,101570,1,8,0:0:0:0:
256,188,101808,1,0,0:0:0:0:
256,188,102046,1,0,0:0:0:0:
256,188,102284,1,0,0:0:0:0:
256,188,102522,1,8,0:0:0:0:
256,188,102760,1,0,0:0:0:0:
256,188,102880,1,0,0:0:0:0:
256,188,102998,1,0,0:0:0:0:
256,188,103237,1,0,0:0:0:0:
256,188,103475,1,8,0:0:0:0:
256,188,103713,1,0,0:0:0:0:
256,188,103832,1,0,0:0:0:0:
256,188,103951,1,0,0:0:0:0:
256,188,104189,1,0,0:0:0:0:
256,188,104427,1,8,0:0:0:0:
256,188,104903,1,8,0:0:0:0:
256,188,105141,1,0,0:0:0:0:
256,188,105617,1,8,0:0:0:0:
256,188,105856,1,0,0:0:0:0:
256,188,106094,1,8,0:0:0:0:
256,188,106570,1,8,0:0:0:0:
256,188,106808,1,8,0:0:0:0:
256,188,107046,1,0,0:0:0:0:
256,188,107284,1,8,0:0:0:0:
256,188,107522,1,0,0:0:0:0:
256,188,107760,1,0,0:0:0:0:
256,188,108237,1,4,0:0:0:0:
256,188,108713,1,12,0:0:0:0:
256,188,109189,1,8,0:0:0:0:
256,188,109665,1,8,0:0:0:0:
256,188,110141,1,8,0:0:0:0:
256,188,110618,1,8,0:0:0:0:
256,188,111094,1,8,0:0:0:0:
256,188,111570,1,8,0:0:0:0:
256,188,112046,1,8,0:0:0:0:
256,188,112522,1,8,0:0:0:0:
256,188,112998,1,8,0:0:0:0:
256,188,113475,1,8,0:0:0:0:
256,188,113951,1,8,0:0:0:0:
256,188,114427,1,8,0:0:0:0:
256,188,114903,1,8,0:0:0:0:
256,188,115379,1,8,0:0:0:0:
256,188,115856,1,8,0:0:0:0:
256,188,116332,1,8,0:0:0:0:
256,188,116689,1,8,0:0:0:0:
256,188,117046,1,8,0:0:0:0:
256,188,117284,1,0,0:0:0:0:
256,188,117522,1,8,0:0:0:0:
256,188,117760,1,8,0:0:0:0:
256,188,117998,1,0,0:0:0:0:
256,188,118237,1,8,0:0:0:0:
256,188,118594,1,8,0:0:0:0:
256,188,118951,1,8,0:0:0:0:
256,188,119189,1,0,0:0:0:0:
256,188,119427,1,8,0:0:0:0:
256,188,119665,1,8,0:0:0:0:
256,188,119903,1,0,0:0:0:0:
256,192,120141,12,0,121570,0:0:0:0:
256,188,122046,5,8,0:0:0:0:
256,188,122284,1,0,0:0:0:0:
256,188,122522,1,0,0:0:0:0:
256,188,122998,1,8,0:0:0:0:
256,188,123237,1,0,0:0:0:0:
256,188,123475,1,12,0:0:0:0:
256,188,123951,1,4,0:0:0:0:
256,188,124427,1,8,0:0:0:0:
256,188,124665,1,0,0:0:0:0:
256,188,124784,1,0,0:0:0:0:
256,188,124903,1,0,0:0:0:0:
256,188,125141,1,8,0:0:0:0:
256,188,125379,1,8,0:0:0:0:
256,188,125618,1,0,0:0:0:0:
256,188,125856,1,8,0:0:0:0:
256,188,126094,1,8,0:0:0:0:
256,188,126332,1,0,0:0:0:0:
256,188,126570,1,8,0:0:0:0:
256,188,126808,1,0,0:0:0:0:
256,188,127046,1,8,0:0:0:0:
256,188,127284,1,8,0:0:0:0:
256,188,127522,1,0,0:0:0:0:
256,188,127760,1,8,0:0:0:0:
256,188,128237,1,0,0:0:0:0:
256,188,128475,1,8,0:0:0:0:
256,188,128594,1,8,0:0:0:0:
256,188,128713,1,8,0:0:0:0:
256,188,128951,1,0,0:0:0:0:
256,188,129189,1,8,0:0:0:0:
256,188,129427,1,0,0:0:0:0:
256,188,129665,1,8,0:0:0:0:
256,188,129903,1,0,0:0:0:0:
256,188,130141,1,8,0:0:0:0:
256,188,130379,1,0,0:0:0:0:
256,188,130618,1,0,0:0:0:0:
256,188,130856,1,0,0:0:0:0:
256,188,131094,1,12,0:0:0:0:
256,188,131570,1,4,0:0:0:0:
256,188,132046,1,0,0:0:0:0:
256,188,132284,1,8,0:0:0:0:
256,188,132403,1,8,0:0:0:0:
256,188,132522,1,8,0:0:0:0:
256,188,132760,1,0,0:0:0:0:
256,188,132998,1,8,0:0:0:0:
256,188,133237,1,0,0:0:0:0:
256,188,133475,1,8,0:0:0:0:
256,188,133713,1,8,0:0:0:0:
256,188,133951,1,0,0:0:0:0:
256,188,134189,1,8,0:0:0:0:
256,188,134427,1,0,0:0:0:0:
256,188,134665,1,8,0:0:0:0:
256,188,134903,1,8,0:0:0:0:
256,188,135141,1,0,0:0:0:0:
256,188,135379,1,8,0:0:0:0:
256,188,135856,1,8,0:0:0:0:
256,188,136094,1,0,0:0:0:0:
256,188,136213,1,0,0:0:0:0:
256,188,136332,1,0,0:0:0:0:
256,188,136570,1,8,0:0:0:0:
256,188,136808,1,8,0:0:0:0:
256,188,137046,1,0,0:0:0:0:
256,188,137284,1,8,0:0:0:0:
256,188,137522,1,0,0:0:0:0:
256,188,137760,1,8,0:0:0:0:
256,188,137998,1,0,0:0:0:0:
256,188,138237,1,0,0:0:0:0:
256,188,138475,1,0,0:0:0:0:
256,188,138713,1,4,0:0:0:0:
256,188,139189,1,12,0:0:0:0:
256,188,139665,1,8,0:0:0:0:
256,188,140141,1,8,0:0:0:0:
256,188,140617,1,8,0:0:0:0:
256,188,141094,1,8,0:0:0:0:
256,188,141570,1,8,0:0:0:0:
256,188,142046,1,8,0:0:0:0:
256,188,142522,1,8,0:0:0:0:
256,188,142998,1,8,0:0:0:0:
256,188,143474,1,8,0:0:0:0:
256,188,143951,1,8,0:0:0:0:
256,188,144427,1,8,0:0:0:0:
256,188,144903,1,8,0:0:0:0:
256,188,145379,1,8,0:0:0:0:
256,188,145855,1,8,0:0:0:0:
256,188,146332,1,8,0:0:0:0:
256,188,146808,1,12,0:0:0:0:
256,188,147165,1,0,0:0:0:0:
256,188,147522,1,0,0:0:0:0:
256,188,147999,1,8,0:0:0:0:
256,188,148237,1,8,0:0:0:0:
256,188,148475,1,0,0:0:0:0:
256,188,148713,1,8,0:0:0:0:
256,188,149070,1,0,0:0:0:0:
256,188,149427,1,0,0:0:0:0:
256,188,149903,1,8,0:0:0:0:
256,188,150141,1,8,0:0:0:0:
256,188,150380,1,0,0:0:0:0:
256,188,150618,1,0,0:0:0:0:
256,188,150856,1,8,0:0:0:0:
256,188,151094,1,0,0:0:0:0:
256,188,151332,1,8,0:0:0:0:
256,188,151570,1,0,0:0:0:0:
256,188,151808,1,8,0:0:0:0:
256,188,152046,1,8,0:0:0:0:
256,188,152284,1,0,0:0:0:0:
256,188,152522,1,12,0:0:0:0:
256,188,152999,1,8,0:0:0:0:
256,188,153237,1,0,0:0:0:0:
256,188,153475,1,8,0:0:0:0:
256,188,153951,1,8,0:0:0:0:
256,188,154189,1,0,0:0:0:0:
256,188,154427,1,12,0:0:0:0:
256,188,154903,1,8,0:0:0:0:
256,188,155141,1,0,0:0:0:0:
256,188,155380,1,12,0:0:0:0:
256,188,155856,1,8,0:0:0:0:
256,188,156094,1,0,0:0:0:0:
256,188,156332,1,12,0:0:0:0:
256,188,156808,1,12,0:0:0:0:
256,188,157284,1,12,0:0:0:0:
256,188,157761,1,12,0:0:0:0:
256,192,158237,12,0,160141,0:0:0:0:
256,188,161570,5,12,0:0:0:0:
256,188,162046,1,4,0:0:0:0:
256,188,162522,1,8,0:0:0:0:
256,188,162760,1,0,0:0:0:0:
256,188,162880,1,0,0:0:0:0:
256,188,162998,1,0,0:0:0:0:
256,188,163236,1,8,0:0:0:0:
256,188,163474,1,8,0:0:0:0:
256,188,163713,1,0,0:0:0:0:
256,188,163951,1,8,0:0:0:0:
256,188,164189,1,8,0:0:0:0:
256,188,164427,1,0,0:0:0:0:
256,188,164665,1,8,0:0:0:0:
256,188,164903,1,0,0:0:0:0:
256,188,165141,1,8,0:0:0:0:
256,188,165379,1,8,0:0:0:0:
256,188,165617,1,0,0:0:0:0:
256,188,165855,1,8,0:0:0:0:
256,188,166332,1,0,0:0:0:0:
256,188,166570,1,8,0:0:0:0:
256,188,166689,1,8,0:0:0:0:
256,188,166808,1,8,0:0:0:0:
256,188,167046,1,0,0:0:0:0:
256,188,167284,1,8,0:0:0:0:
256,188,167522,1,0,0:0:0:0:
256,188,167760,1,8,0:0:0:0:
256,188,167998,1,0,0:0:0:0:
256,188,168236,1,8,0:0:0:0:
256,188,168474,1,0,0:0:0:0:
256,188,168713,1,0,0:0:0:0:
256,188,168951,1,0,0:0:0:0:
256,188,169189,1,12,0:0:0:0:
256,188,169665,1,4,0:0:0:0:
256,188,170141,1,0,0:0:0:0:
256,188,170379,1,8,0:0:0:0:
256,188,170499,1,8,0:0:0:0:
256,188,170617,1,8,0:0:0:0:
256,188,170855,1,0,0:0:0:0:
256,188,171093,1,8,0:0:0:0:
256,188,171332,1,0,0:0:0:0:
256,188,171570,1,8,0:0:0:0:
256,188,171808,1,8,0:0:0:0:
256,188,172046,1,0,0:0:0:0:
256,188,172284,1,8,0:0:0:0:
256,188,172522,1,0,0:0:0:0:
256,188,172760,1,8,0:0:0:0:
256,188,172998,1,8,0:0:0:0:
256,188,173236,1,0,0:0:0:0:
256,188,173474,1,8,0:0:0:0:
256,188,173951,1,8,0:0:0:0:
256,188,174189,1,0,0:0:0:0:
256,188,174308,1,0,0:0:0:0:
256,188,174427,1,0,0:0:0:0:
256,188,174665,1,8,0:0:0:0:
256,188,174903,1,8,0:0:0:0:
256,188,175141,1,0,0:0:0:0:
256,188,175379,1,8,0:0:0:0:
256,188,175617,1,0,0:0:0:0:
256,188,175855,1,8,0:0:0:0:
256,188,176093,1,0,0:0:0:0:
256,188,176332,1,0,0:0:0:0:
256,188,176570,1,0,0:0:0:0:
256,188,176808,1,4,0:0:0:0:
256,188,177284,1,0,0:0:0:0:
256,188,177403,1,0,0:0:0:0:
256,188,177522,1,0,0:0:0:0:
256,188,177761,1,8,0:0:0:0:
256,188,177999,1,0,0:0:0:0:
256,188,178237,1,0,0:0:0:0:
256,188,178475,1,8,0:0:0:0:
256,188,178713,1,8,0:0:0:0:
256,188,178951,1,0,0:0:0:0:
256,188,179189,1,0,0:0:0:0:
256,188,179427,1,8,0:0:0:0:
256,188,179546,1,8,0:0:0:0:
256,188,179665,1,8,0:0:0:0:
256,188,179903,1,8,0:0:0:0:
256,188,180141,1,0,0:0:0:0:
256,188,180380,1,8,0:0:0:0:
256,188,180618,1,8,0:0:0:0:
256,188,180856,1,0,0:0:0:0:
256,188,181094,1,0,0:0:0:0:
256,188,181213,1,0,0:0:0:0:
256,188,181332,1,0,0:0:0:0:
256,188,181570,1,8,0:0:0:0:
256,188,181808,1,0,0:0:0:0:
256,188,182046,1,8,0:0:0:0:
256,188,182284,1,0,0:0:0:0:
256,188,182522,1,8,0:0:0:0:
256,188,182761,1,0,0:0:0:0:
256,188,182999,1,0,0:0:0:0:
256,188,183237,1,0,0:0:0:0:
256,188,183475,1,8,0:0:0:0:
256,188,183713,1,0,0:0:0:0:
256,188,183951,1,0,0:0:0:0:
256,188,184189,1,0,0:0:0:0:
256,188,184427,1,12,0:0:0:0:
256,188,184903,1,4,0:0:0:0:
256,188,185141,1,0,0:0:0:0:
256,188,185380,1,8,0:0:0:0:
256,188,185618,1,0,0:0:0:0:
256,188,185737,1,0,0:0:0:0:
256,188,185856,1,0,0:0:0:0:
256,188,186094,1,0,0:0:0:0:
256,188,186332,1,8,0:0:0:0:
256,188,186570,1,0,0:0:0:0:
256,188,186808,1,0,0:0:0:0:
256,188,187046,1,8,0:0:0:0:
256,188,187165,1,8,0:0:0:0:
256,188,187284,1,8,0:0:0:0:
256,188,187522,1,0,0:0:0:0:
256,188,187761,1,8,0:0:0:0:
256,188,187999,1,0,0:0:0:0:
256,188,188237,1,8,0:0:0:0:
256,188,188475,1,0,0:0:0:0:
256,188,188713,1,8,0:0:0:0:
256,188,188832,1,8,0:0:0:0:
256,188,188951,1,8,0:0:0:0:
256,188,189189,1,0,0:0:0:0:
256,188,189427,1,8,0:0:0:0:
256,188,189546,1,8,0:0:0:0:
256,188,189665,1,8,0:0:0:0:
256,188,189903,1,0,0:0:0:0:
256,188,190141,1,8,0:0:0:0:
256,188,190380,1,0,0:0:0:0:
256,188,190618,1,4,0:0:0:0:
