osu file format v12

[General]
AudioFilename: PSY () - Gentleman ().mp3
AudioLeadIn: 2000
PreviewTime: 77284
Countdown: 0
SampleSet: Normal
StackLeniency: 0.7
Mode: 0
LetterboxInBreaks: 1

[Editor]
DistanceSpacing: 1.5
BeatDivisor: 8
GridSize: 4

[Metadata]
Title:GENTLEMAN
TitleUnicode:GENTLEMAN
Artist:PSY
ArtistUnicode:PSY
Creator:Midnaait
Version:Gentle
Source:
Tags:k-pop Smoothie kazukisinx taiko
BeatmapID:247122
BeatmapSetID:88218

[Difficulty]
HPDrainRate:7
CircleSize:4
OverallDifficulty:7
ApproachRate:8
SliderMultiplier:1.6
SliderTickRate:2

[Events]
//Background and Video events
Video,0,"GENTLEMAN.avi"
0,0,"bg.jpg",0,0
//Break Periods
2,139389,146058
//Storyboard Layer 0 (Background)
//Storyboard Layer 1 (Fail)
//Storyboard Layer 2 (Pass)
//Storyboard Layer 3 (Foreground)
//Storyboard Sound Samples
//Background Colour Transformations
3,100,163,162,255

[TimingPoints]
142,476.190476190476,4,1,0,75,1,0
7761,-100,4,1,0,75,0,1
7762,-100,4,1,0,75,0,0
15380,-100,4,1,0,75,0,1
15381,-100,4,1,0,75,0,0
30618,-100,4,1,0,75,0,1
30619,-100,4,1,0,75,0,0
45856,-100,4,1,0,55,0,0
59189,-100,4,1,0,55,0,0
60618,-100,4,1,0,75,0,0
61094,-100,4,1,0,75,0,1
76332,-100,4,1,0,75,0,0
76451,-100,4,1,0,5,0,0
77761,-100,4,1,0,75,0,0
78237,-100,4,1,0,75,0,1
78238,-100,4,1,0,75,0,0
93475,-100,4,1,0,75,0,1
93476,-100,4,1,0,75,0,0
108713,-100,4,1,0,55,0,1
108714,-100,4,1,0,55,0,0
123475,-100,4,1,0,75,0,0
123951,-100,4,1,0,75,0,1
139189,-100,4,1,0,75,0,0
152999,-100,4,1,0,85,0,0
162046,-100,4,1,0,75,0,1
177284,-100,4,1,0,75,0,0
190737,-100,4,1,0,5,0,0
192165,-100,4,1,0,75,0,0

[Colours]
Combo1 : 140,255,255
Combo2 : 64,193,255
Combo3 : 18,124,255

[HitObjects]
256,128,142,1,0,0:0:0:0:
100,96,618,2,0,P|108:136|108:180,1,80,8|0,0:0|0:0,0:0:0:0:
180,212,1094,1,0,0:0:0:0:
256,72,1570,1,8,0:0:0:0:
256,312,2046,5,0,0:0:0:0:
412,96,2522,2,0,P|404:136|404:180,1,80,8|0,0:0|0:0,0:0:0:0:
332,212,2998,1,0,0:0:0:0:
256,72,3474,1,8,0:0:0:0:
256,232,3951,6,0,B|224:184|164:200|164:200|116:160,1,160,0|8,0:0|0:0,0:0:0:0:
192,268,4665,1,0,0:0:0:0:
128,76,4903,2,0,L|192:128,1,80
256,80,5380,1,8,0:0:0:0:
208,232,5856,6,0,L|176:316,1,80
304,288,6332,2,0,L|336:204,2,80,8|0|0,0:0|0:0|0:0,0:0:0:0:
196,236,7046,1,0,0:0:0:0:
256,136,7284,1,4,0:0:0:0:
256,136,7761,6,0,P|292:196|384:180,1,160,0|8,0:0|0:0,0:0:0:0:
332,124,8475,1,0,0:0:0:0:
348,88,8594,1,0,0:0:0:0:
364,52,8713,1,0,0:0:0:0:
180,124,8951,1,0,0:0:0:0:
164,88,9070,1,0,0:0:0:0:
148,52,9189,1,8,0:0:0:0:
256,192,9427,5,0,0:0:0:0:
176,280,9665,2,0,P|136:316|96:324,1,80
116,164,10141,2,0,P|156:128|196:120,1,80,8|0,0:0|0:0,0:0:0:0:
288,68,10618,1,0,0:0:0:0:
392,188,10856,1,0,0:0:0:0:
292,312,11094,1,8,0:0:0:0:
192,188,11332,1,0,0:0:0:0:
392,188,11570,6,0,P|456:252|412:328,1,160,0|8,0:0|0:0,0:0:0:0:
316,180,12284,2,0,L|276:180,2,40,0|0|0,0:0|0:0|0:0,0:0:0:0:
347,276,12761,2,0,L|384:260,2,40,0|0|8,0:0|0:0|0:0,0:0:0:0:
256,352,13237,1,0,0:0:0:0:
256,272,13475,5,0,0:0:0:0:
120,220,13713,2,0,L|92:176,2,40
192,136,14189,2,0,L|180:88,2,40
320,136,14665,2,0,L|332:88,2,40,0|0|0,0:0|0:0|0:0,0:0:0:0:
392,220,15141,2,0,L|444:148,1,80,0|4,0:0|0:0,0:0:0:0:
120,220,15856,5,8,0:0:0:0:
180,116,16094,1,0,0:0:0:0:
199,80,16213,1,0,0:0:0:0:
218,45,16332,1,0,0:0:0:0:
308,128,16570,1,0,0:0:0:0:
308,128,16689,1,0,0:0:0:0:
308,128,16808,1,8,0:0:0:0:
252,236,17046,6,0,P|296:228|364:228,1,80
200,320,17522,2,0,P|156:328|88:328,1,80,0|8,0:0|0:0,0:0:0:0:
160,216,17999,1,0,0:0:0:0:
104,144,18237,2,0,P|96:100|124:44,1,80,0|0,0:0|0:0,0:0:0:0:
405,66,18713,6,0,P|416:100|408:144,2,80,8|0|0,0:0|0:0|0:0,0:0:0:0:
316,152,19427,1,0,0:0:0:0:
256,252,19665,1,8,0:0:0:0:
196,148,19903,2,0,L|184:96,2,40
324,109,20380,2,0,L|316:148,2,40,0|0|8,0:0|0:0|0:0,0:0:0:0:
420,180,20856,2,0,L|420:272,1,80
308,308,21332,5,0,0:0:0:0:
272,326,21451,1,0,0:0:0:0:
237,345,21570,1,8,0:0:0:0:
120,364,21808,1,0,0:0:0:0:
132,252,22046,2,0,P|136:204|160:152,1,80
244,48,22522,5,8,0:0:0:0:
344,176,22761,1,0,0:0:0:0:
416,196,22999,2,0,P|368:248|276:200,1,160,4|8,0:0|0:0,0:0:0:0:
192,256,23713,2,0,L|187:307,1,40
185,335,23951,1,0,0:0:0:0:
88,264,24189,2,0,L|92:212,1,40
95,185,24427,1,8,0:0:0:0:
250,79,24665,6,0,P|232:76|176:96,1,80
250,79,25141,1,0,0:0:0:0:
320,176,25380,2,0,P|352:112|440:116,1,160,8|0,0:0|0:0,0:0:0:0:
392,172,26094,1,0,0:0:0:0:
256,252,26332,1,8,0:0:0:0:
120,172,26570,1,0,0:0:0:0:
256,100,26808,1,0,0:0:0:0:
144,56,27046,5,0,0:0:0:0:
72,112,27284,2,0,P|52:156|48:200,1,80,8|0,0:0|0:0,0:0:0:0:
68,308,27761,1,0,0:0:0:0:
143,331,27999,1,0,0:0:0:0:
182,327,28118,1,0,0:0:0:0:
219,311,28237,1,8,0:0:0:0:
256,196,28475,1,0,0:0:0:0:
328,100,28713,6,0,L|312:140,2,40
408,192,29189,2,0,L|456:220,2,40,8|0|0,0:0|0:0|0:0,0:0:0:0:
392,312,29665,1,0,0:0:0:0:
284,360,29903,1,0,0:0:0:0:
300,240,30141,1,12,0:0:0:0:
196,80,30618,5,0,0:0:0:0:
196,304,30856,1,0,0:0:0:0:
156,192,31094,1,8,0:0:0:0:
112,80,31332,6,0,L|64:48,2,40
64,188,31808,2,0,L|-12:188,2,40,0|0|8,0:0|0:0|0:0,0:0:0:0:
180,220,32284,2,0,P|208:160|244:140,1,80
332,220,32761,2,0,P|304:160|268:140,1,80,0|8,0:0|0:0,0:0:0:0:
256,268,33237,2,0,L|256:352,2,80
188,168,33951,1,8,0:0:0:0:
324,168,34189,1,0,0:0:0:0:
120,72,34427,5,0,0:0:0:0:
392,72,34665,1,0,0:0:0:0:
256,112,34903,1,8,0:0:0:0:
256,252,35141,1,0,0:0:0:0:
256,288,35261,1,0,0:0:0:0:
256,324,35380,5,0,0:0:0:0:
184,228,35618,1,0,0:0:0:0:
116,328,35856,1,8,0:0:0:0:
256,324,36094,1,0,0:0:0:0:
328,228,36332,2,0,P|373:179|430:198,1,120
420,188,36808,1,8,0:0:0:0:
464,292,37046,5,0,0:0:0:0:
434,319,37165,1,0,0:0:0:0:
405,346,37284,1,0,0:0:0:0:
316,268,37522,1,0,0:0:0:0:
345,241,37641,1,0,0:0:0:0:
375,215,37760,1,8,0:0:0:0:
292,128,37999,1,0,0:0:0:0:
168,96,38237,5,4,0:0:0:0:
344,288,38475,1,0,0:0:0:0:
256,192,38713,2,0,L|184:240,1,80,8|0,0:0|0:0,0:0:0:0:
216,264,39070,1,0,0:0:0:0:
244,292,39189,2,0,L|172:340,1,80,0|0,0:0|0:0,0:0:0:0:
44,292,39665,2,0,L|116:340,1,80,8|0,0:0|0:0,0:0:0:0:
144,240,40141,2,0,L|144:148,1,80
24,152,40618,2,0,L|96:96,1,80,8|0,0:0|0:0,0:0:0:0:
208,60,41094,1,0,0:0:0:0:
312,124,41332,1,0,0:0:0:0:
416,64,41570,1,8,0:0:0:0:
168,288,42046,5,0,0:0:0:0:
344,96,42284,1,0,0:0:0:0:
256,192,42522,1,8,0:0:0:0:
192,140,42761,2,0,B|240:112|256:88|256:88|272:112|324:148,2,160
112,232,43951,5,0,0:0:0:0:
188,324,44189,1,0,0:0:0:0:
264,232,44427,1,8,0:0:0:0:
188,324,44665,1,0,0:0:0:0:
112,232,44903,2,0,P|184:208|272:240,1,160
216,128,45856,6,0,L|216:208,1,80,8|0,0:0|0:0,0:0:0:0:
296,256,46332,2,0,L|296:176,1,80,8|0,0:0|0:0,0:0:0:0:
238,86,46808,2,0,L|191:188,1,80,8|0,0:0|0:0,0:0:0:0:
273,297,47284,2,0,L|318:199,1,80,8|0,0:0|0:0,0:0:0:0:
276,42,47761,6,0,L|207:125,1,80,8|0,0:0|0:0,0:0:0:0:
235,341,48237,2,0,L|304:258,1,80,8|0,0:0|0:0,0:0:0:0:
344,25,48713,2,0,L|257:75,1,80,8|0,0:0|0:0,0:0:0:0:
167,358,49189,2,0,L|264:302,1,80,8|0,0:0|0:0,0:0:0:0:
395,65,49665,6,0,L|296:82,1,80,8|0,0:0|0:0,0:0:0:0:
115,317,50141,2,0,L|225:298,1,80,8|0,0:0|0:0,0:0:0:0:
383,110,50618,2,0,L|275:111,1,80,8|0,0:0|0:0,0:0:0:0:
128,271,51094,2,0,L|236:271,1,80,8|0,0:0|0:0,0:0:0:0:
357,155,51570,6,0,L|248:127,1,80,8|0,0:0|0:0,0:0:0:0:
155,226,52046,2,0,L|259:254,1,80,8|0,0:0|0:0,0:0:0:0:
331,189,52522,2,0,L|262:149,1,80,8|0,0:0|0:0,0:0:0:0:
180,194,52998,2,0,L|249:234,1,80,4|0,0:2|0:0,0:0:0:0:
348,308,53475,6,0,P|412:296|468:324,2,120,8|8|8,0:0|0:0|0:0,0:0:0:0:
228,308,54427,1,0,0:0:0:0:
228,188,54665,1,8,0:0:0:0:
348,192,54903,1,8,0:0:0:0:
348,312,55141,1,0,0:0:0:0:
348,192,55380,6,0,P|392:144|400:116,1,80,8|0,0:0|0:0,0:0:0:0:
396,92,55737,2,0,P|348:48|320:40,1,80,8|0,0:0|0:0,0:0:0:0:
296,52,56094,2,0,P|252:100|244:128,1,80,8|0,0:0|0:0,0:0:0:0:
256,232,56570,1,8,0:0:0:0:
256,232,56808,1,8,0:0:0:0:
256,232,57046,1,0,0:0:0:0:
156,296,57284,6,0,L|128:280,7,20
120,276,57761,6,0,L|88:268,7,20
80,268,58237,6,0,L|44:264,8,20,0|0|0|0|0|0|0|0|0,0:0|0:0|0:0|0:0|0:0|0:0|0:0|0:0|0:0,0:0:0:0:
256,60,60618,5,0,0:0:0:0:
176,292,61094,6,0,B|256:264|352:296,1,160,4|8,0:0|0:0,0:0:0:0:
312,196,61808,1,0,0:0:0:0:
318,156,61927,1,0,0:0:0:0:
325,117,62046,1,0,0:0:0:0:
200,196,62284,2,0,L|184:104,1,80,0|8,0:0|0:0,0:0:0:0:
200,196,62761,1,0,0:0:0:0:
88,236,62999,2,0,L|144:316,1,80
424,236,63475,6,0,L|368:316,1,80,8|0,0:0|0:0,0:0:0:0:
256,328,63951,1,0,0:0:0:0:
168,196,64189,1,0,0:0:0:0:
344,196,64427,1,8,0:0:0:0:
256,328,64665,1,0,0:0:0:0:
256,168,64903,6,0,B|216:136|224:84|224:84|144:56,1,160,0|8,0:0|0:0,0:0:0:0:
296,104,65618,1,0,0:0:0:0:
332,87,65737,1,0,0:0:0:0:
368,71,65856,1,0,0:0:0:0:
472,132,66094,2,0,L|400:168,1,80,0|8,0:0|0:0,0:0:0:0:
332,268,66570,1,0,0:0:0:0:
224,316,66808,6,0,P|172:288|164:248,1,80
288,68,67284,2,0,P|340:96|348:136,1,80,8|0,0:0|0:0,0:0:0:0:
256,192,67761,1,0,0:0:0:0:
256,192,67999,1,0,0:0:0:0:
256,192,68237,1,8,0:0:0:0:
68,44,68713,6,0,L|56:140,1,80,4|0,0:0|0:0,0:0:0:0:
76,240,69189,1,8,0:0:0:0:
188,308,69427,1,0,0:0:0:0:
188,268,69546,1,0,0:0:0:0:
188,228,69665,1,0,0:0:0:0:
324,160,69903,2,0,L|324:248,1,80,0|8,0:0|0:0,0:0:0:0:
324,160,70380,1,0,0:0:0:0:
256,60,70618,6,0,P|216:56|144:76,1,80
344,80,71094,2,0,P|384:84|423:77,1,80,8|0,0:0|0:0,0:0:0:0:
432,196,71570,1,0,0:0:0:0:
332,320,71808,1,0,0:0:0:0:
232,196,72046,1,8,0:0:0:0:
132,320,72284,1,0,0:0:0:0:
32,196,72522,6,0,P|24:148|44:72,1,120
56,64,72999,1,8,0:0:0:0:
172,92,73237,2,0,L|156:132,2,40
340,92,73713,2,0,L|356:132,2,40,0|0|8,0:0|0:0|0:0,0:0:0:0:
256,180,74189,1,0,0:0:0:0:
192,280,74427,6,0,P|176:320|124:344,1,80
320,280,74903,2,0,P|336:320|365:340,1,80,8|0,0:0|0:0,0:0:0:0:
396,224,75380,1,0,0:0:0:0:
256,148,75618,1,0,0:0:0:0:
116,224,75856,1,8,0:0:0:0:
256,68,76332,5,4,3:0:0:0:
256,192,76451,12,0,77761,0:0:0:0:
132,160,78237,6,0,P|152:112|144:64,1,80,4|0,0:0|0:0,0:0:0:0:
196,216,78713,2,0,P|176:264|184:312,1,80,8|0,0:0|0:0,0:0:0:0:
184,324,79070,1,0,0:0:0:0:
204,348,79189,1,0,0:0:0:0:
300,272,79427,2,0,L|292:176,1,80,0|8,0:0|0:0,0:0:0:0:
392,128,79903,6,0,L|400:224,2,80
304,44,80618,1,8,0:0:0:0:
196,96,80856,1,0,0:0:0:0:
116,40,81094,2,0,P|100:88|104:128,1,80
284,320,81570,6,0,P|300:272|296:232,1,80,8|0,0:0|0:0,0:0:0:0:
204,200,82046,1,0,0:0:0:0:
388,48,82522,1,8,0:0:0:0:
320,148,82761,1,0,0:0:0:0:
318,187,82880,1,0,0:0:0:0:
316,227,82999,1,0,0:0:0:0:
416,296,83237,6,0,L|444:256,2,40,0|0|8,0:0|0:0|0:0,0:0:0:0:
316,360,83713,2,0,B|280:372|224:356,1,80
80,324,84189,2,0,B|116:312|158:324,1,80,0|8,0:0|0:0,0:0:0:0:
208,216,84665,1,0,0:0:0:0:
196,132,84903,2,0,B|224:124|228:96|228:96|232:64,1,80
476,52,85380,6,0,B|448:60|444:88|444:88|440:120,1,80,8|0,0:0|0:0,0:0:0:0:
336,96,85856,1,4,0:0:0:0:
436,160,86094,1,0,0:0:0:0:
456,304,86332,1,8,0:0:0:0:
430,273,86451,1,0,0:0:0:0:
405,242,86570,1,0,0:0:0:0:
324,308,86808,1,0,0:0:0:0:
298,277,86927,1,0,0:0:0:0:
273,246,87046,1,0,0:0:0:0:
192,312,87284,2,0,L|136:244,1,80,8|0,0:0|0:0,0:0:0:0:
52,196,87761,6,0,P|92:144|132:128,1,80
44,88,88237,2,0,B|100:56|100:56|168:64|188:136,1,160,8|0,0:0|0:0,0:0:0:0:
256,244,88951,1,0,0:0:0:0:
256,84,89189,1,8,0:0:0:0:
256,244,89427,1,0,0:0:0:0:
392,160,89665,6,0,P|452:168|424:244,1,160,0|8,0:0|0:0,0:0:0:0:
352,336,90380,1,0,0:0:0:0:
232,324,90618,2,0,P|176:300|140:300,1,80
44,252,91094,2,0,P|100:228|136:228,1,80,8|0,0:0|0:0,0:0:0:0:
196,144,91570,2,0,L|228:116,2,40
308,180,92046,2,0,L|312:124,2,40,8|0|0,0:0|0:0|0:0,0:0:0:0:
288,60,92522,5,0,0:0:0:0:
396,112,92761,1,0,0:0:0:0:
396,112,92880,1,0,0:0:0:0:
396,112,92999,1,8,0:0:0:0:
384,316,93475,5,0,0:0:0:0:
128,316,93713,1,0,0:0:0:0:
256,280,93951,2,0,P|228:240|188:232,1,80,8|0,0:0|0:0,0:0:0:0:
256,280,94427,2,0,P|284:240|312:231,1,80
344,160,94903,1,8,0:0:0:0:
455,179,95141,1,0,0:0:0:0:
475,65,95380,1,0,0:0:0:0:
363,46,95618,1,0,0:0:0:0:
256,100,95856,2,0,L|172:148,1,80,8|0,0:0|0:0,0:0:0:0:
124,100,96332,2,0,P|124:184|204:204,1,160,0|8,0:0|0:0,0:0:0:0:
324,208,97046,1,0,0:0:0:0:
256,312,97284,5,0,0:0:0:0:
256,72,97522,1,0,0:0:0:0:
256,192,97761,2,0,B|284:204|284:204|316:184|356:180,1,80,8|0,0:0|0:0,0:0:0:0:
449,256,98237,2,0,B|421:244|421:244|389:264|376:264,1,80
284,340,98713,1,8,0:0:0:0:
260,224,98951,1,0,0:0:0:0:
232,108,99189,2,0,P|196:60|168:48,1,80
48,44,99665,5,8,0:0:0:0:
24,160,99903,1,0,0:0:0:0:
37,197,100022,1,0,0:0:0:0:
50,235,100141,1,0,0:0:0:0:
148,200,100380,1,0,0:0:0:0:
161,237,100499,1,0,0:0:0:0:
174,275,100618,1,8,0:0:0:0:
288,216,100856,1,0,0:0:0:0:
344,96,101094,5,4,0:0:0:0:
168,288,101332,1,0,0:0:0:0:
204,176,101570,2,0,L|204:96,1,80,8|0,0:0|0:0,0:0:0:0:
308,208,102046,2,0,L|308:288,1,80
308,208,102522,1,8,0:0:0:0:
408,184,102761,6,0,L|428:136,2,40
256,304,103237,1,0,0:0:0:0:
208,208,103475,1,8,0:0:0:0:
104,184,103713,2,0,L|84:136,2,40,0|0|0,0:0|0:0|0:0,0:0:0:0:
256,112,104189,1,0,0:0:0:0:
380,64,104427,2,0,P|348:48|304:40,1,80,8|0,0:0|0:0,0:0:0:0:
168,96,104903,5,0,0:0:0:0:
344,288,105141,1,0,0:0:0:0:
256,192,105380,1,8,0:0:0:0:
272,268,105618,2,0,P|188:240|180:176,1,160
104,88,106332,2,0,L|88:184,1,80,8|0,0:0|0:0,0:0:0:0:
184,88,106808,2,0,L|200:184,1,80
328,292,107284,2,0,L|312:196,1,80,8|0,0:0|0:0,0:0:0:0:
304,92,107761,2,0,P|360:60|392:148,1,160,0|8,0:0|0:0,0:0:0:0:
296,256,108713,6,0,L|296:176,1,80,8|0,0:0|0:0,0:0:0:0:
216,128,109189,2,0,L|216:208,1,80,8|0,0:0|0:0,0:0:0:0:
274,298,109665,2,0,L|321:196,1,80,8|0,0:0|0:0,0:0:0:0:
239,87,110141,2,0,L|194:185,1,80,8|0,0:0|0:0,0:0:0:0:
236,342,110618,6,0,L|305:259,1,80,8|0,0:0|0:0,0:0:0:0:
277,43,111094,2,0,L|208:126,1,80,8|0,0:0|0:0,0:0:0:0:
168,359,111570,2,0,L|255:309,1,80,8|0,0:0|0:0,0:0:0:0:
345,26,112046,2,0,L|248:82,1,80,8|0,0:0|0:0,0:0:0:0:
117,319,112522,6,0,L|216:302,1,80,8|0,0:0|0:0,0:0:0:0:
397,67,112998,2,0,L|287:86,1,80,8|0,0:0|0:0,0:0:0:0:
129,274,113475,2,0,L|237:273,1,80,8|0,0:0|0:0,0:0:0:0:
384,113,113951,2,0,L|276:113,1,80,8|0,0:0|0:0,0:0:0:0:
155,229,114427,6,0,L|264:257,1,80,8|0,0:0|0:0,0:0:0:0:
357,158,114903,2,0,L|253:130,1,80,8|0,0:0|0:0,0:0:0:0:
181,195,115379,2,0,L|250:235,1,80,8|0,0:0|0:0,0:0:0:0:
332,190,115855,2,0,L|263:150,1,80,4|0,0:2|0:0,0:0:0:0:
200,68,116332,6,0,B|248:56|256:48|256:48|264:56|316:68,2,120,8|8|8,0:0|0:0|0:0,0:0:0:0:
168,184,117284,1,0,0:0:0:0:
168,184,117522,1,8,0:0:0:0:
344,184,117761,1,8,0:0:0:0:
344,184,117999,1,0,0:0:0:0:
256,272,118237,6,0,P|216:304|164:308,1,80,8|0,0:0|0:0,0:0:0:0:
148,304,118594,2,0,P|116:264|112:212,1,80,8|0,0:0|0:0,0:0:0:0:
112,196,118951,2,0,P|152:164|204:160,1,80,8|0,0:0|0:0,0:0:0:0:
256,132,119427,2,8,P|312:80|344:80,2,80,8|8|0,0:0|0:0|0:0,0:0:0:0:
332,152,120141,6,0,L|352:172,7,20
364,176,120618,6,0,L|396:184,7,20
404,184,121094,6,0,L|432:184,8,20
256,312,123475,5,4,3:0:0:0:
184,84,123951,6,0,B|224:112|224:112|272:76|340:88,1,160,0|8,0:0|0:0,0:0:0:0:
192,180,124665,1,0,0:0:0:0:
159,156,124784,1,0,0:0:0:0:
127,132,124903,1,0,0:0:0:0:
56,228,125141,2,0,P|56:292|88:328,1,80,0|8,0:0|0:0,0:0:0:0:
132,264,125618,1,0,0:0:0:0:
212,260,125856,6,0,L|200:344,1,80
360,308,126332,2,0,L|372:224,1,80,8|0,0:0|0:0,0:0:0:0:
292,244,126808,2,0,L|280:328,1,80,0|0,0:0|0:0,0:0:0:0:
440,292,127284,2,0,L|452:208,1,80,8|0,0:0|0:0,0:0:0:0:
416,140,127761,6,0,B|376:96|376:96|320:140|260:88,1,160,0|8,0:0|0:0,0:0:0:0:
324,40,128475,1,0,0:0:0:0:
324,40,128594,1,0,0:0:0:0:
324,40,128713,1,0,0:0:0:0:
193,138,128951,2,0,P|192:112|204:60,2,80,0|8|0,0:0|0:0|0:0,0:0:0:0:
256,240,129665,6,0,P|212:220|148:220,1,80
336,212,130141,2,0,P|380:232|444:232,1,80,8|0,0:0|0:0,0:0:0:0:
320,292,130618,1,0,0:0:0:0:
212,340,130856,1,0,0:0:0:0:
100,292,131094,1,8,0:0:0:0:
444,44,131570,6,0,L|456:140,1,80,4|0,0:0|0:0,0:0:0:0:
436,240,132046,1,8,0:0:0:0:
324,308,132284,1,0,0:0:0:0:
324,268,132403,1,0,0:0:0:0:
324,228,132522,1,0,0:0:0:0:
188,160,132760,2,0,L|188:248,1,80,0|8,0:0|0:0,0:0:0:0:
188,160,133237,1,0,0:0:0:0:
256,60,133475,6,0,P|296:56|368:76,1,80
168,80,133951,2,0,P|128:84|89:77,1,80,8|0,0:0|0:0,0:0:0:0:
80,196,134427,1,0,0:0:0:0:
180,320,134665,1,0,0:0:0:0:
280,196,134903,1,8,0:0:0:0:
380,320,135141,1,0,0:0:0:0:
480,196,135379,6,0,P|488:148|468:72,1,120
456,64,135856,1,8,0:0:0:0:
340,92,136094,2,0,L|356:132,2,40
172,92,136570,2,0,L|156:132,2,40,0|0|8,0:0|0:0|0:0,0:0:0:0:
256,180,137046,1,0,0:0:0:0:
208,292,137284,6,0,L|168:204,1,80
304,292,137761,2,0,L|337:219,1,80,8|0,0:0|0:0,0:0:0:0:
256,128,138237,1,0,0:0:0:0:
112,56,138475,1,0,0:0:0:0:
120,220,138713,1,8,0:0:0:0:
420,272,139189,5,4,0:0:0:0:
108,108,146808,6,0,P|156:72|188:64,1,80,8|0,0:0|0:0,0:0:0:0:
216,64,147165,1,8,0:0:0:0:
256,80,147284,1,0,0:0:0:0:
256,240,147522,1,8,0:0:0:0:
256,160,147761,2,0,P|320:184|320:280,1,160,0|8,0:0|0:0,0:0:0:0:
228,328,148475,1,8,0:0:0:0:
268,340,148594,1,8,0:0:0:0:
308,352,148713,1,0,0:0:0:0:
416,296,148951,6,0,L|440:256,2,40,8|0|8,0:0|0:0|0:0,0:0:0:0:
328,216,149427,2,8,P|308:176|324:124,1,80,8|0,0:0|0:0,0:0:0:0:
412,72,149903,2,8,P|460:88|480:120,2,80
392,156,150618,1,0,0:0:0:0:
392,156,150737,1,0,0:0:0:0:
392,156,150856,1,8,0:0:0:0:
392,156,150975,1,0,0:0:0:0:
392,156,151094,1,8,0:0:0:0:
320,60,151332,6,0,L|216:32,1,80,8|0,0:0|0:0,0:0:0:0:
128,152,151808,2,0,L|232:180,1,80,8|8,0:0|0:0,0:0:0:0:
256,280,152284,1,8,0:0:0:0:
256,280,152522,1,0,0:0:0:0:
144,320,152999,6,0,P|96:288|84:240,1,80,0|0,0:0|0:0,0:0:0:0:
60,176,153475,1,12,0:0:0:0:
368,64,153951,6,0,P|416:96|428:144,1,80
452,208,154427,1,12,0:0:0:0:
360,188,154665,2,0,L|292:132,1,80
132,188,155141,2,0,L|200:244,1,80,0|12,0:0|0:0,0:0:0:0:
252,52,155618,2,0,L|196:136,1,80
252,334,156094,2,0,L|308:249,1,80,0|12,0:0|0:0,0:0:0:0:
316,232,156451,5,0,0:0:0:0:
328,192,156570,1,0,0:0:0:0:
328,152,156689,1,0,0:0:0:0:
312,116,156808,1,8,0:0:0:0:
280,92,156927,1,0,0:0:0:0:
240,84,157046,1,0,0:0:0:0:
204,96,157165,1,0,0:0:0:0:
176,124,157284,1,8,0:0:0:0:
168,164,157403,5,0,0:0:0:0:
152,200,157522,1,0,0:0:0:0:
120,224,157641,1,0,0:0:0:0:
80,220,157761,1,8,0:0:0:0:
48,196,157880,1,0,0:0:0:0:
36,156,157999,1,0,0:0:0:0:
32,116,158118,1,0,0:0:0:0:
40,76,158237,6,0,L|56:56,7,20,0|0|0|0|0|0|0|0,0:0|0:0|0:0|0:0|0:0|0:0|0:0|0:0,0:0:0:0:
68,48,158713,6,0,L|100:40,7,20
108,44,159189,6,0,L|136:48,8,20
428,192,161570,5,12,3:0:0:0:
200,116,162046,2,0,P|180:196|200:284,1,160,0|8,0:0|0:0,0:0:0:0:
300,212,162761,1,0,0:0:0:0:
305,172,162880,1,0,0:0:0:0:
311,132,162999,1,0,0:0:0:0:
408,64,163237,1,0,0:0:0:0:
402,103,163356,1,0,0:0:0:0:
396,143,163475,1,8,0:0:0:0:
320,52,163713,1,0,0:0:0:0:
204,76,163951,6,0,L|136:136,1,80
80,228,164427,2,0,L|80:316,1,80,8|0,0:0|0:0,0:0:0:0:
184,248,164903,1,0,0:0:0:0:
344,248,165141,1,0,0:0:0:0:
260,112,165380,1,8,0:0:0:0:
184,248,165618,1,0,0:0:0:0:
256,344,165856,6,0,B|296:368|296:368|368:372|420:328,1,160,0|8,0:0|0:0,0:0:0:0:
460,236,166570,1,0,0:0:0:0:
460,236,166689,1,0,0:0:0:0:
460,236,166808,1,0,0:0:0:0:
380,148,167046,2,0,L|292:176,1,80,0|8,0:0|0:0,0:0:0:0:
303,172,167522,1,0,0:0:0:0:
232,76,167761,5,0,0:0:0:0:
72,72,167999,1,0,0:0:0:0:
68,232,168237,1,8,0:0:0:0:
228,232,168475,1,0,0:0:0:0:
232,76,168713,2,0,P|256:136|276:152,2,80,0|0|8,0:0|0:0|0:0,0:0:0:0:
444,340,169665,6,0,L|456:244,1,80,4|0,0:0|0:0,0:0:0:0:
436,144,170141,1,8,0:0:0:0:
324,76,170379,1,0,0:0:0:0:
324,116,170498,1,0,0:0:0:0:
324,156,170617,1,0,0:0:0:0:
188,224,170855,2,0,L|188:136,1,80,0|8,0:0|0:0,0:0:0:0:
188,224,171332,1,0,0:0:0:0:
256,324,171570,6,0,P|296:328|368:308,1,80
168,304,172046,2,0,P|128:300|89:307,1,80,8|0,0:0|0:0,0:0:0:0:
80,188,172522,1,0,0:0:0:0:
180,64,172760,1,0,0:0:0:0:
280,188,172998,1,8,0:0:0:0:
380,64,173236,1,0,0:0:0:0:
480,188,173474,6,0,P|488:236|468:312,1,120
456,320,173951,1,8,0:0:0:0:
340,292,174189,2,0,L|356:252,2,40
172,292,174665,2,0,L|156:252,2,40,0|0|8,0:0|0:0|0:0,0:0:0:0:
256,204,175141,1,0,0:0:0:0:
320,100,175380,6,0,L|356:72,2,40
360,212,175856,2,0,L|408:212,2,40,8|0|0,0:0|0:0|0:0,0:0:0:0:
355,352,176332,2,0,L|272:304,2,80,0|0|8,0:0|0:0|0:0,0:0:0:0:
208,116,177284,5,0,0:0:0:0:
200,76,177403,1,0,0:0:0:0:
193,37,177522,1,0,0:0:0:0:
88,96,177761,1,8,0:0:0:0:
44,208,177999,1,0,0:0:0:0:
81,222,178118,1,0,0:0:0:0:
118,236,178237,1,0,0:0:0:0:
184,336,178475,1,0,0:0:0:0:
256,264,178713,2,0,B|260:248|260:248|252:248|252:248|256:248|256:176,1,80,8|0,0:0|0:0,0:0:0:0:
304,84,179189,5,0,0:0:0:0:
420,56,179427,1,0,0:0:0:0:
423,95,179546,1,0,0:0:0:0:
426,135,179665,1,8,0:0:0:0:
352,228,179903,1,0,0:0:0:0:
348,188,180022,1,0,0:0:0:0:
345,148,180141,1,0,0:0:0:0:
256,228,180380,2,0,P|220:260|176:248,2,80,0|8|0,0:0|0:0|0:0,0:0:0:0:
204,120,181094,5,0,0:0:0:0:
167,102,181213,1,0,0:0:0:0:
131,85,181332,1,0,0:0:0:0:
44,168,181570,1,8,0:0:0:0:
100,276,181808,1,0,0:0:0:0:
136,293,181927,1,0,0:0:0:0:
172,310,182046,1,0,0:0:0:0:
339,310,182284,2,0,L|412:276,2,80,0|8|0,0:0|0:0|0:0,0:0:0:0:
256,228,182999,5,0,0:0:0:0:
256,156,183237,1,0,0:0:0:0:
256,300,183475,1,8,0:0:0:0:
256,84,183713,1,0,0:0:0:0:
188,192,183951,1,0,0:0:0:0:
324,192,184189,1,0,0:0:0:0:
256,228,184427,1,8,0:0:0:0:
448,84,184903,6,0,L|468:40,2,40,4|0|0,0:0|0:0|0:0,0:0:0:0:
404,196,185380,1,8,0:0:0:0:
364,84,185618,2,0,L|344:40,2,40
256,132,186094,1,0,0:0:0:0:
148,84,186332,2,0,P|124:148|136:176,1,80,8|0,0:0|0:0,0:0:0:0:
176,264,186808,5,0,0:0:0:0:
68,332,187046,1,0,0:0:0:0:
62,292,187165,1,0,0:0:0:0:
56,252,187284,1,8,0:0:0:0:
108,100,187522,1,0,0:0:0:0:
113,139,187641,1,0,0:0:0:0:
119,179,187760,1,0,0:0:0:0:
228,232,187999,1,0,0:0:0:0:
336,176,188237,2,0,P|360:144|408:136,2,80,8|0|0,0:0|0:0|0:0,0:0:0:0:
328,208,188832,5,0,0:0:0:0:
336,240,188951,1,0,0:0:0:0:
432,216,189189,1,8,0:0:0:0:
308,316,189427,2,0,L|340:352,2,40
204,316,189903,2,8,L|172:352,2,40,0|0|8,0:0|0:0|0:0,0:0:0:0:
220,280,190261,1,0,0:0:0:0:
228,240,190380,1,0,0:0:0:0:
256,124,190618,1,0,0:0:0:0:
256,192,190737,12,0,192165,0:0:0:0:
