osu file format v12

[General]
AudioFilename: Gentleman.mp3
AudioLeadIn: 1996
PreviewTime: 59189
Countdown: 0
SampleSet: Normal
StackLeniency: 0.7
Mode: 1
LetterboxInBreaks: 0
WidescreenStoryboard: 1

[Editor]
DistanceSpacing: 0.5
BeatDivisor: 1
GridSize: 4

[Metadata]
Title:GENTLEMAN
TitleUnicode:GENTLEMAN
Artist:PSY
ArtistUnicode:PSY
Creator:Lolicakey
Version:OniZoda
Source:
Tags:kpop single dakedekaane kirino kousaka gero natsu zeroarg collab collaboration k-pop _gezo_
BeatmapID:290932
BeatmapSetID:89593

[Difficulty]
HPDrainRate:6
CircleSize:5
OverallDifficulty:5
ApproachRate:5
SliderMultiplier:1.4
SliderTickRate:1

[Events]
//Background and Video events
0,0,"suggestion1.jpg",0,0
Video,0,"gentlemanv.avi"
//Break Periods
//Storyboard Layer 0 (Background)
//Storyboard Layer 1 (Fail)
//Storyboard Layer 2 (Pass)
//Storyboard Layer 3 (Foreground)
//Storyboard Sound Samples
//Background Colour Transformations
3,100,163,162,255

[TimingPoints]
142,476.190476190476,4,1,1,70,1,0
61094,-100,4,1,1,70,0,1
76332,-100,4,1,1,70,0,0
123951,-100,4,1,1,70,0,1
139189,-100,4,1,1,70,0,0
162046,-100,4,1,1,70,0,1
177284,-100,4,1,1,70,0,0

[Colours]
Combo1 : 112,196,193
Combo2 : 0,64,128

[HitObjects]
264,188,7284,1,12,0:0:0:0:
264,188,7761,1,4,0:0:0:0:
264,188,7999,1,0,0:0:0:0:
264,188,8237,1,8,0:0:0:0:
264,188,8713,1,0,0:0:0:0:
264,188,8951,1,0,0:0:0:0:
264,188,9189,1,8,0:0:0:0:
264,188,9427,1,0,0:0:0:0:
264,188,9665,1,8,0:0:0:0:
264,188,9784,1,8,0:0:0:0:
264,188,9903,1,0,0:0:0:0:
264,188,10141,1,8,0:0:0:0:
264,188,10380,1,0,0:0:0:0:
264,188,10618,1,0,0:0:0:0:
264,188,10737,1,8,0:0:0:0:
264,188,10856,1,8,0:0:0:0:
264,188,11094,1,8,0:0:0:0:
264,188,11332,1,0,0:0:0:0:
264,188,11570,1,8,0:0:0:0:
264,188,12046,1,8,0:0:0:0:
264,188,12284,1,0,0:0:0:0:
264,188,12522,1,0,0:0:0:0:
264,188,12761,1,8,0:0:0:0:
264,188,12880,1,8,0:0:0:0:
264,188,12999,1,0,0:0:0:0:
264,188,13237,1,8,0:0:0:0:
264,188,13475,1,0,0:0:0:0:
264,188,13713,1,0,0:0:0:0:
264,188,13832,1,0,0:0:0:0:
264,188,13951,1,8,0:0:0:0:
264,188,14189,1,0,0:0:0:0:
264,188,14308,1,8,0:0:0:0:
264,188,14427,1,8,0:0:0:0:
264,188,14665,1,8,0:0:0:0:
264,188,14784,1,0,0:0:0:0:
264,188,14903,1,12,0:0:0:0:
264,188,15141,1,8,0:0:0:0:
264,188,15380,1,4,0:0:0:0:
264,188,15737,1,0,0:0:0:0:
264,188,15856,1,8,0:0:0:0:
264,188,16094,1,0,0:0:0:0:
264,188,16332,1,0,0:0:0:0:
264,188,16570,1,8,0:0:0:0:
264,188,16689,1,0,0:0:0:0:
264,188,16808,1,0,0:0:0:0:
264,188,17046,1,8,0:0:0:0:
264,188,17284,1,0,0:0:0:0:
264,188,17641,1,0,0:0:0:0:
264,188,17761,1,8,0:0:0:0:
264,188,17999,1,0,0:0:0:0:
264,188,18237,1,8,0:0:0:0:
264,188,18356,1,8,0:0:0:0:
264,188,18475,1,0,0:0:0:0:
264,188,18713,1,8,0:0:0:0:
264,188,18951,1,0,0:0:0:0:
264,188,19070,1,0,0:0:0:0:
264,188,19189,1,8,0:0:0:0:
264,188,19546,1,0,0:0:0:0:
264,188,19665,1,8,0:0:0:0:
264,188,19903,1,0,0:0:0:0:
264,188,20141,1,8,0:0:0:0:
264,188,20261,1,8,0:0:0:0:
264,188,20380,1,0,0:0:0:0:
264,188,20618,1,8,0:0:0:0:
264,188,20856,1,0,0:0:0:0:
264,188,20975,1,0,0:0:0:0:
264,188,21094,1,8,0:0:0:0:
264,188,21332,1,0,0:0:0:0:
264,188,21451,1,0,0:0:0:0:
264,188,21570,1,8,0:0:0:0:
264,188,21808,1,0,0:0:0:0:
264,188,22284,1,0,0:0:0:0:
264,188,22522,1,8,0:0:0:0:
264,188,22761,1,0,0:0:0:0:
264,188,22999,1,4,0:0:0:0:
264,188,23356,1,0,0:0:0:0:
264,188,23475,1,8,0:0:0:0:
264,188,23713,1,0,0:0:0:0:
264,188,23951,1,8,0:0:0:0:
264,188,24189,1,0,0:0:0:0:
264,188,24427,1,8,0:0:0:0:
264,188,24546,1,8,0:0:0:0:
264,188,24665,1,0,0:0:0:0:
264,188,24903,1,8,0:0:0:0:
264,188,25141,1,0,0:0:0:0:
264,188,25618,1,0,0:0:0:0:
264,188,26094,1,0,0:0:0:0:
264,188,26332,1,8,0:0:0:0:
264,188,26570,1,0,0:0:0:0:
264,188,26808,1,0,0:0:0:0:
264,188,26927,1,0,0:0:0:0:
264,188,27046,1,0,0:0:0:0:
264,188,27284,1,8,0:0:0:0:
264,188,27522,1,0,0:0:0:0:
264,188,27761,1,8,0:0:0:0:
264,188,27880,1,8,0:0:0:0:
264,188,27999,1,0,0:0:0:0:
264,188,28237,1,8,0:0:0:0:
264,188,28475,1,0,0:0:0:0:
264,188,28713,1,0,0:0:0:0:
264,188,29189,1,8,0:0:0:0:
264,188,29665,1,8,0:0:0:0:
264,188,29903,1,0,0:0:0:0:
264,188,30141,1,12,0:0:0:0:
264,188,30618,1,4,0:0:0:0:
264,188,30856,1,0,0:0:0:0:
264,188,30975,1,0,0:0:0:0:
264,188,31094,1,8,0:0:0:0:
264,188,31332,1,0,0:0:0:0:
264,188,31570,1,0,0:0:0:0:
264,188,31808,1,0,0:0:0:0:
264,188,31927,1,0,0:0:0:0:
264,188,32046,1,8,0:0:0:0:
264,188,32284,1,0,0:0:0:0:
264,188,32522,1,8,0:0:0:0:
264,188,32761,1,0,0:0:0:0:
264,188,32880,1,0,0:0:0:0:
264,188,32999,1,8,0:0:0:0:
264,188,33237,1,0,0:0:0:0:
264,188,33475,1,8,0:0:0:0:
264,188,33713,1,0,0:0:0:0:
264,188,33951,1,8,0:0:0:0:
264,188,34070,1,8,0:0:0:0:
264,188,34189,1,0,0:0:0:0:
264,188,34427,1,8,0:0:0:0:
264,188,34665,1,0,0:0:0:0:
264,188,34784,1,0,0:0:0:0:
264,188,34903,1,8,0:0:0:0:
264,188,35141,1,0,0:0:0:0:
264,188,35618,1,0,0:0:0:0:
264,188,35856,1,8,0:0:0:0:
264,188,36094,1,0,0:0:0:0:
264,188,36332,1,0,0:0:0:0:
264,188,36689,1,0,0:0:0:0:
264,188,36808,1,8,0:0:0:0:
264,188,37046,1,0,0:0:0:0:
264,188,37284,1,8,0:0:0:0:
264,188,37522,1,0,0:0:0:0:
264,188,37761,1,8,0:0:0:0:
264,188,37880,1,8,0:0:0:0:
264,188,37999,1,0,0:0:0:0:
264,188,38237,1,4,0:0:0:0:
264,188,38713,1,8,0:0:0:0:
264,188,39189,1,8,0:0:0:0:
264,188,39427,1,8,0:0:0:0:
264,188,39665,1,0,0:0:0:0:
264,188,39903,1,8,0:0:0:0:
264,188,40380,1,8,0:0:0:0:
264,188,40618,1,0,0:0:0:0:
264,188,40856,1,8,0:0:0:0:
264,188,41094,1,0,0:0:0:0:
264,188,41213,1,0,0:0:0:0:
264,188,41332,1,8,0:0:0:0:
264,188,41570,1,8,0:0:0:0:
264,188,41808,1,0,0:0:0:0:
264,188,42046,1,0,0:0:0:0:
264,188,42522,1,8,0:0:0:0:
264,188,42761,1,0,0:0:0:0:
264,188,43237,1,0,0:0:0:0:
264,188,43475,1,8,0:0:0:0:
264,188,43713,1,0,0:0:0:0:
264,188,43951,1,8,0:0:0:0:
264,188,44427,1,8,0:0:0:0:
264,188,44903,1,0,0:0:0:0:
264,188,45141,1,0,0:0:0:0:
264,188,45380,1,12,0:0:0:0:
264,188,45856,1,4,0:0:0:0:
264,188,46213,1,0,0:0:0:0:
264,188,46570,1,0,0:0:0:0:
264,188,47046,1,0,0:0:0:0:
264,188,47284,1,8,0:0:0:0:
264,188,47522,1,0,0:0:0:0:
264,188,47761,1,8,0:0:0:0:
264,188,48118,1,0,0:0:0:0:
264,188,48475,1,8,0:0:0:0:
264,188,48713,1,0,0:0:0:0:
264,188,48951,1,8,0:0:0:0:
264,188,49189,1,0,0:0:0:0:
264,188,49427,1,8,0:0:0:0:
264,188,49665,1,0,0:0:0:0:
264,188,50022,1,0,0:0:0:0:
264,188,50380,1,8,0:0:0:0:
264,188,50856,1,8,0:0:0:0:
264,188,51094,1,0,0:0:0:0:
264,188,51570,1,0,0:0:0:0:
264,188,51927,1,8,0:0:0:0:
264,188,52284,1,0,0:0:0:0:
264,188,52522,1,0,0:0:0:0:
264,188,52761,1,0,0:0:0:0:
264,188,52999,1,12,0:0:0:0:
264,188,53475,1,4,0:0:0:0:
264,188,53832,1,8,0:0:0:0:
264,188,54189,1,8,0:0:0:0:
264,188,54665,1,0,0:0:0:0:
264,188,54903,1,8,0:0:0:0:
264,188,55141,1,0,0:0:0:0:
264,188,55380,1,8,0:0:0:0:
264,188,55737,1,0,0:0:0:0:
264,188,56094,1,8,0:0:0:0:
264,188,56570,1,8,0:0:0:0:
264,188,56808,1,0,0:0:0:0:
264,188,57046,1,8,0:0:0:0:
264,188,57284,1,0,0:0:0:0:
264,188,57641,1,0,0:0:0:0:
264,188,57999,1,8,0:0:0:0:
264,188,58475,1,8,0:0:0:0:
264,188,58713,1,0,0:0:0:0:
264,188,58951,1,8,0:0:0:0:
264,188,59189,1,0,0:0:0:0:
264,188,59665,1,8,0:0:0:0:
264,188,60141,1,8,0:0:0:0:
264,188,60380,1,0,0:0:0:0:
264,188,60618,1,12,0:0:0:0:
264,188,61094,1,4,0:0:0:0:
264,188,61332,1,0,0:0:0:0:
264,188,61451,1,0,0:0:0:0:
264,188,61570,1,8,0:0:0:0:
264,188,61808,1,0,0:0:0:0:
264,188,62046,1,8,0:0:0:0:
264,188,62284,1,0,0:0:0:0:
264,188,62403,1,0,0:0:0:0:
264,188,62522,1,8,0:0:0:0:
264,188,62761,1,0,0:0:0:0:
264,188,62999,1,8,0:0:0:0:
264,188,63118,1,8,0:0:0:0:
264,188,63237,1,0,0:0:0:0:
264,188,63475,1,8,0:0:0:0:
264,188,63713,1,0,0:0:0:0:
264,188,63832,1,0,0:0:0:0:
264,188,63951,1,8,0:0:0:0:
264,188,64189,1,0,0:0:0:0:
264,188,64308,1,0,0:0:0:0:
264,188,64427,1,8,0:0:0:0:
264,188,64546,1,8,0:0:0:0:
264,188,64665,1,0,0:0:0:0:
264,188,64903,1,8,0:0:0:0:
264,188,65141,1,0,0:0:0:0:
264,188,65261,1,0,0:0:0:0:
264,188,65380,1,8,0:0:0:0:
264,188,65618,1,0,0:0:0:0:
264,188,65856,1,8,0:0:0:0:
264,188,65975,1,8,0:0:0:0:
264,188,66094,1,0,0:0:0:0:
264,188,66332,1,8,0:0:0:0:
264,188,66570,1,0,0:0:0:0:
264,188,66689,1,0,0:0:0:0:
264,188,66808,1,8,0:0:0:0:
264,188,67046,1,0,0:0:0:0:
264,188,67165,1,0,0:0:0:0:
264,188,67284,1,8,0:0:0:0:
264,188,67522,1,8,0:0:0:0:
264,188,67641,1,0,0:0:0:0:
264,188,67761,1,8,0:0:0:0:
264,188,67999,1,0,0:0:0:0:
264,188,68118,1,0,0:0:0:0:
264,188,68237,1,12,0:0:0:0:
264,188,68713,1,4,0:0:0:0:
264,188,68951,1,0,0:0:0:0:
264,188,69189,1,8,0:0:0:0:
264,188,69427,1,0,0:0:0:0:
264,188,69546,1,0,0:0:0:0:
264,188,69665,1,8,0:0:0:0:
264,188,69903,1,0,0:0:0:0:
264,188,70141,1,8,0:0:0:0:
264,188,70380,1,0,0:0:0:0:
264,188,70618,1,8,0:0:0:0:
264,188,71094,1,0,0:0:0:0:
264,188,71332,1,8,0:0:0:0:
264,188,71808,1,0,0:0:0:0:
264,188,72046,1,8,0:0:0:0:
264,188,72284,1,0,0:0:0:0:
264,188,72522,1,0,0:0:0:0:
264,188,72880,1,0,0:0:0:0:
264,188,72999,1,8,0:0:0:0:
264,188,73237,1,0,0:0:0:0:
264,188,73475,1,8,0:0:0:0:
264,188,73594,1,8,0:0:0:0:
264,188,73713,1,0,0:0:0:0:
264,188,73951,1,8,0:0:0:0:
264,188,74189,1,0,0:0:0:0:
264,188,74308,1,0,0:0:0:0:
264,188,74427,1,8,0:0:0:0:
264,188,74665,1,0,0:0:0:0:
264,188,74784,1,0,0:0:0:0:
264,188,74903,1,8,0:0:0:0:
264,188,75141,1,0,0:0:0:0:
264,188,75261,1,0,0:0:0:0:
264,188,75380,1,8,0:0:0:0:
264,188,75618,1,0,0:0:0:0:
264,188,75856,1,12,0:0:0:0:
264,188,76332,1,4,0:0:0:0:
264,188,77284,1,0,0:0:0:0:
264,188,77522,1,0,0:0:0:0:
264,188,77761,1,8,0:0:0:0:
264,188,78237,1,4,0:0:0:0:
264,188,78713,1,8,0:0:0:0:
264,188,78951,1,0,0:0:0:0:
264,188,79427,1,0,0:0:0:0:
264,188,79665,1,8,0:0:0:0:
264,188,79903,1,0,0:0:0:0:
264,188,80141,1,0,0:0:0:0:
264,188,80618,1,8,0:0:0:0:
264,188,80856,1,0,0:0:0:0:
264,188,81094,1,8,0:0:0:0:
264,188,81213,1,8,0:0:0:0:
264,188,81332,1,0,0:0:0:0:
264,188,81570,1,8,0:0:0:0:
264,188,81808,1,0,0:0:0:0:
264,188,82046,1,8,0:0:0:0:
264,188,82522,1,0,0:0:0:0:
264,188,83237,1,0,0:0:0:0:
264,188,83475,1,8,0:0:0:0:
264,188,83713,1,0,0:0:0:0:
264,188,83951,1,8,0:0:0:0:
264,188,84189,1,0,0:0:0:0:
264,188,84427,1,8,0:0:0:0:
264,188,84665,1,0,0:0:0:0:
264,188,84903,1,8,0:0:0:0:
264,188,85141,1,0,0:0:0:0:
264,188,85380,1,8,0:0:0:0:
264,188,85618,1,8,0:0:0:0:
264,188,85856,1,4,0:0:0:0:
264,188,86332,1,8,0:0:0:0:
264,188,86570,1,0,0:0:0:0:
264,188,86808,1,0,0:0:0:0:
264,188,87046,1,8,0:0:0:0:
264,188,87165,1,8,0:0:0:0:
264,188,87284,1,0,0:0:0:0:
264,188,87522,1,8,0:0:0:0:
264,188,87761,1,0,0:0:0:0:
264,188,88237,1,8,0:0:0:0:
264,188,88713,1,0,0:0:0:0:
264,188,88951,1,0,0:0:0:0:
264,188,89189,1,8,0:0:0:0:
264,188,89427,1,0,0:0:0:0:
264,188,89546,1,0,0:0:0:0:
264,188,89665,1,8,0:0:0:0:
264,188,90141,1,0,0:0:0:0:
264,188,90380,1,8,0:0:0:0:
264,188,90856,1,8,0:0:0:0:
264,188,91094,1,0,0:0:0:0:
264,188,91332,1,8,0:0:0:0:
264,188,91570,1,0,0:0:0:0:
264,188,91808,1,8,0:0:0:0:
264,188,91927,1,8,0:0:0:0:
264,188,92046,1,0,0:0:0:0:
264,188,92284,1,8,0:0:0:0:
264,188,92403,1,8,0:0:0:0:
264,188,92522,1,0,0:0:0:0:
264,188,92761,1,8,0:0:0:0:
264,188,92880,1,8,0:0:0:0:
264,188,92999,1,4,0:0:0:0:
264,188,93237,1,8,0:0:0:0:
264,188,93475,1,4,0:0:0:0:
264,188,93951,1,8,0:0:0:0:
264,188,94427,1,0,0:0:0:0:
264,188,94665,1,0,0:0:0:0:
264,188,94903,1,8,0:0:0:0:
264,188,95380,1,0,0:0:0:0:
264,188,95618,1,0,0:0:0:0:
264,188,95737,1,0,0:0:0:0:
264,188,95856,1,8,0:0:0:0:
264,188,96094,1,0,0:0:0:0:
264,188,96332,1,8,0:0:0:0:
264,188,96570,1,0,0:0:0:0:
264,188,96808,1,0,0:0:0:0:
264,188,96927,1,0,0:0:0:0:
264,188,97046,1,8,0:0:0:0:
264,188,97284,1,8,0:0:0:0:
264,188,97761,1,0,0:0:0:0:
264,188,98237,1,8,0:0:0:0:
264,188,98475,1,8,0:0:0:0:
264,188,98713,1,0,0:0:0:0:
264,188,98951,1,8,0:0:0:0:
264,188,99189,1,0,0:0:0:0:
264,188,99427,1,8,0:0:0:0:
264,188,99665,1,0,0:0:0:0:
264,188,99784,1,0,0:0:0:0:
264,188,99903,1,8,0:0:0:0:
264,188,100022,1,0,0:0:0:0:
264,188,100141,1,0,0:0:0:0:
264,188,100380,1,0,0:0:0:0:
264,188,100618,1,8,0:0:0:0:
264,188,101094,1,4,0:0:0:0:
264,188,101570,1,8,0:0:0:0:
264,188,102046,1,0,0:0:0:0:
264,188,102284,1,0,0:0:0:0:
264,188,102522,1,8,0:0:0:0:
264,188,102761,1,0,0:0:0:0:
264,188,102999,1,8,0:0:0:0:
264,188,103237,1,0,0:0:0:0:
264,188,103475,1,8,0:0:0:0:
264,188,103713,1,0,0:0:0:0:
264,188,103951,1,0,0:0:0:0:
264,188,104070,1,0,0:0:0:0:
264,188,104189,1,0,0:0:0:0:
264,188,104427,1,8,0:0:0:0:
264,188,104665,1,0,0:0:0:0:
264,188,104903,1,8,0:0:0:0:
264,188,105141,1,8,0:0:0:0:
264,188,105261,1,8,0:0:0:0:
264,188,105380,1,0,0:0:0:0:
264,188,105618,1,8,0:0:0:0:
264,188,105856,1,8,0:0:0:0:
264,188,106094,1,0,0:0:0:0:
264,188,106332,1,8,0:0:0:0:
264,188,106570,1,0,0:0:0:0:
264,188,106808,1,0,0:0:0:0:
264,188,107046,1,0,0:0:0:0:
264,188,107165,1,8,0:0:0:0:
264,188,107284,1,8,0:0:0:0:
264,188,107403,1,8,0:0:0:0:
264,188,107522,1,0,0:0:0:0:
264,188,107641,1,8,0:0:0:0:
264,188,107761,1,0,0:0:0:0:
264,188,107999,1,8,0:0:0:0:
264,188,108237,1,4,0:0:0:0:
264,188,108475,1,8,0:0:0:0:
264,188,108713,1,4,0:0:0:0:
264,188,109070,1,4,0:0:0:0:
264,188,109427,1,4,0:0:0:0:
264,188,109784,1,4,0:0:0:0:
264,188,110141,1,12,0:0:0:0:
264,188,110618,1,12,0:0:0:0:
264,188,110975,1,4,0:0:0:0:
264,188,111332,1,12,0:0:0:0:
264,188,111689,1,12,0:0:0:0:
264,188,112046,1,4,0:0:0:0:
264,188,112522,1,4,0:0:0:0:
264,188,112880,1,12,0:0:0:0:
264,188,113237,1,4,0:0:0:0:
264,188,113594,1,4,0:0:0:0:
264,188,113951,1,12,0:0:0:0:
264,188,114427,1,12,0:0:0:0:
264,188,114784,1,4,0:0:0:0:
264,188,115141,1,4,0:0:0:0:
264,188,115499,1,12,0:0:0:0:
264,188,115856,1,12,0:0:0:0:
264,188,116332,1,12,0:0:0:0:
264,188,116689,1,0,0:0:0:0:
264,188,117046,1,8,0:0:0:0:
264,188,117522,1,0,0:0:0:0:
264,188,117761,1,8,0:0:0:0:
264,188,117999,1,8,0:0:0:0:
264,188,118237,1,0,0:0:0:0:
264,188,118594,1,8,0:0:0:0:
264,188,118951,1,0,0:0:0:0:
264,188,119427,1,8,0:0:0:0:
264,188,119665,1,0,0:0:0:0:
264,188,119903,1,0,0:0:0:0:
264,188,120141,1,8,0:0:0:0:
264,188,120499,1,0,0:0:0:0:
264,188,120856,1,8,0:0:0:0:
264,188,121213,1,0,0:0:0:0:
264,188,121570,1,0,0:0:0:0:
264,188,121808,1,8,0:0:0:0:
264,188,122046,1,0,0:0:0:0:
264,188,122522,1,8,0:0:0:0:
264,188,122999,1,8,0:0:0:0:
264,188,123237,1,0,0:0:0:0:
264,188,123475,1,12,0:0:0:0:
264,188,123951,1,4,0:0:0:0:
264,188,124189,1,0,0:0:0:0:
264,188,124308,1,0,0:0:0:0:
264,188,124427,1,8,0:0:0:0:
264,188,124903,1,0,0:0:0:0:
264,188,125141,1,0,0:0:0:0:
264,188,125261,1,0,0:0:0:0:
264,188,125380,1,8,0:0:0:0:
264,188,125856,1,0,0:0:0:0:
264,188,126094,1,0,0:0:0:0:
264,188,126213,1,0,0:0:0:0:
264,188,126332,1,8,0:0:0:0:
264,188,126808,1,0,0:0:0:0:
264,188,127046,1,0,0:0:0:0:
264,188,127165,1,0,0:0:0:0:
264,188,127284,1,8,0:0:0:0:
264,188,127522,1,8,0:0:0:0:
264,188,127761,1,0,0:0:0:0:
264,188,128118,1,8,0:0:0:0:
264,188,128237,1,0,0:0:0:0:
264,188,128475,1,8,0:0:0:0:
264,188,128951,1,8,0:0:0:0:
264,188,129070,1,0,0:0:0:0:
264,188,129189,1,0,0:0:0:0:
264,188,129427,1,8,0:0:0:0:
264,188,129665,1,0,0:0:0:0:
264,188,130141,1,8,0:0:0:0:
264,188,130618,1,8,0:0:0:0:
264,188,130856,1,0,0:0:0:0:
264,188,131094,1,12,0:0:0:0:
264,188,131570,1,4,0:0:0:0:
264,188,131927,1,0,0:0:0:0:
264,188,132046,1,8,0:0:0:0:
264,188,132284,1,0,0:0:0:0:
264,188,132761,1,0,0:0:0:0:
264,188,132999,1,8,0:0:0:0:
264,188,133237,1,0,0:0:0:0:
264,188,133475,1,0,0:0:0:0:
264,188,133951,1,8,0:0:0:0:
264,188,134427,1,8,0:0:0:0:
264,188,134665,1,0,0:0:0:0:
264,188,134903,1,8,0:0:0:0:
264,188,135141,1,8,0:0:0:0:
264,188,135380,1,0,0:0:0:0:
264,188,135856,1,8,0:0:0:0:
264,188,136570,1,0,0:0:0:0:
264,188,136808,1,8,0:0:0:0:
264,188,137046,1,0,0:0:0:0:
264,188,137284,1,0,0:0:0:0:
264,188,137641,1,0,0:0:0:0:
264,188,137761,1,8,0:0:0:0:
264,188,137999,1,0,0:0:0:0:
264,188,138237,1,8,0:0:0:0:
264,188,138356,1,8,0:0:0:0:
264,188,138475,1,0,0:0:0:0:
264,188,138713,1,12,0:0:0:0:
264,188,139189,1,4,0:0:0:0:
264,188,140141,1,0,0:0:0:0:
264,188,141094,1,0,0:0:0:0:
264,188,141570,1,8,0:0:0:0:
264,188,142046,1,8,0:0:0:0:
264,188,143237,1,8,0:0:0:0:
264,188,143356,1,8,0:0:0:0:
264,188,143475,1,0,0:0:0:0:
264,188,143713,1,8,0:0:0:0:
264,188,143951,1,0,0:0:0:0:
264,188,144427,1,8,0:0:0:0:
264,188,144903,1,0,0:0:0:0:
264,188,145141,1,0,0:0:0:0:
264,188,145261,1,0,0:0:0:0:
264,188,145380,1,8,0:0:0:0:
264,188,145618,1,8,0:0:0:0:
264,188,145856,1,0,0:0:0:0:
264,188,146332,1,8,0:0:0:0:
264,188,146808,1,4,0:0:0:0:
264,188,147165,1,0,0:0:0:0:
264,188,147522,1,0,0:0:0:0:
264,188,147880,1,0,0:0:0:0:
264,188,148237,1,8,0:0:0:0:
264,188,148713,1,8,0:0:0:0:
264,188,149070,1,0,0:0:0:0:
264,188,149427,1,8,0:0:0:0:
264,188,149784,1,8,0:0:0:0:
264,188,150141,1,0,0:0:0:0:
264,188,150618,1,0,0:0:0:0:
264,188,150975,1,8,0:0:0:0:
264,188,151332,1,0,0:0:0:0:
264,188,151689,1,0,0:0:0:0:
264,188,152046,1,8,0:0:0:0:
264,188,152284,1,0,0:0:0:0:
264,188,152522,1,8,0:0:0:0:
264,188,152761,1,0,0:0:0:0:
264,188,152999,1,8,0:0:0:0:
264,188,153237,1,0,0:0:0:0:
264,188,153475,1,8,0:0:0:0:
264,188,153594,1,8,0:0:0:0:
264,188,153713,1,0,0:0:0:0:
264,188,153832,1,0,0:0:0:0:
264,188,153951,1,8,0:0:0:0:
264,188,154189,1,8,0:0:0:0:
264,188,154427,1,4,0:0:0:0:
264,188,154665,1,8,0:0:0:0:
264,188,154903,1,0,0:0:0:0:
264,188,155380,1,4,0:0:0:0:
264,188,155618,1,8,0:0:0:0:
264,188,155856,1,0,0:0:0:0:
264,188,156332,1,12,0:0:0:0:
264,188,156570,1,0,0:0:0:0:
264,188,156808,1,8,0:0:0:0:
264,188,157284,1,8,0:0:0:0:
264,188,157522,1,0,0:0:0:0:
264,188,157761,1,8,0:0:0:0:
264,188,157999,1,0,0:0:0:0:
264,188,158237,1,8,0:0:0:0:
264,188,158356,1,8,0:0:0:0:
264,188,158475,1,8,0:0:0:0:
264,188,158594,1,8,0:0:0:0:
264,188,158713,1,8,0:0:0:0:
264,188,158832,1,8,0:0:0:0:
264,188,158951,1,8,0:0:0:0:
264,188,159070,1,8,0:0:0:0:
264,188,159189,1,8,0:0:0:0:
264,188,159308,1,8,0:0:0:0:
264,188,159427,1,8,0:0:0:0:
264,188,159546,1,8,0:0:0:0:
264,188,159665,1,8,0:0:0:0:
264,188,159784,1,8,0:0:0:0:
264,188,159903,1,8,0:0:0:0:
264,188,160022,1,8,0:0:0:0:
264,188,160141,1,0,0:0:0:0:
264,188,160618,1,8,0:0:0:0:
264,188,161094,1,8,0:0:0:0:
264,188,161332,1,0,0:0:0:0:
264,188,161570,1,12,0:0:0:0:
264,188,162046,1,4,0:0:0:0:
264,188,162284,1,0,0:0:0:0:
264,188,162522,1,8,0:0:0:0:
264,188,162761,1,0,0:0:0:0:
264,188,162999,1,8,0:0:0:0:
264,188,163237,1,0,0:0:0:0:
264,188,163475,1,8,0:0:0:0:
264,188,163713,1,8,0:0:0:0:
264,188,163951,1,0,0:0:0:0:
264,188,164189,1,8,0:0:0:0:
264,188,164427,1,0,0:0:0:0:
264,188,164665,1,8,0:0:0:0:
264,188,164903,1,0,0:0:0:0:
264,188,165141,1,8,0:0:0:0:
264,188,165261,1,8,0:0:0:0:
264,188,165380,1,0,0:0:0:0:
264,188,165618,1,0,0:0:0:0:
264,188,165856,1,8,0:0:0:0:
264,188,166332,1,0,0:0:0:0:
264,188,166570,1,8,0:0:0:0:
264,188,166808,1,0,0:0:0:0:
264,188,167046,1,0,0:0:0:0:
264,188,167165,1,0,0:0:0:0:
264,188,167284,1,0,0:0:0:0:
264,188,167522,1,8,0:0:0:0:
264,188,167761,1,0,0:0:0:0:
264,188,167999,1,0,0:0:0:0:
264,188,168118,1,8,0:0:0:0:
264,188,168237,1,0,0:0:0:0:
264,188,168475,1,8,0:0:0:0:
264,188,168594,1,0,0:0:0:0:
264,188,168713,1,8,0:0:0:0:
264,188,168951,1,0,0:0:0:0:
264,188,169070,1,0,0:0:0:0:
264,188,169189,1,12,0:0:0:0:
264,188,169665,1,4,0:0:0:0:
264,188,169903,1,0,0:0:0:0:
264,188,170141,1,8,0:0:0:0:
264,188,170261,1,8,0:0:0:0:
264,188,170380,1,0,0:0:0:0:
264,188,170618,1,8,0:0:0:0:
264,188,170856,1,0,0:0:0:0:
264,188,170975,1,0,0:0:0:0:
264,188,171094,1,8,0:0:0:0:
264,188,171332,1,8,0:0:0:0:
264,188,171570,1,0,0:0:0:0:
264,188,172046,1,8,0:0:0:0:
264,188,172284,1,0,0:0:0:0:
264,188,172522,1,0,0:0:0:0:
264,188,172761,1,0,0:0:0:0:
264,188,172999,1,8,0:0:0:0:
264,188,173237,1,8,0:0:0:0:
264,188,173475,1,0,0:0:0:0:
264,188,173832,1,0,0:0:0:0:
264,188,173951,1,8,0:0:0:0:
264,188,174189,1,0,0:0:0:0:
264,188,174427,1,0,0:0:0:0:
264,188,174665,1,8,0:0:0:0:
264,188,174784,1,0,0:0:0:0:
264,188,174903,1,8,0:0:0:0:
264,188,175141,1,0,0:0:0:0:
264,188,175380,1,8,0:0:0:0:
264,188,175618,1,0,0:0:0:0:
264,188,175737,1,0,0:0:0:0:
264,188,175856,1,8,0:0:0:0:
264,188,176094,1,0,0:0:0:0:
264,188,176213,1,0,0:0:0:0:
264,188,176332,1,8,0:0:0:0:
264,188,176570,1,0,0:0:0:0:
264,188,176808,1,12,0:0:0:0:
264,188,177284,1,4,0:0:0:0:
264,188,177761,1,8,0:0:0:0:
264,188,178475,1,0,0:0:0:0:
264,188,178713,1,8,0:0:0:0:
264,188,179189,1,0,0:0:0:0:
264,188,179665,1,8,0:0:0:0:
264,188,179903,1,0,0:0:0:0:
264,188,180141,1,0,0:0:0:0:
264,188,180380,1,0,0:0:0:0:
264,188,180618,1,8,0:0:0:0:
264,188,180856,1,8,0:0:0:0:
264,188,181094,1,0,0:0:0:0:
264,188,181570,1,8,0:0:0:0:
264,188,181808,1,0,0:0:0:0:
264,188,182284,1,0,0:0:0:0:
264,188,182522,1,8,0:0:0:0:
264,188,182761,1,0,0:0:0:0:
264,188,182999,1,8,0:0:0:0:
264,188,183237,1,0,0:0:0:0:
264,188,183475,1,8,0:0:0:0:
264,188,183713,1,0,0:0:0:0:
264,188,183951,1,8,0:0:0:0:
264,188,184070,1,0,0:0:0:0:
264,188,184189,1,0,0:0:0:0:
264,188,184427,1,12,0:0:0:0:
264,188,184903,1,4,0:0:0:0:
264,188,185380,1,8,0:0:0:0:
264,188,185856,1,8,0:0:0:0:
264,188,186094,1,0,0:0:0:0:
264,188,186332,1,8,0:0:0:0:
264,188,186808,1,0,0:0:0:0:
264,188,187046,1,0,0:0:0:0:
264,188,187165,1,0,0:0:0:0:
264,188,187284,1,8,0:0:0:0:
264,188,187522,1,0,0:0:0:0:
264,188,187761,1,8,0:0:0:0:
264,188,187999,1,0,0:0:0:0:
264,188,188237,1,8,0:0:0:0:
264,188,188475,1,8,0:0:0:0:
264,188,188713,1,0,0:0:0:0:
264,188,189189,1,8,0:0:0:0:
264,188,189427,1,0,0:0:0:0:
264,188,189665,1,0,0:0:0:0:
264,188,189903,1,0,0:0:0:0:
264,188,190141,1,8,0:0:0:0:
264,188,190618,1,0,0:0:0:0:
264,188,191570,1,0,0:0:0:0:
264,188,191808,1,0,0:0:0:0:
264,188,192046,1,4,0:0:0:0:
