osu file format v12

[General]
AudioFilename: Gentleman.mp3
AudioLeadIn: 0
PreviewTime: 59189
Countdown: 0
SampleSet: Soft
StackLeniency: 0.7
Mode: 0
LetterboxInBreaks: 0
WidescreenStoryboard: 0

[Editor]
Bookmarks: 89665
DistanceSpacing: 1
BeatDivisor: 4
GridSize: 4

[Metadata]
Title:GENTLEMAN
TitleUnicode:GENTLEMAN
Artist:PSY
ArtistUnicode:PSY
Creator:Lolicakey
Version:Normal
Source:
Tags:kpop single dakedekaane kirino kousaka gero natsu zeroarg collab collaboration k-pop _gezo_
BeatmapID:243488
BeatmapSetID:89593

[Difficulty]
HPDrainRate:4
CircleSize:3
OverallDifficulty:4
ApproachRate:4
SliderMultiplier:1.2
SliderTickRate:1

[Events]
//Background and Video events
0,0,"suggestion1.jpg",0,0
Video,0,"gentlemanv.avi"
//Break Periods
2,46056,52155
2,108913,115012
//Storyboard Layer 0 (Background)
//Storyboard Layer 1 (Fail)
//Storyboard Layer 2 (Pass)
//Storyboard Layer 3 (Foreground)
//Storyboard Sound Samples
//Background Colour Transformations
3,100,163,162,255

[TimingPoints]
142,476.190476190476,4,2,1,70,1,0
45856,-100,4,2,1,70,0,1
46104,-100,4,2,1,70,0,0
61094,-100,4,2,1,70,0,1
76332,-100,4,2,1,70,0,0
108713,-100,4,2,1,70,0,1
108951,-100,4,2,1,70,0,0
123951,-100,4,2,1,70,0,1
131094,-100,4,2,1,70,0,0
131570,-100,4,2,1,70,0,1
139189,-100,4,2,1,70,0,0
139308,-100,4,2,1,70,0,1
139427,-100,4,2,1,70,0,0
162046,-100,4,2,1,70,0,1
177284,-100,4,2,1,70,0,0
192046,-100,4,2,1,5,0,0

[Colours]
Combo1 : 193,193,193
Combo2 : 0,64,128
Combo3 : 112,196,193
Combo4 : 255,83,83

[HitObjects]
360,56,142,2,0,P|396:108|356:188,1,120,0|8,0:0|0:0,0:0:0:0:
272,196,1094,1,0,0:0:0:0:
216,304,1570,2,0,P|276:320|364:268,1,120,8|0,0:0|0:0,0:0:0:0:
420,224,2522,1,8,0:0:0:0:
328,148,2999,6,0,P|280:128|256:56,1,120,0|8,0:0|0:0,0:0:0:0:
144,20,3951,2,0,L|72:140,1,120,0|8,0:0|0:0,0:0:0:0:
116,236,4903,2,0,L|188:116,1,120,0|8,0:0|0:0,0:0:0:0:
256,40,5856,5,0,0:0:0:0:
336,128,6332,1,8,0:0:0:0:
392,236,6808,2,0,P|332:252|278:234,1,120,0|4,0:0|0:0,0:0:0:0:
172,180,7761,5,0,0:0:0:0:
172,180,8237,2,0,P|204:116|172:36,1,120,8|0,0:0|0:0,0:0:0:0:
80,36,9189,1,8,0:0:0:0:
36,148,9665,6,0,L|104:252,1,120,0|8,0:0|0:0,0:0:0:0:
220,232,10618,2,0,L|152:128,1,120,0|8,0:0|0:0,0:0:0:0:
256,72,11570,5,0,0:0:0:0:
348,148,12046,2,0,P|392:212|397:252,1,120,8|0,0:0|0:0,0:0:0:0:
296,316,12999,1,8,0:0:0:0:
252,204,13475,6,0,P|200:240|184:304,2,120,0|0|0,0:0|0:0|0:0,0:0:0:0:
208,92,14903,1,8,0:0:0:0:
324,116,15380,1,4,0:0:0:0:
324,116,15856,6,0,P|392:116|468:176,1,120,8|0,0:0|0:0,0:0:0:0:
352,224,16808,2,0,P|288:224|208:164,1,120,8|0,0:0|0:0,0:0:0:0:
120,216,17761,1,8,0:0:0:0:
124,96,18237,2,0,L|208:8,2,120,0|8|0,0:0|0:0|0:0,0:0:0:0:
216,176,19665,5,8,0:0:0:0:
324,124,20141,2,0,P|336:188|304:252,1,120,0|8,0:0|0:0,0:0:0:0:
216,176,21094,1,0,0:0:0:0:
140,84,21570,1,8,0:0:0:0:
216,176,22046,2,0,P|164:200|132:276,2,120,0|0|4,0:0|0:0|0:0,0:0:0:0:
324,228,23475,6,0,P|340:168|308:92,2,120,8|0|8,0:0|0:0|0:0,0:0:0:0:
268,336,24903,1,0,0:0:0:0:
148,320,25380,2,0,L|200:188,1,120,8|0,0:0|0:0,0:0:0:0:
312,224,26332,2,0,L|260:356,1,120,8|0,0:0|0:0,0:0:0:0:
148,316,27284,1,8,0:0:0:0:
148,196,27761,6,0,P|104:156|88:144,2,60,0|0|8,0:0|0:0|0:0,0:0:0:0:
256,144,28713,2,0,P|312:128|400:172,1,120,0|8,0:0|0:0,0:0:0:0:
460,224,29665,2,0,P|412:256|336:256,1,120,0|8,0:0|3:0,0:0:0:0:
256,336,30618,6,0,B|240:312|240:312|204:292|204:292|180:248,1,120,4|8,0:0|0:0,0:0:0:0:
148,132,31570,1,0,0:0:0:0:
180,248,32046,1,8,0:0:0:0:
280,316,32522,2,0,P|300:260|280:184,1,120,0|8,0:0|0:0,0:0:0:0:
172,184,33475,2,0,P|144:244|172:324,1,120,0|8,0:0|0:0,0:0:0:0:
264,256,34427,1,0,0:0:0:0:
348,344,34903,5,8,0:0:0:0:
384,228,35380,2,0,P|416:192|416:96,1,120,0|8,0:0|0:0,0:0:0:0:
336,40,36332,2,0,L|223:81,1,120,0|8,0:0|0:0,0:0:0:0:
224,200,37284,1,0,0:0:0:0:
120,136,37761,2,0,B|80:156|80:156|52:188|52:188|-28:220,1,120,8|4,0:0|0:0,0:0:0:0:
64,312,38713,6,0,P|124:352|180:352,1,120,8|0,0:0|0:0,0:0:0:0:
152,236,39665,1,8,0:0:0:0:
148,116,40141,2,0,P|212:128|256:208,1,120,0|8,0:0|0:0,0:0:0:0:
336,248,41094,2,0,B|344:279|344:279|328:327|328:327|336:363,2,120,0|8|0,0:0|0:0|0:0,0:0:0:0:
216,252,42522,5,8,0:0:0:0:
276,148,42999,2,0,P|336:131|415:173,1,120,0|8,0:0|0:0,0:0:0:0:
328,251,43951,2,0,P|236:291|184:287,1,120,0|8,0:0|0:0,0:0:0:0:
104,329,44903,1,0,0:0:0:0:
50,221,45380,1,4,3:0:0:0:
131,132,45856,5,4,0:0:0:0:
256,192,53475,12,0,58713,0:0:0:0:
196,72,60618,5,8,0:0:0:0:
196,72,61094,6,0,B|164:128|164:128|76:144,1,120,4|8,0:0|0:0,0:0:0:0:
34,232,62046,1,0,0:0:0:0:
148,268,62522,1,8,0:0:0:0:
249,332,62999,2,0,P|267:265|247:193,1,120,0|8,0:0|0:0,0:0:0:0:
166,138,63951,2,0,L|78:154,2,60,0|0|8,0:0|0:0|0:0,0:0:0:0:
267,73,64903,6,0,P|319:113|399:93,1,120,0|8,0:0|0:0,0:0:0:0:
456,195,65856,1,0,0:0:0:0:
362,269,66332,1,8,0:0:0:0:
290,173,66808,2,0,P|250:225|250:305,2,120,0|8|0,0:0|0:0|0:0,0:0:0:0:
345,66,68237,1,8,3:0:0:0:
229,99,68713,6,0,P|165:131|97:123,1,120,4|8,0:0|0:0,0:0:0:0:
41,37,69665,1,0,0:0:0:0:
38,156,70141,2,0,L|38:288,1,120,8|0,0:0|0:0,0:0:0:0:
153,310,71094,2,0,P|221:282|245:238,2,120,8|0|8,0:0|0:0|0:0,0:0:0:0:
139,190,72522,5,0,0:0:0:0:
243,130,72999,1,8,0:0:0:0:
348,187,73475,2,0,P|348:255|300:315,1,120,0|8,0:0|0:0,0:0:0:0:
205,327,74427,5,0,0:0:0:0:
86,344,74903,1,8,0:0:0:0:
123,229,75380,2,0,P|139:169|111:81,1,120,0|8,0:0|0:0,0:0:0:0:
233,53,76332,1,0,0:0:0:0:
444,260,78237,6,0,P|372:260|328:328,1,120,4|8,0:0|0:0,0:0:0:0:
256,208,79189,1,0,0:0:0:0:
168,292,79665,2,0,P|139:263|63:263,2,120,8|0|8,0:0|0:0|0:0,0:0:0:0:
288,312,81094,1,0,0:0:0:0:
400,268,81570,1,8,0:0:0:0:
384,148,82046,6,0,P|420:96|420:24,2,120,0|8|0,0:0|0:0|0:0,0:0:0:0:
268,124,83475,2,0,P|216:88|144:88,1,120,8|0,0:0|0:0,0:0:0:0:
52,132,84427,1,8,0:0:0:0:
128,224,84903,2,0,P|200:244|256:192,2,120,0|0|4,0:0|0:0|0:0,0:0:0:0:
180,116,86332,5,0,0:0:0:0:
296,144,86808,2,0,P|326:193|301:293,2,120,0|8|0,0:0|0:0|0:0,0:0:0:0:
384,64,88237,1,8,0:0:0:0:
447,166,88713,2,0,B|463:214|441:256|441:256|454:281,1,120,0|8,0:0|0:0,0:0:0:0:
350,341,89665,1,0,0:0:0:0:
239,294,90141,6,0,P|183:254|159:154,1,120,8|0,0:0|0:0,0:0:0:0:
149,89,91094,1,8,0:0:0:0:
268,94,91570,2,0,B|328:88|328:88|396:105,1,120,0|8,0:0|0:0,0:0:0:0:
446,205,92522,2,0,L|446:281,2,60,0|0|8,0:0|0:0|3:0,0:0:0:0:
325,205,93475,6,0,L|182:210,1,120,4|8,0:0|0:0,0:0:0:0:
105,276,94427,5,0,0:0:0:0:
105,276,94903,1,8,0:0:0:0:
68,163,95380,1,0,0:0:0:0:
143,69,95856,2,0,P|202:88|265:69,1,120,8|0,0:0|0:0,0:0:0:0:
372,103,96808,2,0,P|416:163|318:293,1,240,0|8,0:0|0:0,0:0:0:0:
222,306,98237,5,0,0:0:0:0:
125,234,98713,2,0,P|73:187|65:136,2,120,8|0|8,0:0|0:0|0:0,0:0:0:0:
180,127,100141,1,0,0:0:0:0:
299,119,100618,1,8,0:0:0:0:
380,206,101094,2,0,P|369:276|320:324,2,120,4|8|0,0:0|0:0|0:0,0:0:0:0:
261,221,102522,6,0,B|187:236|130:202|130:202|28:278,1,240,8|8,0:0|0:0,0:0:0:0:
141,338,103951,2,0,L|279:338,1,120,0|8,0:0|0:0,0:0:0:0:
378,314,104903,1,0,0:0:0:0:
389,194,105380,2,0,P|337:81|208:66,1,240,8|8,0:0|0:0,0:0:0:0:
129,119,106808,6,0,L|67:201,2,60,0|0|8,0:0|0:0|0:0,0:0:0:0:
217,200,107761,1,0,0:0:0:0:
217,200,108237,2,0,L|382:174,1,120,8|4,3:0|0:0,0:0:0:0:
256,192,116332,12,0,121570,0:0:0:0:
100,118,123475,5,8,0:0:0:0:
100,118,123951,6,0,L|112:260,1,120,4|8,0:0|0:0,0:0:0:0:
193,324,124903,1,0,0:0:0:0:
311,305,125380,1,8,0:0:0:0:
391,215,125856,2,0,L|412:134,2,60,0|0|8,0:0|0:0|0:0,0:0:0:0:
272,195,126808,2,0,L|296:114,2,60,0|0|8,0:0|0:0|0:0,0:0:0:0:
179,271,127761,5,0,0:0:0:0:
78,205,128237,2,0,P|47:151|56:74,2,120,8|0|8,0:0|0:0|0:0,0:0:0:0:
163,120,129665,1,0,0:0:0:0:
282,122,130141,2,0,L|416:133,2,120,8|0|8,0:0|0:0|3:0,0:0:0:0:
213,220,131570,5,4,0:0:0:0:
332,214,132046,2,0,P|292:121|154:109,1,240,8|8,0:0|0:0,0:0:0:0:
65,169,133475,2,0,B|79:219|79:219|69:246|69:246|70:293,2,120,0|8|0,0:0|0:0|0:0,0:0:0:0:
108,57,134903,2,0,L|59:23,2,60,8|0|0,0:0|0:0|0:0,0:0:0:0:
225,84,135856,6,0,B|279:140|346:94|346:94|457:123,1,240,8|8,0:0|0:0,0:0:0:0:
409,234,137284,2,0,P|387:258|337:280,2,60,0|0|8,0:0|0:0|0:0,0:0:0:0:
449,120,138237,1,0,0:0:0:0:
329,107,138713,2,0,L|228:181,1,120,8|4,3:0|0:0,0:0:0:0:
147,263,139665,5,0,0:0:0:0:
144,143,140141,2,0,P|195:63|340:22,1,240
445,44,141570,1,0,0:0:0:0:
409,158,142046,2,0,B|346:215|346:215|333:282|333:282|251:331,1,240
144,309,143475,5,0,0:0:0:0:
65,218,143951,2,0,B|69:153|141:150|141:150|183:90|267:127,1,240
372,107,145380,1,0,0:0:0:0:
424,214,145856,2,0,P|395:299|252:346,1,240,0|4,0:0|0:0,0:0:0:0:
146,320,147284,5,0,0:0:0:0:
34,274,147761,2,0,B|99:257|113:175|113:175|222:139,1,240
316,81,149189,1,0,0:0:0:0:
401,164,149665,2,0,B|301:196|301:196|287:278|222:295,1,240
101,294,151094,5,0,0:0:0:0:
60,181,151570,2,0,B|76:132|29:102|29:102|187:77,1,240
294,73,152999,1,0,0:0:0:0:
400,128,153475,2,0,L|326:244,1,120
454,213,154427,6,0,L|380:329,1,120,4|0,0:0|0:0,0:0:0:0:
281,366,155380,1,4,0:0:0:0:
177,305,155856,5,0,0:0:0:0:
178,304,156332,1,4,0:0:0:0:
186,184,156808,6,0,L|306:125,2,120
256,192,158237,12,0,159665,0:0:0:0:
91,193,161570,5,8,0:0:0:0:
91,193,162046,6,0,L|220:193,1,120,4|8,0:0|0:0,0:0:0:0:
312,260,162999,1,0,0:0:0:0:
392,172,163475,1,8,0:0:0:0:
296,100,163951,2,0,P|348:60|400:52,2,120,0|8|0,0:0|0:0|0:0,0:0:0:0:
256,212,165380,1,8,0:0:0:0:
144,252,165856,5,0,0:0:0:0:
256,212,166332,2,0,L|160:120,2,120,8|0|8,0:0|0:0|0:0,0:0:0:0:
336,300,167761,2,0,P|388:304|460:296,2,120,0|8|0,0:0|0:0|0:0,0:0:0:0:
216,320,169189,1,8,3:0:0:0:
144,224,169665,6,0,P|128:160|156:108,1,120,4|8,0:0|0:0,0:0:0:0:
256,56,170618,1,0,0:0:0:0:
376,60,171094,1,8,0:0:0:0:
472,132,171570,2,0,L|472:280,1,120,0|8,0:0|0:0,0:0:0:0:
384,336,172522,1,0,0:0:0:0:
276,284,172999,6,0,P|266:218|276:164,1,120,8|0,0:0|0:0,0:0:0:0:
300,48,173951,2,0,P|180:80|124:176,1,240,8|8,0:0|0:0,0:0:0:0:
96,292,175380,1,0,0:0:0:0:
216,312,175856,1,8,0:0:0:0:
216,312,176332,2,0,L|336:304,1,120,0|8,0:0|3:0,0:0:0:0:
424,220,177284,6,0,P|364:168|328:88,1,120,0|8,0:0|0:0,0:0:0:0:
260,48,178237,1,0,0:0:0:0:
148,92,178713,1,8,0:0:0:0:
68,180,179189,2,0,L|68:248,2,60,0|0|8,0:0|0:0|0:0,0:0:0:0:
148,92,180141,1,0,0:0:0:0:
260,48,180618,1,8,0:0:0:0:
352,124,181094,6,0,P|384:124|416:132,2,60,0|0|8,0:0|0:0|0:0,0:0:0:0:
296,232,182046,2,0,P|224:284|160:276,1,120,0|8,0:0|0:0,0:0:0:0:
124,192,182999,2,0,B|88:168|88:168|72:140|72:140|32:108,2,120,0|8|0,0:0|0:0|0:0,0:0:0:0:
84,304,184427,1,8,3:0:0:0:
204,320,184903,5,4,0:0:0:0:
320,288,185380,2,0,P|336:208|320:148,2,120,8|0|8,0:0|0:0|0:0,0:0:0:0:
216,232,186808,1,0,0:0:0:0:
112,172,187284,1,8,0:0:0:0:
64,60,187761,2,0,L|192:72,1,120,0|8,0:0|0:0,0:0:0:0:
300,100,188713,6,0,B|332:68|388:124|416:84,2,120,0|8|0,0:0|0:0|0:0,0:0:0:0:
212,184,190141,1,8,0:0:0:0:
256,192,190618,12,0,192046,0:0:0:0:
