osu file format v12

[General]
AudioFilename: Gentleman.mp3
AudioLeadIn: 1996
PreviewTime: 59189
Countdown: 0
SampleSet: Normal
StackLeniency: 0.7
Mode: 1
LetterboxInBreaks: 0
WidescreenStoryboard: 0

[Editor]
DistanceSpacing: 0.5
BeatDivisor: 1
GridSize: 4

[Metadata]
Title:GENTLEMAN
TitleUnicode:GENTLEMAN
Artist:PSY
ArtistUnicode:PSY
Creator:Lolicakey
Version:Geshutsuu
Source:
Tags:kpop single dakedekaane kirino kousaka gero natsu zeroarg collab collaboration k-pop _gezo_
BeatmapID:290931
BeatmapSetID:89593

[Difficulty]
HPDrainRate:4
CircleSize:5
OverallDifficulty:4
ApproachRate:5
SliderMultiplier:1.4
SliderTickRate:1

[Events]
//Background and Video events
0,0,"suggestion1.jpg",0,0
Video,0,"gentlemanv.avi"
//Break Periods
//Storyboard Layer 0 (Background)
//Storyboard Layer 1 (Fail)
//Storyboard Layer 2 (Pass)
//Storyboard Layer 3 (Foreground)
//Storyboard Sound Samples
//Background Colour Transformations
3,100,163,162,255

[TimingPoints]
142,476.190476190476,4,1,1,70,1,0
61094,-100,4,1,1,70,0,1
76332,-100,4,1,1,70,0,0
123951,-100,4,1,1,70,0,1
139189,-100,4,1,1,70,0,0
162046,-100,4,1,1,70,0,1
177284,-100,4,1,1,70,0,0

[Colours]
Combo1 : 112,196,193
Combo2 : 0,64,128

[HitObjects]
176,192,7284,1,12,0:0:0:0:
176,192,7761,1,0,0:0:0:0:
176,192,8237,1,8,0:0:0:0:
176,192,9189,1,8,0:0:0:0:
176,192,9665,1,0,0:0:0:0:
176,192,10141,1,8,0:0:0:0:
176,192,10856,1,0,0:0:0:0:
176,192,11094,1,8,0:0:0:0:
176,192,11570,1,0,0:0:0:0:
176,192,12046,1,8,0:0:0:0:
176,192,12761,1,0,0:0:0:0:
176,192,12999,1,8,0:0:0:0:
176,192,13475,1,0,0:0:0:0:
176,192,14903,1,12,0:0:0:0:
176,192,15380,1,4,0:0:0:0:
176,192,15856,1,8,0:0:0:0:
176,192,16570,1,0,0:0:0:0:
176,192,16808,1,8,0:0:0:0:
176,192,17284,1,0,0:0:0:0:
176,192,17761,1,8,0:0:0:0:
176,192,17999,1,0,0:0:0:0:
176,192,18713,1,8,0:0:0:0:
176,192,19189,1,0,0:0:0:0:
176,192,19665,1,8,0:0:0:0:
176,192,19903,1,0,0:0:0:0:
176,192,20618,1,8,0:0:0:0:
176,192,21094,1,0,0:0:0:0:
176,192,21570,1,8,0:0:0:0:
176,192,21808,1,0,0:0:0:0:
176,192,22284,1,0,0:0:0:0:
176,192,22522,1,8,0:0:0:0:
176,192,22999,1,4,0:0:0:0:
176,192,23475,1,8,0:0:0:0:
176,192,23951,1,0,0:0:0:0:
176,192,24189,1,0,0:0:0:0:
176,192,24427,1,8,0:0:0:0:
176,192,24903,1,0,0:0:0:0:
176,192,25380,1,8,0:0:0:0:
176,192,25856,1,0,0:0:0:0:
176,192,26094,1,0,0:0:0:0:
176,192,26332,1,8,0:0:0:0:
176,192,26808,1,0,0:0:0:0:
176,192,27284,1,8,0:0:0:0:
176,192,27761,1,0,0:0:0:0:
176,192,28237,1,8,0:0:0:0:
176,192,28713,1,0,0:0:0:0:
176,192,29189,1,8,0:0:0:0:
176,192,29665,1,0,0:0:0:0:
176,192,30141,1,12,0:0:0:0:
176,192,30618,1,4,0:0:0:0:
176,192,31094,1,8,0:0:0:0:
176,192,31570,1,0,0:0:0:0:
176,192,31808,1,0,0:0:0:0:
176,192,32046,1,8,0:0:0:0:
176,192,32522,1,0,0:0:0:0:
176,192,32999,1,8,0:0:0:0:
176,192,33713,1,0,0:0:0:0:
176,192,33951,1,8,0:0:0:0:
176,192,34427,1,0,0:0:0:0:
176,192,34903,1,8,0:0:0:0:
176,192,35141,1,0,0:0:0:0:
176,192,35856,1,8,0:0:0:0:
176,192,36332,1,0,0:0:0:0:
176,192,36808,1,8,0:0:0:0:
176,192,37284,1,0,0:0:0:0:
176,192,37522,1,0,0:0:0:0:
176,192,37761,1,8,0:0:0:0:
176,192,38237,1,4,0:0:0:0:
176,192,38713,1,8,0:0:0:0:
176,192,38951,1,0,0:0:0:0:
176,192,39665,1,8,0:0:0:0:
176,192,40141,1,0,0:0:0:0:
176,192,40618,1,8,0:0:0:0:
176,192,41332,1,0,0:0:0:0:
176,192,41570,1,8,0:0:0:0:
176,192,42046,1,0,0:0:0:0:
176,192,42522,1,8,0:0:0:0:
176,192,42761,1,0,0:0:0:0:
176,192,43475,1,8,0:0:0:0:
176,192,43951,1,0,0:0:0:0:
176,192,44189,1,0,0:0:0:0:
176,192,44427,1,0,0:0:0:0:
176,192,44903,1,8,0:0:0:0:
176,192,45141,1,8,0:0:0:0:
176,192,45380,1,12,0:0:0:0:
176,192,45856,1,4,0:0:0:0:
176,192,46332,1,0,0:0:0:0:
176,192,46808,1,0,0:0:0:0:
176,192,47284,1,0,0:0:0:0:
176,192,47761,1,0,0:0:0:0:
176,192,48237,1,0,0:0:0:0:
176,192,48713,1,0,0:0:0:0:
176,192,49189,1,0,0:0:0:0:
176,192,49665,1,12,0:0:0:0:
176,192,50141,1,8,0:0:0:0:
176,192,50618,1,8,0:0:0:0:
176,192,51094,1,8,0:0:0:0:
176,192,51570,1,8,0:0:0:0:
176,192,52046,1,8,0:0:0:0:
176,192,52522,1,8,0:0:0:0:
176,192,52999,1,8,0:0:0:0:
176,192,53475,1,4,0:0:0:0:
176,192,53951,1,8,0:0:0:0:
176,192,54665,1,0,0:0:0:0:
176,192,54903,1,8,0:0:0:0:
176,192,55380,1,0,0:0:0:0:
176,192,56094,1,0,0:0:0:0:
176,192,56570,1,8,0:0:0:0:
176,192,56808,1,8,0:0:0:0:
176,192,57284,1,0,0:0:0:0:
176,192,57761,1,0,0:0:0:0:
176,192,58237,1,0,0:0:0:0:
176,192,58713,1,0,0:0:0:0:
176,192,59189,1,8,0:0:0:0:
176,192,60618,1,12,0:0:0:0:
176,192,61094,1,4,0:0:0:0:
176,192,61570,1,8,0:0:0:0:
176,192,62284,1,8,0:0:0:0:
176,192,62522,1,8,0:0:0:0:
176,192,62999,1,0,0:0:0:0:
176,192,63475,1,8,0:0:0:0:
176,192,64189,1,8,0:0:0:0:
176,192,64427,1,8,0:0:0:0:
176,192,64903,1,0,0:0:0:0:
176,192,65380,1,8,0:0:0:0:
176,192,66094,1,8,0:0:0:0:
176,192,66332,1,8,0:0:0:0:
176,192,66808,1,0,0:0:0:0:
176,192,67284,1,8,0:0:0:0:
176,192,67761,1,0,0:0:0:0:
176,192,67999,1,0,0:0:0:0:
176,192,68237,1,12,0:0:0:0:
176,192,68713,1,4,0:0:0:0:
176,192,69189,1,8,0:0:0:0:
176,192,69903,1,8,0:0:0:0:
176,192,70141,1,8,0:0:0:0:
176,192,70618,1,0,0:0:0:0:
176,192,71094,1,8,0:0:0:0:
176,192,71808,1,8,0:0:0:0:
176,192,72046,1,8,0:0:0:0:
176,192,72522,1,0,0:0:0:0:
176,192,72999,1,8,0:0:0:0:
176,192,73237,1,0,0:0:0:0:
176,192,73713,1,8,0:0:0:0:
176,192,73951,1,8,0:0:0:0:
176,192,74427,1,0,0:0:0:0:
176,192,74903,1,8,0:0:0:0:
176,192,75380,1,0,0:0:0:0:
176,192,75618,1,0,0:0:0:0:
176,192,75856,1,12,0:0:0:0:
176,192,76332,1,4,0:0:0:0:
176,192,78237,1,4,0:0:0:0:
176,192,78713,1,8,0:0:0:0:
176,192,79189,1,8,0:0:0:0:
176,192,79427,1,0,0:0:0:0:
176,192,79665,1,8,0:0:0:0:
176,192,80141,1,0,0:0:0:0:
176,192,80618,1,8,0:0:0:0:
176,192,81332,1,0,0:0:0:0:
176,192,81570,1,8,0:0:0:0:
176,192,82046,1,0,0:0:0:0:
176,192,82522,1,8,0:0:0:0:
176,192,82761,1,0,0:0:0:0:
176,192,82999,1,8,0:0:0:0:
176,192,83475,1,0,0:0:0:0:
176,192,83713,1,8,0:0:0:0:
176,192,83951,1,0,0:0:0:0:
176,192,84427,1,8,0:0:0:0:
176,192,84903,1,0,0:0:0:0:
176,192,85380,1,8,0:0:0:0:
176,192,85856,1,4,0:0:0:0:
176,192,86332,1,8,0:0:0:0:
176,192,86808,1,0,0:0:0:0:
176,192,87046,1,0,0:0:0:0:
176,192,87284,1,8,0:0:0:0:
176,192,87761,1,0,0:0:0:0:
176,192,88237,1,8,0:0:0:0:
176,192,88475,1,0,0:0:0:0:
176,192,88951,1,0,0:0:0:0:
176,192,89189,1,8,0:0:0:0:
176,192,89665,1,0,0:0:0:0:
176,192,90141,1,8,0:0:0:0:
176,192,90856,1,0,0:0:0:0:
176,192,91094,1,8,0:0:0:0:
176,192,91570,1,0,0:0:0:0:
176,192,92046,1,8,0:0:0:0:
176,192,92522,1,8,0:0:0:0:
176,192,92761,1,0,0:0:0:0:
176,192,92999,1,12,0:0:0:0:
176,192,93475,1,4,0:0:0:0:
176,192,93951,1,8,0:0:0:0:
176,192,94427,1,0,0:0:0:0:
176,192,94665,1,8,0:0:0:0:
176,192,94903,1,8,0:0:0:0:
176,192,95380,1,0,0:0:0:0:
176,192,95856,1,8,0:0:0:0:
176,192,96570,1,0,0:0:0:0:
176,192,96808,1,8,0:0:0:0:
176,192,97284,1,0,0:0:0:0:
176,192,97761,1,8,0:0:0:0:
176,192,97999,1,0,0:0:0:0:
176,192,98475,1,8,0:0:0:0:
176,192,98713,1,8,0:0:0:0:
176,192,99189,1,0,0:0:0:0:
176,192,99665,1,8,0:0:0:0:
176,192,100141,1,0,0:0:0:0:
176,192,100380,1,0,0:0:0:0:
176,192,100618,1,8,0:0:0:0:
176,192,101094,1,4,0:0:0:0:
176,192,101570,1,8,0:0:0:0:
176,192,102284,1,8,0:0:0:0:
176,192,102522,1,8,0:0:0:0:
176,192,102999,1,0,0:0:0:0:
176,192,103475,1,8,0:0:0:0:
176,192,104189,1,0,0:0:0:0:
176,192,104427,1,8,0:0:0:0:
176,192,104903,1,0,0:0:0:0:
176,192,105380,1,8,0:0:0:0:
176,192,105618,1,8,0:0:0:0:
176,192,106094,1,0,0:0:0:0:
176,192,106332,1,8,0:0:0:0:
176,192,106808,1,0,0:0:0:0:
176,192,107284,1,8,0:0:0:0:
176,192,107999,1,0,0:0:0:0:
176,192,108237,1,12,0:0:0:0:
176,192,108713,1,4,0:0:0:0:
176,192,109189,1,8,0:0:0:0:
176,192,109665,1,8,0:0:0:0:
176,192,110141,1,8,0:0:0:0:
176,192,111094,1,8,0:0:0:0:
176,192,111570,1,8,0:0:0:0:
176,192,112046,1,8,0:0:0:0:
176,192,112522,1,4,0:0:0:0:
176,192,112999,1,8,0:0:0:0:
176,192,113475,1,8,0:0:0:0:
176,192,113951,1,8,0:0:0:0:
176,192,114903,1,8,0:0:0:0:
176,192,115380,1,8,0:0:0:0:
176,192,115856,1,8,0:0:0:0:
176,192,116332,1,4,0:0:0:0:
176,192,117046,1,0,0:0:0:0:
176,192,117522,1,0,0:0:0:0:
176,192,117761,1,8,0:0:0:0:
176,192,118237,1,0,0:0:0:0:
176,192,118951,1,8,0:0:0:0:
176,192,119427,1,8,0:0:0:0:
176,192,119665,1,8,0:0:0:0:
176,192,120141,1,0,0:0:0:0:
176,192,120618,1,8,0:0:0:0:
176,192,121332,1,0,0:0:0:0:
176,192,121570,1,8,0:0:0:0:
176,192,122046,1,0,0:0:0:0:
176,192,123475,1,12,0:0:0:0:
176,192,123951,1,4,0:0:0:0:
176,192,124427,1,8,0:0:0:0:
176,192,124903,1,0,0:0:0:0:
176,192,125141,1,0,0:0:0:0:
176,192,125380,1,8,0:0:0:0:
176,192,125856,1,0,0:0:0:0:
176,192,126332,1,8,0:0:0:0:
176,192,126808,1,0,0:0:0:0:
176,192,127046,1,8,0:0:0:0:
176,192,127284,1,8,0:0:0:0:
176,192,127761,1,0,0:0:0:0:
176,192,128237,1,8,0:0:0:0:
176,192,128475,1,0,0:0:0:0:
176,192,129189,1,8,0:0:0:0:
176,192,129665,1,0,0:0:0:0:
176,192,130141,1,0,0:0:0:0:
176,192,130618,1,8,0:0:0:0:
176,192,131094,1,12,0:0:0:0:
176,192,131570,1,4,0:0:0:0:
176,192,132046,1,8,0:0:0:0:
176,192,132761,1,0,0:0:0:0:
176,192,132999,1,8,0:0:0:0:
176,192,133475,1,0,0:0:0:0:
176,192,133951,1,8,0:0:0:0:
176,192,134189,1,8,0:0:0:0:
176,192,134665,1,0,0:0:0:0:
176,192,134903,1,8,0:0:0:0:
176,192,135380,1,0,0:0:0:0:
176,192,135856,1,8,0:0:0:0:
176,192,136570,1,0,0:0:0:0:
176,192,136808,1,8,0:0:0:0:
176,192,137284,1,0,0:0:0:0:
176,192,137761,1,0,0:0:0:0:
176,192,138237,1,8,0:0:0:0:
176,192,138475,1,8,0:0:0:0:
176,192,138713,1,12,0:0:0:0:
176,192,139189,1,4,0:0:0:0:
176,192,139665,1,8,0:0:0:0:
176,192,140618,1,8,0:0:0:0:
176,192,141094,1,0,0:0:0:0:
176,192,141570,1,8,0:0:0:0:
176,192,142522,1,8,0:0:0:0:
176,192,142999,1,8,0:0:0:0:
176,192,143475,1,8,0:0:0:0:
176,192,144189,1,0,0:0:0:0:
176,192,144427,1,8,0:0:0:0:
176,192,144903,1,0,0:0:0:0:
176,192,145380,1,8,0:0:0:0:
176,192,146094,1,8,0:0:0:0:
176,192,146332,1,8,0:0:0:0:
176,192,146808,1,0,0:0:0:0:
176,192,147522,1,0,0:0:0:0:
176,192,147999,1,8,0:0:0:0:
176,192,148237,1,8,0:0:0:0:
176,192,148713,1,0,0:0:0:0:
176,192,149427,1,0,0:0:0:0:
176,192,149903,1,0,0:0:0:0:
176,192,150141,1,8,0:0:0:0:
176,192,150618,1,8,0:0:0:0:
176,192,151332,1,8,0:0:0:0:
176,192,151808,1,0,0:0:0:0:
176,192,152046,1,0,0:0:0:0:
176,192,152522,1,8,0:0:0:0:
176,192,153237,1,8,0:0:0:0:
176,192,153713,1,0,0:0:0:0:
176,192,153951,1,8,0:0:0:0:
176,192,154427,1,4,0:0:0:0:
176,192,155141,1,8,0:0:0:0:
176,192,155380,1,4,0:0:0:0:
176,192,155856,1,0,0:0:0:0:
176,192,156332,1,4,0:0:0:0:
176,192,156570,1,8,0:0:0:0:
176,192,156808,1,0,0:0:0:0:
176,192,157284,1,0,0:0:0:0:
176,192,157761,1,0,0:0:0:0:
176,192,158237,1,8,0:0:0:0:
176,192,158475,1,8,0:0:0:0:
176,192,158713,1,8,0:0:0:0:
176,192,159189,1,8,0:0:0:0:
176,192,159427,1,8,0:0:0:0:
176,192,159665,1,8,0:0:0:0:
176,192,160141,1,8,0:0:0:0:
176,192,161094,1,0,0:0:0:0:
176,192,161332,1,0,0:0:0:0:
176,192,161570,1,12,0:0:0:0:
176,192,162046,1,4,0:0:0:0:
176,192,162522,1,0,0:0:0:0:
176,192,162999,1,8,0:0:0:0:
176,192,163237,1,8,0:0:0:0:
176,192,163475,1,8,0:0:0:0:
176,192,163951,1,0,0:0:0:0:
176,192,164427,1,8,0:0:0:0:
176,192,165141,1,0,0:0:0:0:
176,192,165380,1,8,0:0:0:0:
176,192,165856,1,0,0:0:0:0:
176,192,166332,1,8,0:0:0:0:
176,192,167046,1,8,0:0:0:0:
176,192,167284,1,8,0:0:0:0:
176,192,167761,1,0,0:0:0:0:
176,192,168237,1,0,0:0:0:0:
176,192,168713,1,8,0:0:0:0:
176,192,169189,1,12,0:0:0:0:
176,192,169665,1,4,0:0:0:0:
176,192,170141,1,8,0:0:0:0:
176,192,170856,1,0,0:0:0:0:
176,192,171094,1,8,0:0:0:0:
176,192,171570,1,0,0:0:0:0:
176,192,172046,1,8,0:0:0:0:
176,192,172284,1,8,0:0:0:0:
176,192,172761,1,0,0:0:0:0:
176,192,172999,1,8,0:0:0:0:
176,192,173475,1,0,0:0:0:0:
176,192,173951,1,8,0:0:0:0:
176,192,174665,1,0,0:0:0:0:
176,192,174903,1,8,0:0:0:0:
176,192,175380,1,0,0:0:0:0:
176,192,175856,1,8,0:0:0:0:
176,192,176332,1,8,0:0:0:0:
176,192,176570,1,0,0:0:0:0:
176,192,176808,1,12,0:0:0:0:
176,192,177284,1,4,0:0:0:0:
176,192,178237,1,0,0:0:0:0:
176,192,178475,1,0,0:0:0:0:
176,192,178713,1,8,0:0:0:0:
176,192,179189,1,0,0:0:0:0:
176,192,180141,1,8,0:0:0:0:
176,192,180380,1,8,0:0:0:0:
176,192,180618,1,0,0:0:0:0:
176,192,181094,1,0,0:0:0:0:
176,192,182046,1,0,0:0:0:0:
176,192,182284,1,0,0:0:0:0:
176,192,182522,1,8,0:0:0:0:
176,192,182999,1,8,0:0:0:0:
176,192,183951,1,8,0:0:0:0:
176,192,184189,1,0,0:0:0:0:
176,192,184427,1,12,0:0:0:0:
176,192,184903,1,4,0:0:0:0:
176,192,185380,1,8,0:0:0:0:
176,192,186094,1,8,0:0:0:0:
176,192,186332,1,0,0:0:0:0:
176,192,186570,1,8,0:0:0:0:
176,192,186808,1,0,0:0:0:0:
176,192,187284,1,8,0:0:0:0:
176,192,187999,1,0,0:0:0:0:
176,192,188237,1,8,0:0:0:0:
176,192,188475,1,8,0:0:0:0:
176,192,188713,1,0,0:0:0:0:
176,192,189189,1,8,0:0:0:0:
176,192,189903,1,8,0:0:0:0:
176,192,190141,1,0,0:0:0:0:
176,192,190380,1,8,0:0:0:0:
176,192,190618,1,0,0:0:0:0:
176,192,192046,1,4,0:0:0:0:
