osu file format v12

[General]
AudioFilename: Gentleman.mp3
AudioLeadIn: 1996
PreviewTime: 59189
Countdown: 0
SampleSet: Soft
StackLeniency: 0.7
Mode: 0
LetterboxInBreaks: 0
WidescreenStoryboard: 0

[Editor]
Bookmarks: 142,15380,30618,35765,45856,61094,76332,93475,108713,123951,139189,140141,142046,162046,177284,192046
DistanceSpacing: 1
BeatDivisor: 4
GridSize: 4

[Metadata]
Title:GENTLEMAN
TitleUnicode:GENTLEMAN
Artist:PSY
ArtistUnicode:PSY
Creator:Lolicakey
Version:Collab
Source:
Tags:kpop single dakedekaane kirino kousaka gero natsu zeroarg collab collaboration k-pop _gezo_
BeatmapID:243964
BeatmapSetID:89593

[Difficulty]
HPDrainRate:7
CircleSize:4
OverallDifficulty:7
ApproachRate:8
SliderMultiplier:2
SliderTickRate:1

[Events]
//Background and Video events
0,0,"suggestion1.jpg",0,0
Video,0,"gentlemanv.avi"
//Break Periods
//Storyboard Layer 0 (Background)
//Storyboard Layer 1 (Fail)
//Storyboard Layer 2 (Pass)
//Storyboard Layer 3 (Foreground)
Sprite,Foreground,Centre,"Gero.png",320,240 M,0,-96,,162,385 S,0,-96,,0.5 F,0,-96,142,0,1 F,0,15141,15380,1,0 M,0,45618,,495,385 F,0,45618,45856,0,1 F,0,60380,60618,1,0
Sprite,Foreground,Centre,"Kirino.png",320,240 S,0,-96,,0.4 M,0,15141,,495,385 F,0,15141,15380,0,1 F,0,30380,30618,1,0 M,0,123713,,455,385 F,0,123713,123951,0,1 F,0,138475,138713,1,0
Sprite,Foreground,Centre,"Lolicakes.png",320,240 S,0,-96,,0.5 M,0,30380,,162,385 F,0,30380,30618,0,1 F,0,45618,45856,1,0 M,0,138951,,495,385 F,0,138951,139189,0,1 F,0,159546,159665,1,0
Sprite,Foreground,Centre,"Natsubaka.png",320,240 S,0,-96,,0.5 M,0,60856,,162,385 F,0,60856,61094,0,1 F,0,75618,75856,1,0 M,0,108475,,495,385 F,0,108475,108713,0,1 F,0,123237,123475,1,0
Sprite,Foreground,Centre,"Dekaane.png",320,240 S,0,-96,,0.45 F,0,77046,77999,0,0.1 M,0,77284,,495,385 F,0,77999,78237,0.1,1 F,0,92761,92999,1,0 F,0,177046,177284,0,1 F,0,191808,192046,1,0
Sprite,Foreground,Centre,"Zeroarg.png",320,240 S,0,-96,,0.5 M,0,93237,,162,385 F,0,93237,93475,0,1 F,0,108475,108713,1,0 F,0,161808,162046,0,1 F,0,176570,176808,1,0
//Storyboard Sound Samples
//Background Colour Transformations
3,100,163,162,255

[TimingPoints]
142,476.190476190476,4,2,1,70,1,0
7284,-100,4,2,2,70,0,0
7761,-100,4,2,1,70,0,0
14903,-100,4,2,2,70,0,0
15141,-100,4,2,1,70,0,0
30141,-100,4,2,2,70,0,0
30618,-100,4,2,1,70,0,0
45856,-100,4,2,1,70,0,1
46332,-100,4,2,1,70,0,0
52999,-100,4,2,2,70,0,0
53475,-100,4,2,1,70,0,0
60618,-100,4,2,2,70,0,0
61094,-100,4,2,1,70,0,1
68237,-100,4,2,2,70,0,1
68713,-100,4,2,1,70,0,1
75856,-100,4,2,2,70,0,1
76332,-100,4,2,1,70,0,0
92999,-100,4,2,2,70,0,0
93475,-100,4,2,1,70,0,1
93951,-100,4,2,1,70,0,0
108237,-100,4,2,2,70,0,0
108713,-100,4,2,1,70,0,1
109189,-100,4,2,1,70,0,0
115856,-100,4,2,2,70,0,0
116332,-100,4,2,1,70,0,0
123475,-100,4,2,2,70,0,0
123951,-100,4,2,1,70,0,1
131094,-100,4,2,2,70,0,1
131570,-100,4,2,1,70,0,0
131689,-100,4,2,1,70,0,1
138713,-100,4,2,2,70,0,1
139189,-100,4,2,1,70,0,0
139308,-100,4,2,1,70,0,1
139427,-100,4,2,1,70,0,0
161570,-100,4,2,2,70,0,0
162046,-100,4,2,1,70,0,1
169189,-100,4,2,2,70,0,1
169665,-100,4,2,1,70,0,1
177284,-100,4,2,0,70,0,0
177522,-100,4,2,0,70,0,1
184427,-100,4,2,2,70,0,1
184903,-100,4,2,0,70,0,1
190618,-100,4,2,0,5,0,0

[Colours]
Combo1 : 193,193,193
Combo2 : 0,64,128
Combo3 : 112,196,193
Combo4 : 255,83,83

[HitObjects]
106,349,142,2,0,B|75:310|75:310|25:301,1,100,0|0,3:0|0:0,0:0:0:0:
143,256,618,2,0,B|174:295|174:295|223:303,1,100,8|0,0:0|0:0,0:0:0:0:
321,321,1094,1,0,3:0:0:0:
402,263,1332,1,0,0:0:0:0:
398,163,1570,2,0,L|340:72,1,100,8|0,0:0|0:0,0:0:0:0:
201,40,2046,6,0,L|255:125,1,100,0|0,3:0|0:0,0:0:0:0:
278,222,2522,2,0,B|225:239|191:197|191:197|133:109,1,200,8|0,0:0|3:0,0:0:0:0:
75,192,3237,1,0,0:0:0:0:
17,274,3475,2,0,L|86:347,1,100,8|0,0:0|0:0,0:0:0:0:
242,372,3951,6,0,L|173:299,1,100,0|0,3:0|0:0,0:0:0:0:
187,170,4427,2,0,L|256:243,1,100,8|0,0:0|0:0,0:0:0:0:
324,315,4903,1,0,3:0:0:0:
411,270,5141,2,0,P|433:225|423:177,1,100,0|8,0:0|0:0,0:0:0:0:
370,92,5618,1,0,0:0:0:0:
282,43,5856,6,0,P|264:91|283:138,1,100,0|0,3:0|0:0,0:0:0:0:
370,92,6332,2,0,L|154:92,1,200,8|0,0:0|3:0,0:0:0:0:
99,162,7046,1,0,0:0:0:0:
28,232,7284,1,8,2:0:0:0:
98,302,7522,1,0,0:0:0:0:
182,355,7761,6,0,B|220:322|274:349|325:377|375:339,1,200,4|8,0:0|0:0,0:0:0:0:
432,259,8475,1,2,0:0:0:0:
414,212,8594,1,0,0:0:0:0:
393,166,8713,2,0,P|360:117|357:76,1,100,0|2,0:0|0:0,0:0:0:0:
228,23,9189,2,0,P|261:72|264:113,1,100,8|0,0:0|0:0,0:0:0:0:
203,192,9665,5,2,0:0:0:0:
137,267,9903,2,0,B|172:303|172:303|172:356,1,100,0|8,0:0|0:0,0:0:0:0:
255,297,10380,1,2,0:0:0:0:
339,352,10618,2,0,B|340:303|340:303|375:267,1,100,0|2,0:0|0:0,0:0:0:0:
440,191,11094,2,0,L|378:113,1,100,8|0,0:0|0:0,0:0:0:0:
315,34,11570,6,0,B|274:63|280:114|280:114|229:135|184:87,1,200,4|8,0:0|0:0,0:0:0:0:
85,105,12284,1,2,0:0:0:0:
58,147,12403,1,0,0:0:0:0:
41,194,12522,2,0,P|39:246|64:286,1,100,0|2,0:0|0:0,0:0:0:0:
182,349,12999,2,0,P|184:297|159:257,1,100,8|0,0:0|0:0,0:0:0:0:
235,192,13475,5,2,2:0:0:0:
305,262,13713,1,2,0:0:0:0:
340,297,13832,1,0,0:0:0:0:
375,332,13951,1,8,0:0:0:0:
411,238,14189,1,2,0:0:0:0:
426,192,14308,1,0,0:0:0:0:
442,145,14427,5,0,0:0:0:0:
346,114,14665,1,2,0:0:0:0:
298,97,14784,1,0,0:0:0:0:
252,76,14903,2,0,B|199:55|199:55|151:55,1,100,8|2,2:0|0:0,0:0:0:0:
55,55,15380,5,4,2:0:0:0:
256,192,15856,1,8,0:0:0:0:
256,192,16332,2,0,L|148:192,1,100,0|2,0:0|0:0,0:0:0:0:
88,264,16808,2,0,L|196:264,1,100,8|0,0:0|0:0,0:0:0:0:
256,336,17284,2,0,L|148:336,2,100,2|0|8,0:0|0:0|0:0,0:0:0:0:
440,256,18237,1,0,0:0:0:0:
488,168,18475,1,2,0:0:0:0:
440,80,18713,1,8,0:0:0:0:
340,64,18951,1,0,0:0:0:0:
380,156,19189,6,0,P|320:268|232:288,1,200
100,156,19903,1,0,0:0:0:0:
100,156,20022,1,0,0:0:0:0:
100,156,20141,2,0,P|129:107|201:101,1,100
280,140,20618,2,0,P|250:188|210:200,1,100,2|0,0:0|0:0,0:0:0:0:
100,156,21094,2,0,P|129:107|201:101,2,100
184,208,21808,1,2,0:0:0:0:
220,244,21927,1,0,0:0:0:0:
256,280,22046,2,0,L|148:280,1,100,0|2,0:0|0:0,0:0:0:0:
256,280,22522,2,0,L|368:280,1,100,8|0,0:0|0:0,0:0:0:0:
256,184,22999,6,0,B|312:224|380:164|348:144|308:164|380:224|440:184,1,200,4|8,0:0|0:0,0:0:0:0:
420,88,23713,2,0,L|464:52,2,50,2|0|0,0:0|0:0|0:0,0:0:0:0:
328,48,24189,1,2,0:0:0:0:
236,84,24427,2,0,P|172:128|164:156,1,100,8|0,0:0|0:0,0:0:0:0:
196,240,24903,5,2,0:0:0:0:
128,312,25141,1,0,0:0:0:0:
316,240,25380,1,8,0:0:0:0:
388,312,25618,1,2,0:0:0:0:
256,316,25856,2,0,L|256:204,1,100,0|2,0:0|0:0,0:0:0:0:
180,152,26332,2,0,L|180:252,1,100,8|0,0:0|0:0,0:0:0:0:
176,52,26808,5,4,0:0:0:0:
176,52,27284,1,8,0:0:0:0:
276,68,27522,1,2,0:0:0:0:
324,84,27641,1,0,0:0:0:0:
360,120,27761,2,0,P|384:168|384:220,1,100,0|2,0:0|0:0,0:0:0:0:
288,196,28237,2,0,P|284:249|258:294,1,100,8|0,0:0|0:0,0:0:0:0:
184,232,28713,2,0,P|154:276|109:302,2,100
400,220,29427,5,0,0:0:0:0:
356,132,29665,1,0,0:0:0:0:
260,100,29903,5,0,0:0:0:0:
156,120,30141,1,8,0:0:0:0:
156,120,30618,6,0,P|84:144|64:268,1,200,4|8,0:0|0:0,0:0:0:0:
156,256,31332,1,2,0:0:0:0:
80,324,31570,1,0,0:0:0:0:
156,256,31808,1,2,0:0:0:0:
232,324,32046,1,8,0:0:0:0:
264,128,32284,1,0,0:0:0:0:
264,128,32522,6,0,L|248:244,1,100,2|0,0:0|0:0,0:0:0:0:
336,284,32999,2,0,L|352:176,1,100,8|2,0:0|0:0,0:0:0:0:
352,188,33475,1,0,0:0:0:0:
434,91,33713,1,2,0:0:0:0:
308,118,33951,1,8,0:0:0:0:
427,171,34189,1,0,0:0:0:0:
361,58,34427,1,4,0:0:0:0:
212,80,34665,6,0,B|168:96|168:96|136:204,1,100,0|8,0:0|0:0,0:0:0:0:
84,220,35141,1,2,0:0:0:0:
124,312,35380,2,0,B|168:296|168:296|200:188,1,100,0|2,0:0|0:0,0:0:0:0:
200,148,35856,1,8,0:0:0:0:
268,220,36094,2,0,P|320:204|336:124,1,100
416,100,36570,1,0,0:0:0:0:
280,72,36808,1,8,0:0:0:0:
144,108,37046,1,2,0:0:0:0:
132,244,37284,6,0,P|80:320|44:344,1,100,0|2,0:0|0:0,0:0:0:0:
204,244,37761,2,0,P|256:320|292:344,1,100,8|0,0:0|0:0,0:0:0:0:
260,324,38237,1,4,0:0:0:0:
420,144,38713,5,8,0:0:0:0:
288,92,38951,1,2,0:0:0:0:
288,92,39070,1,2,0:0:0:0:
288,92,39189,1,2,0:0:0:0:
152,132,39427,1,0,0:0:0:0:
152,132,39546,1,0,0:0:0:0:
152,132,39665,1,10,0:0:0:0:
68,216,39903,6,0,P|52:288|76:336,1,100
168,220,40380,2,0,P|184:292|160:340,1,100,0|8,0:0|0:0,0:0:0:0:
316,320,40856,1,0,0:0:0:0:
424,308,41094,1,0,0:0:0:0:
360,224,41332,1,0,0:0:0:0:
252,224,41570,6,0,L|156:184,1,100,8|0,0:0|0:0,0:0:0:0:
260,140,42046,2,0,L|364:96,1,100
388,204,42522,5,8,0:0:0:0:
300,328,42761,2,0,P|232:336|180:308,1,100
312,180,43237,2,0,P|244:172|192:200,1,100,0|8,0:0|0:0,0:0:0:0:
36,164,43713,6,0,L|4:44,1,100
180,132,44189,2,0,L|180:16,1,100,0|8,0:0|0:0,0:0:0:0:
312,156,44665,2,0,L|380:40,1,100
380,248,45141,2,0,L|512:228,1,100,0|8,0:0|0:3,0:0:0:0:
104,248,45856,6,0,L|47:165,1,100,4|0,1:0|0:0,0:0:0:0:
107,85,46332,2,0,B|154:85|154:85|197:55,1,100,8|0,2:0|0:0,0:0:0:0:
256,235,46808,2,0,L|256:135,1,100,8|0,2:0|0:0,0:0:0:0:
315,55,47284,2,0,B|358:85|358:85|405:85,1,100,8|0,2:0|0:0,0:0:0:0:
462,275,47760,2,0,L|431:181,1,100,8|0,2:0|0:0,0:0:0:0:
368,286,48237,6,0,L|425:369,1,100,8|0,2:0|0:0,0:0:0:0:
309,353,48713,2,0,L|214:321,1,100,8|0,2:0|0:0,0:0:0:0:
109,287,49189,1,8,2:0:0:0:
51,193,49427,1,0,0:0:0:0:
119,106,49665,2,0,P|155:70|207:70,1,100,8|0,2:0|0:0,0:0:0:0:
391,82,50141,6,0,P|355:118|309:120,1,100,8|0,2:0|0:0,0:0:0:0:
119,106,50618,2,0,P|155:70|201:68,1,100,8|0,2:0|0:0,0:0:0:0:
100,214,51094,2,0,P|64:250|17:251,1,100,8|0,2:0|0:0,0:0:0:0:
48,346,51570,1,8,2:0:0:0:
144,321,51808,1,0,0:0:0:0:
239,291,52046,6,0,L|338:266,1,100,8|0,2:0|0:0,0:0:0:0:
486,146,52522,2,0,L|390:171,1,100,8|0,2:0|0:0,0:0:0:0:
252,147,52999,2,0,L|333:87,1,100,8|0,2:0|0:0,0:0:0:0:
175,85,53475,6,0,B|111:126|111:126|38:105,1,150,4|0,2:0|1:0,0:0:0:0:
125,228,54189,2,0,L|95:28,1,200,2|2,2:0|2:0,0:0:0:0:
195,34,54903,2,0,P|238:50|294:47,1,100,8|0,2:0|1:0,0:0:0:0:
383,86,55380,5,8,2:0:0:0:
452,157,55618,2,0,L|455:222,1,50,0|0,1:0|2:0,2:0:0:0:
408,343,55975,2,0,L|406:294,1,50,0|2,1:0|2:0,2:0:0:0:
351,210,56332,2,0,P|315:240|310:293,1,100,8|0,2:0|1:0,0:0:0:0:
209,290,56808,2,0,P|203:239|167:209,1,100,8|0,2:0|1:0,0:0:0:0:
256,192,57284,12,4,60618,1:0:0:0:
76,200,61094,6,0,L|156:128,1,100,4|0,0:3|0:0,0:0:0:0:
256,56,61570,1,8,0:0:0:0:
256,192,61808,1,0,0:0:0:0:
256,192,61927,1,0,0:0:0:0:
256,192,62046,1,0,0:0:0:0:
172,352,62284,1,0,0:0:0:0:
352,352,62522,1,8,0:0:0:0:
440,192,62761,1,0,0:0:0:0:
304,64,62999,6,0,L|376:136,1,100
304,320,63475,2,0,L|376:248,1,100,8|0,0:0|0:0,0:0:0:0:
208,320,63951,2,0,L|136:248,1,100
208,64,64427,2,0,L|136:136,1,100,8|0,0:0|0:0,0:0:0:0:
0,193,64903,6,0,L|110:193,1,100,4|0,0:0|0:0,0:0:0:0:
256,192,65380,1,8,0:0:0:0:
357,75,65618,1,0,0:0:0:0:
357,75,65737,1,0,0:0:0:0:
357,75,65856,1,0,0:0:0:0:
458,192,66094,1,0,0:0:0:0:
357,310,66332,2,0,P|296:348|262:355,1,100,8|0,0:0|0:0,0:0:0:0:
144,282,66808,5,4,0:3:0:0:
85,178,67046,1,0,0:0:0:0:
58,135,67165,1,0,0:0:0:0:
31,92,67284,1,8,0:0:0:0:
201,178,67522,1,0,0:0:0:0:
228,135,67641,1,0,0:0:0:0:
255,92,67760,1,8,0:0:0:0:
147,54,67999,1,0,0:0:0:0:
143,153,68237,2,0,L|143:254,1,100,4|0,0:3|0:0,0:0:0:0:
86,335,68713,6,0,P|143:356|186:348,1,100,4|0,0:0|0:0,0:0:0:0:
256,244,69189,1,0,0:0:0:0:
332,133,69427,1,0,0:0:0:0:
332,133,69546,1,0,0:0:0:0:
332,133,69665,2,0,P|369:127|426:148,1,100
502,255,70141,2,0,P|445:276|407:270,1,100,8|0,0:0|0:0,0:0:0:0:
254,296,70618,5,4,0:3:0:0:
183,116,70856,1,0,0:0:0:0:
360,193,71094,1,8,0:0:0:0:
180,264,71332,1,0,0:0:0:0:
257,87,71570,1,0,0:0:0:0:
328,267,71808,1,0,0:0:0:0:
151,190,72046,1,8,0:0:0:0:
331,119,72284,1,0,0:0:0:0:
254,298,72522,6,0,P|181:358|105:296,1,200,4|8,0:0|0:0,0:0:0:0:
50,195,73237,1,0,0:0:0:0:
50,195,73356,1,0,0:0:0:0:
50,195,73475,1,0,0:0:0:0:
106,86,73713,1,0,0:0:0:0:
203,160,73951,2,0,P|258:161|309:139,1,100,8|0,0:0|0:0,0:0:0:0:
401,60,74427,5,0,0:0:0:0:
488,171,74665,1,0,0:0:0:0:
488,172,74784,1,0,0:0:0:0:
488,171,74903,1,8,0:0:0:0:
395,276,75141,1,0,0:0:0:0:
395,276,75261,1,0,0:0:0:0:
395,276,75380,1,8,0:0:0:0:
263,229,75618,1,0,0:0:0:0:
240,90,75856,2,0,P|147:117|125:211,1,200,8|4,0:0|3:0,0:0:0:0:
168,64,77284,5,0,0:0:0:0:
228,144,77522,1,0,0:0:0:0:
168,64,77761,1,0,0:0:0:0:
296,84,77999,1,0,0:0:0:0:
424,60,78237,1,4,0:0:0:0:
424,60,78356,1,0,0:0:0:0:
424,60,78475,1,0,0:0:0:0:
416,208,78713,6,0,P|396:256|399:302,1,100,8|2,0:0|0:0,0:0:0:0:
412,320,79070,1,0,0:0:0:0:
428,332,79189,2,0,L|328:360,1,100,0|2,0:0|0:0,0:0:0:0:
224,308,79665,2,0,L|324:280,1,100,8|0,0:0|0:0,0:0:0:0:
368,172,80141,1,2,0:0:0:0:
336,76,80380,1,0,0:0:0:0:
224,36,80618,1,8,0:0:0:0:
256,132,80857,1,2,0:0:0:0:
196,236,81094,6,0,L|164:140,1,100,0|2,0:0|0:0,0:0:0:0:
288,224,81570,2,0,L|320:320,1,100,8|0,0:0|0:0,0:0:0:0:
319,318,82046,2,0,P|272:344|224:352,1,100,4|0,0:0|0:0,0:0:0:0:
140,272,82522,6,0,P|88:276|40:260,1,100,8|2,0:0|0:0,0:0:0:0:
24,252,82880,1,0,0:0:0:0:
8,240,82999,1,0,0:0:0:0:
16,140,83237,1,2,0:0:0:0:
156,92,83475,2,0,L|106:179,2,100,8|0|2,0:0|0:0|0:0,0:0:0:0:
280,20,84189,1,0,0:0:0:0:
284,40,84308,1,0,0:0:0:0:
288,60,84427,2,0,L|308:160,1,100,8|2,0:0|0:0,0:0:0:0:
312,176,84784,1,0,0:0:0:0:
316,196,84903,6,0,L|340:296,1,100,0|2,0:0|0:0,0:0:0:0:
256,352,85380,2,0,B|248:340|248:340|244:360|244:360|232:344|232:344|188:332,1,100,8|0,0:0|0:0,0:0:0:0:
0,288,85856,1,4,0:0:0:0:
0,288,85975,1,0,0:0:0:0:
0,288,86094,1,0,0:0:0:0:
28,80,86332,6,0,L|124:52,1,100,8|2,0:0|0:0,0:0:0:0:
144,44,86689,1,0,0:0:0:0:
164,40,86808,2,0,P|192:76|240:100,1,100,0|2,0:0|0:0,0:0:0:0:
340,196,87284,2,0,L|240:176,1,100,8|0,0:0|0:0,0:0:0:0:
124,156,87760,1,2,0:0:0:0:
208,244,87999,1,0,0:0:0:0:
92,220,88237,1,8,0:0:0:0:
241,176,88475,1,2,0:0:0:0:
64,288,88713,6,0,P|72:336|108:372,1,100,0|2,0:0|0:0,0:0:0:0:
252,328,89189,2,0,P|244:280|208:244,1,100,8|0,0:0|0:0,0:0:0:0:
208,244,89665,2,0,L|276:172,1,100,4|0,0:0|0:0,0:0:0:0:
420,240,90141,6,0,L|480:160,1,100,8|0,0:0|0:0,0:0:0:0:
492,144,90499,1,0,0:0:0:0:
504,128,90618,1,0,0:0:0:0:
372,300,90856,1,2,0:0:0:0:
368,112,91094,2,0,L|428:32,2,100,8|0|2,0:0|0:0|0:0,0:0:0:0:
288,184,91809,5,0,0:0:0:0:
288,184,91927,1,0,0:0:0:0:
288,184,92046,1,8,0:0:0:0:
188,120,92284,1,2,0:0:0:0:
188,120,92403,1,0,0:0:0:0:
188,120,92522,1,0,0:0:0:0:
160,276,92761,5,2,0:0:0:0:
324,24,92999,1,8,0:0:0:0:
144,204,93475,6,0,B|144:140|208:84|288:96,1,200,4|8,0:0|0:0,0:0:0:0:
380,116,94189,1,2,0:0:0:0:
404,160,94308,1,0,0:0:0:0:
428,204,94427,1,0,0:0:0:0:
380,292,94665,1,2,0:0:0:0:
288,332,94903,2,0,L|176:332,2,100,8|0|2,0:0|0:0|0:0,0:0:0:0:
288,332,95618,5,0,0:0:0:0:
380,292,95856,1,8,0:0:0:0:
420,196,96094,1,2,0:0:0:0:
412,192,96213,1,0,0:0:0:0:
404,184,96332,2,0,L|320:116,1,100,0|2,0:0|0:0,0:0:0:0:
232,84,96808,1,8,0:0:0:0:
112,128,97046,1,0,0:0:0:0:
116,332,97284,6,0,B|192:344|255:288|255:224,1,200,4|8,0:0|0:0,0:0:0:0:
192,144,97999,1,2,0:0:0:0:
192,144,98118,1,0,0:0:0:0:
192,144,98237,1,0,0:0:0:0:
244,56,98475,1,2,0:0:0:0:
324,56,98713,2,0,P|324:140|412:216,1,200,8|0,0:0|0:0,0:0:0:0:
416,216,99308,1,0,0:0:0:0:
424,220,99427,1,0,0:0:0:0:
316,288,99665,6,0,L|316:340,1,50,8|0,0:0|0:0,0:0:0:0:
224,252,99903,2,0,L|188:288,1,50,2|0,0:0|0:0,0:0:0:0:
156,192,100141,2,0,L|96:192,1,50
280,88,100618,2,0,P|320:48|420:48,1,150,8|0,0:0|0:0,0:0:0:0:
444,56,101094,6,0,B|444:140|404:180|304:180,1,200,4|8,0:0|0:0,0:0:0:0:
252,88,101808,1,2,0:0:0:0:
228,72,101927,1,0,0:0:0:0:
192,64,102046,1,0,0:0:0:0:
108,116,102284,1,2,0:0:0:0:
161,202,102522,2,0,P|161:258|194:292,1,100,8|0,0:0|0:0,0:0:0:0:
206,304,102879,1,0,0:0:0:0:
220,318,102999,2,0,L|336:316,1,100,2|0,0:0|0:0,0:0:0:0:
436,268,103475,2,0,L|436:168,1,100,8|2,0:0|0:0,0:0:0:0:
436,152,103832,1,0,0:0:0:0:
436,132,103951,2,0,P|436:92|395:52,1,100,0|2,0:0|0:0,0:0:0:0:
160,140,104427,6,0,B|160:224|200:264|300:264,1,200,8|4,0:0|0:0,0:0:0:0:
384,252,105141,2,0,L|428:296,2,50,0|0|8,0:0|0:0|0:0,0:0:0:0:
464,192,105618,1,2,0:0:0:0:
64,200,106094,1,2,0:0:0:0:
360,144,106808,2,0,P|388:96|388:44,2,100,2|0|8,0:0|0:0|0:0,0:0:0:0:
272,192,107522,1,2,0:0:0:0:
192,132,107761,2,0,P|164:84|164:32,2,100,0|2|8,0:0|0:0|0:0,0:0:0:0:
272,192,108475,1,0,0:0:0:0:
392,292,108713,6,0,P|364:340|316:356,1,100,4|0,0:0|0:0,0:0:0:0:
232,296,109189,2,0,P|184:276|136:284,1,100,8|0,0:0|0:0,0:0:0:0:
56,352,109665,2,0,P|32:308|40:244,1,100
112,180,110141,2,0,P|156:148|176:108,1,100,8|0,0:0|0:0,0:0:0:0:
288,108,110618,6,0,P|308:148|352:180,1,100,0|0,0:0|0:0,0:0:0:0:
472,168,111094,1,8,0:0:0:0:
428,280,111332,1,0,0:0:0:0:
308,284,111570,2,0,P|264:316|244:356,1,100,0|0,0:0|0:0,0:0:0:0:
124,352,112046,2,0,P|104:312|60:280,1,100,0|0,0:0|0:0,0:0:0:0:
24,176,112522,6,0,L|96:104,1,100
160,176,112999,2,0,L|232:104,1,100,8|0,0:0|0:0,0:0:0:0:
296,176,113475,2,0,L|368:104,1,100
436,176,113951,2,0,L|508:104,1,100,8|0,0:0|0:0,0:0:0:0:
436,24,114427,5,0,0:0:0:0:
376,104,114665,1,0,0:0:0:0:
316,24,114903,1,8,0:0:0:0:
256,104,115141,1,0,0:0:0:0:
188,28,115380,1,0,0:0:0:0:
120,104,115618,1,0,0:0:0:0:
48,176,115856,2,0,P|92:204|140:200,1,100,8|0,0:0|0:0,0:0:0:0:
236,180,116332,6,0,P|280:216|296:260,1,100,4|0,0:0|0:0,0:0:0:0:
280,280,116689,2,0,P|268:332|312:376,1,100
324,368,117046,2,0,P|376:336|396:292,1,100,2|0,0:0|0:0,0:0:0:0:
392,188,117522,2,0,P|444:196|484:236,2,100,2|8|0,0:0|0:0|0:0,0:0:0:0:
296,224,118237,6,0,P|292:168|316:128,1,100,2|0,0:0|0:0,0:0:0:0:
324,104,118594,2,0,P|288:72|236:68,1,100,8|2,0:0|0:0,0:0:0:0:
216,88,118951,2,0,P|164:100|116:80,1,100,0|2,0:0|0:0,0:0:0:0:
24,48,119427,1,0,0:0:0:0:
24,152,119665,1,8,0:0:0:0:
104,216,119903,1,0,0:0:0:0:
256,300,120141,6,0,L|256:324,24,25,0|0|0|0|0|0|0|0|0|0|0|0|0|0|0|0|0|0|0|0|0|0|0|0|2,0:0|0:0|0:0|0:0|0:0|0:0|0:0|0:0|0:0|0:0|0:0|0:0|0:0|0:0|0:0|0:0|0:0|0:0|0:0|0:0|0:0|0:0|0:0|0:0|0:0,0:0:0:0:
256,72,121808,5,0,0:0:0:0:
357,247,122046,1,0,0:0:0:0:
154,247,122284,1,0,0:0:0:0:
331,99,122522,1,8,0:0:0:0:
296,298,122761,1,0,0:0:0:0:
140,168,122999,1,0,0:0:0:0:
371,168,123237,1,0,0:0:0:0:
216,298,123475,1,8,0:0:0:0:
180,99,123713,1,0,0:0:0:0:
256,164,123951,6,0,L|256:368,1,200,4|8,0:0|0:0,0:0:0:0:
168,316,124665,2,0,L|156:240,2,50,2|0|0,0:0|0:0|0:0,0:0:0:0:
72,336,125141,1,2,0:0:0:0:
36,240,125380,1,8,0:0:0:0:
88,156,125618,1,0,0:0:0:0:
184,124,125856,6,0,L|288:124,1,100,2|0,0:0|0:0,0:0:0:0:
472,172,126332,2,0,L|372:172,1,100,8|2,0:0|0:0,0:0:0:0:
372,272,126808,1,0,0:0:0:0:
372,272,127046,2,0,L|360:376,2,100,2|8|0,0:0|0:0|0:0,0:0:0:0:
368,72,127761,5,4,0:0:0:0:
368,72,128237,2,0,P|320:120|264:128,1,100,8|2,0:0|0:0,0:0:0:0:
240,132,128594,1,0,0:0:0:0:
192,132,128713,1,0,0:0:0:0:
116,64,128951,1,2,0:0:0:0:
36,124,129189,1,8,0:0:0:0:
116,64,129427,1,0,0:0:0:0:
132,264,129665,6,0,P|164:328|212:356,1,100,0|0,0:0|0:0,0:0:0:0:
324,264,130142,2,0,P|292:328|244:356,1,100,8|2,0:0|0:0,0:0:0:0:
232,252,130618,2,0,L|232:148,2,100,0|2|8,0:0|0:0|0:0,0:0:0:0:
40,192,131570,5,4,0:0:0:0:
188,60,132046,2,0,L|304:72,1,100,8|2,0:0|0:0,0:0:0:0:
336,80,132403,1,0,0:0:0:0:
384,92,132522,1,0,0:0:0:0:
448,168,132761,1,2,0:0:0:0:
360,216,132999,2,0,P|414:265|481:264,1,100,8|0,0:0|0:0,0:0:0:0:
256,188,133475,5,2,0:0:0:0:
256,188,133713,1,0,0:0:0:0:
344,144,133951,2,0,P|289:94|222:95,1,100,8|2,0:0|0:0,0:0:0:0:
168,108,134427,1,0,0:0:0:0:
116,192,134665,1,2,0:0:0:0:
144,288,134903,2,0,L|220:360,1,100,8|0,0:0|0:0,0:0:0:0:
416,328,135380,6,0,B|384:264|400:232|400:232|416:200|368:124,1,200,4|8,0:0|0:0,0:0:0:0:
276,136,136094,2,0,L|248:68,2,50,2|0|0,0:0|0:0|0:0,0:0:0:0:
272,236,136570,1,2,0:0:0:0:
216,320,136808,1,8,0:0:0:0:
116,320,137046,1,0,0:0:0:0:
52,244,137284,5,2,0:0:0:0:
160,40,137522,1,0,0:0:0:0:
88,168,137760,1,8,0:0:0:0:
236,168,137998,1,2,0:0:0:0:
88,92,138237,1,0,0:0:0:0:
160,220,138475,1,2,0:0:0:0:
236,92,138713,5,8,0:0:0:0:
160,132,139189,5,0,0:0:0:0:
160,156,139308,1,0,0:0:0:0:
160,180,139427,1,0,0:0:0:0:
112,268,139665,2,0,P|164:284|220:256,1,100,8|8,0:0|0:0,0:0:0:0:
304,272,140141,2,0,P|350:257|397:273,1,100,8|8,0:0|0:0,0:0:0:0:
420,140,140618,5,8,0:0:0:0:
400,140,140737,1,0,0:0:0:0:
380,140,140856,1,0,0:0:0:0:
360,140,140975,1,0,0:0:0:0:
340,140,141094,1,8,0:0:0:0:
144,100,141332,5,0,0:0:0:0:
144,100,141570,2,0,B|120:144|140:200,1,100,8|0,0:0|0:0,0:0:0:0:
241,272,142046,2,0,B|260:220|236:176,1,100,8|0,0:0|0:0,0:0:0:0:
300,100,142522,1,8,0:0:0:0:
434,272,142999,6,0,B|370:276|370:276|342:264|342:264|306:284|282:288|242:272,1,200,8|8,0:0|0:0,0:0:0:0:
288,184,143713,1,0,0:0:0:0:
388,172,143951,2,0,L|388:72,2,100,8|0|8,0:0|0:0|0:0,0:0:0:0:
148,72,144903,6,0,P|100:148|112:188,1,100,8|0,0:0|0:0,0:0:0:0:
148,312,145380,2,0,P|100:236|112:196,1,100,8|0,0:0|0:0,0:0:0:0:
192,192,145856,2,0,L|300:192,1,100,8|0,0:0|0:0,0:0:0:0:
392,192,146332,1,8,0:0:0:0:
364,92,146570,2,0,P|320:72|256:120,1,100,0|4,0:0|0:0,0:0:0:0:
364,292,147046,5,2,0:0:0:0:
316,304,147165,1,2,0:0:0:0:
268,320,147284,1,10,0:0:0:0:
168,312,147522,1,0,0:0:0:0:
108,232,147761,2,0,L|120:104,1,100
204,84,148237,1,8,0:0:0:0:
404,60,148713,5,10,0:0:0:0:
404,60,148832,1,2,0:0:0:0:
404,60,148951,2,0,P|396:132|368:168,1,100,2|8,0:0|0:0,0:0:0:0:
280,152,149427,1,0,0:0:0:0:
188,188,149665,2,0,L|136:292,1,100,8|0,0:0|0:0,0:0:0:0:
52,160,150141,2,0,L|112:48,1,100,8|0,0:0|0:0,0:0:0:0:
196,44,150618,6,0,B|242:54|242:54|294:46,1,100,8|0,0:0|0:0,0:0:0:0:
340,68,150975,1,8,0:0:0:0:
376,92,151094,2,0,B|422:81|422:81|474:89,1,100,8|0,0:0|0:0,0:0:0:0:
428,176,151570,2,8,B|376:184|376:184|329:173,2,100
236,228,152522,6,0,P|143:206|122:113,1,200,8|8,0:0|0:0,0:0:0:0:
220,136,153237,1,0,0:0:0:0:
220,136,153356,1,0,0:0:0:0:
220,136,153475,2,0,L|32:280,1,200,8|0,0:0|0:0,0:0:0:0:
260,228,154427,6,0,L|434:328,1,200,4|4,0:0|0:0,0:0:0:0:
336,152,155380,6,0,L|509:52,1,200,4|0,0:0|0:0,0:0:0:0:
308,40,156332,5,4,0:0:0:0:
256,192,156451,12,0,159665,0:0:0:0:
456,56,162046,6,0,P|456:164|380:240,1,200,4|8,0:0|0:0,0:0:0:0:
312,276,162761,1,2,0:0:0:0:
312,276,162880,1,0,0:0:0:0:
312,276,162999,1,0,0:0:0:0:
224,228,163237,1,2,0:0:0:0:
224,228,163475,6,0,P|180:184|180:136,1,100,8|0,0:0|0:0,0:0:0:0:
192,52,163951,1,2,0:0:0:0:
292,68,164189,1,0,0:0:0:0:
252,160,164427,1,8,0:0:0:0:
340,204,164665,1,2,0:0:0:0:
200,300,164903,2,0,L|292:240,1,100,0|2,0:0|0:0,0:0:0:0:
340,84,165380,2,0,L|248:144,1,100,8|0,0:0|0:0,0:0:0:0:
84,240,165856,6,0,B|84:216|84:216|104:204|104:204|68:204|68:204|84:188|84:188|84:160|84:160|84:88,1,200,4|8,0:0|0:0,0:0:0:0:
176,60,166570,2,0,L|240:60,2,50,2|0|0,0:0|0:0|0:0,0:0:0:0:
176,60,167046,1,2,0:0:0:0:
228,144,167284,1,8,0:0:0:0:
276,232,167522,1,0,0:0:0:0:
320,120,167761,6,0,L|396:43,1,100,2|0,0:0|0:0,0:0:0:0:
180,260,168237,2,0,L|103:336,1,100,8|2,0:0|0:0,0:0:0:0:
180,120,168713,2,0,L|108:48,1,100,0|0,0:0|0:0,0:0:0:0:
320,260,169189,2,0,L|396:336,1,100,8|0,0:0|0:0,0:0:0:0:
460,140,169665,5,4,0:0:0:0:
60,140,170141,1,8,0:0:0:0:
116,224,170380,1,2,0:0:0:0:
116,224,170499,1,0,0:0:0:0:
116,224,170618,1,0,0:0:0:0:
176,304,170856,1,2,0:0:0:0:
240,228,171094,1,8,0:0:0:0:
284,140,171332,1,0,0:0:0:0:
352,68,171570,6,0,P|388:96|408:156,1,100,2|0,0:0|0:0,0:0:0:0:
440,240,172046,2,0,P|388:240|340:208,1,100,8|2,0:0|0:0,0:0:0:0:
284,140,172522,2,0,P|252:180|240:232,1,100,0|2,0:0|0:0,0:0:0:0:
180,308,172999,2,0,P|144:272|144:216,1,100,8|0,0:0|0:0,0:0:0:0:
240,52,173475,6,0,P|336:52|408:124,1,200,4|8,0:0|0:0,0:0:0:0:
420,220,174189,1,2,0:0:0:0:
412,224,174308,1,0,0:0:0:0:
404,232,174427,2,0,L|320:300,1,100,0|2,0:0|0:0,0:0:0:0:
232,328,174903,1,0,0:0:0:0:
132,328,175141,1,0,0:0:0:0:
56,260,175380,6,0,L|56:160,1,100,2|0,0:0|0:0,0:0:0:0:
64,136,175737,1,0,0:0:0:0:
72,116,175857,2,0,P|96:80|156:60,1,100,8|2,0:0|0:0,0:0:0:0:
168,60,176213,1,0,0:0:0:0:
196,60,176332,2,0,L|296:60,1,100,0|2,0:0|0:0,0:0:0:0:
396,64,176808,1,8,0:0:0:0:
192,228,177284,5,0,0:0:0:0:
192,228,177403,1,0,0:0:0:0:
192,228,177522,1,0,0:0:0:0:
220,132,177761,1,8,0:0:0:0:
316,156,177999,1,0,0:0:0:0:
316,156,178118,1,0,0:0:0:0:
316,156,178237,2,0,P|364:168|416:160,1,100
464,16,178713,2,0,P|476:64|468:113,1,100,8|0,0:0|0:0,0:0:0:0:
408,304,179189,5,0,0:0:0:0:
304,364,179427,1,0,0:0:0:0:
292,348,179546,1,0,0:0:0:0:
280,332,179665,2,0,P|232:336|184:320,1,100,8|0,0:0|0:0,0:0:0:0:
168,308,180022,1,0,0:0:0:0:
160,292,180141,2,0,P|172:240|164:192,1,100
316,128,180618,2,0,P|264:140|216:132,1,100,8|0,0:0|0:0,0:0:0:0:
84,68,181094,5,0,0:0:0:0:
84,68,181213,1,0,0:0:0:0:
84,68,181332,1,0,0:0:0:0:
120,164,181571,1,8,0:0:0:0:
204,220,181809,1,0,0:0:0:0:
204,220,181928,1,0,0:0:0:0:
204,220,182047,2,0,P|263:233|317:222,1,100
444,180,182523,2,0,L|380:256,1,100,8|0,0:0|0:0,0:0:0:0:
232,280,182999,5,0,0:0:0:0:
379,256,183237,1,0,0:0:0:0:
328,364,183475,2,0,P|276:368|232:352,1,100,8|0,0:0|0:0,0:0:0:0:
284,172,183951,2,0,P|336:168|380:184,1,100,0|0,0:0|0:0,0:0:0:0:
240,88,184427,2,0,B|223:92|223:92|234:98|234:98|244:104|244:104|228:108|228:108|206:146,1,100,8|0,0:0|0:0,0:0:0:0:
188,312,184903,5,0,0:0:0:0:
188,312,185022,1,0,0:0:0:0:
188,312,185141,1,0,0:0:0:0:
84,252,185380,1,8,0:0:0:0:
96,132,185618,1,0,0:0:0:0:
96,132,185737,1,0,0:0:0:0:
96,132,185856,2,0,P|144:144|196:144,1,100
300,36,186332,2,0,P|252:24|200:24,1,100,8|0,0:0|0:0,0:0:0:0:
400,32,186808,5,0,0:0:0:0:
476,124,187046,1,0,0:0:0:0:
464,148,187165,1,0,0:0:0:0:
448,164,187284,2,0,P|404:176|352:160,1,100,8|0,0:0|0:0,0:0:0:0:
336,144,187641,1,0,0:0:0:0:
324,120,187760,2,0,L|228:148,1,100
84,104,188237,2,0,P|124:132|148:176,1,100,8|0,0:0|0:0,0:0:0:0:
208,368,188713,5,0,0:0:0:0:
208,368,188832,1,0,0:0:0:0:
208,368,188951,1,0,0:0:0:0:
124,280,189190,1,8,0:0:0:0:
180,176,189428,1,0,0:0:0:0:
180,176,189547,1,0,0:0:0:0:
180,176,189666,2,0,P|232:192|280:188,1,100
244,44,190141,1,8,0:0:0:0:
244,44,190261,1,0,0:0:0:0:
244,44,190380,1,0,0:0:0:0:
380,204,190618,5,0,0:0:0:0:
500,204,190856,1,0,0:0:0:0:
404,272,191094,1,0,0:0:0:0:
476,136,191332,1,0,0:0:0:0:
428,340,191570,2,0,P|384:354|328:360,1,100
232,356,192046,1,0,0:0:0:0:
