osu file format v9

[General]
AudioFilename: 03 .mp3
AudioLeadIn: 0
PreviewTime: 69846
Countdown: 0
SampleSet: Normal
StackLeniency: 0.7
Mode: 0
LetterboxInBreaks: 0

[Editor]
Bookmarks: 18482,33027,47573,71209,100300,114846,122108,129391,153023,182118,189381,200290,207563,214836
DistanceSpacing: 1
BeatDivisor: 4
GridSize: 4

[Metadata]
Title:GANGNAM STYLE
Artist:PSY
Creator:yeahyeahyeahhh
Version:OPPAN YEAH30 STYLE
Source:
Tags:kpop happy30 collab lepidopodus lepi

[Difficulty]
HPDrainRate:7
CircleSize:4
OverallDifficulty:8
ApproachRate:8
SliderMultiplier:2
SliderTickRate:1

[Events]
//Background and Video events
0,0,"Background.jpg"
Video,-200,"Gangnam Style.avi"
//Break Periods
2,67769,69836
2,100496,112273
2,149587,151654
2,182314,188637
2,196860,197108
2,215042,215296
//Storyboard Layer 0 (Background)
//Storyboard Layer 1 (Fail)
//Storyboard Layer 2 (Pass)
//Storyboard Layer 3 (Foreground)
Sprite,Foreground,Centre,"yeahyeahyeahhh.png",320,240 M,0,18472,,507,391 S,0,18472,,0.6480002 F,0,18472,18927,0,1 F,0,18927,32563,1 F,0,32563,33017,1,0 F,0,47563,48017,0,1 F,0,67563,68017,1,0 F,0,122108,122563,0,1 F,0,128927,129381,1,0 F,0,153017,153472,0,1 F,0,182108,182563,1,0 F,0,200290,200745,0,1 F,0,207108,207563,1,0
Sprite,Foreground,Centre,"happy30.png",320,240 M,0,33017,,509,391 S,0,33017,,0.6479999 F,0,33017,33472,0,1 F,0,33472,47108,1 F,0,47108,47563,1,0 F,0,71199,71654,0,1 F,0,71654,96199,1 F,0,98017,98472,1,0 F,0,114836,115290,0,1 F,0,115290,121654,1 F,0,121654,122108,1,0 F,0,129381,129836,0,1 F,0,129836,149381,1 F,0,149381,149836,1,0 F,0,189381,189836,0,1 F,0,196654,197108,1,0 F,0,207563,208017,0,1 F,0,214836,215290,1,0
//Storyboard Sound Samples
//Background Colour Transformations
3,100,163,162,255

[TimingPoints]
3933,454.545454545455,4,1,0,70,1,0
71205,-100,4,1,0,70,0,1
100296,-100,4,1,0,70,0,0
153023,-100,4,1,0,70,0,1
182114,-100,4,1,0,70,0,0
189386,-133.333333333333,4,1,0,50,0,0
190409,-133.333333333333,4,2,0,50,0,0
190636,-133.333333333333,4,1,0,50,0,0
191318,-133.333333333333,4,2,0,50,0,0
191545,-133.333333333333,4,1,0,50,0,0
193136,-133.333333333333,4,2,0,50,0,0
193363,-133.333333333333,4,1,0,50,0,0
194954,-133.333333333333,4,2,0,50,0,0
195182,-100,4,1,0,70,0,0
200296,-100,4,1,0,70,0,1
214842,-100,4,1,0,70,0,0
216660,-100,4,1,0,70,0,1
216773,-100,4,1,0,70,0,0

[Colours]
Combo1 : 17,254,176
Combo2 : 173,255,95
Combo3 : 255,88,100
Combo4 : 255,94,55

[HitObjects]
88,148,18478,2,0,B|104:252,1,100,4|0
28,312,18933,1,0
188,208,19160,2,0,B|256:300|368:240,1,200
463,201,19842,6,0,B|444:300,1,100
365,242,20296,2,0,B|384:143,1,100
292,104,20751,2,0,B|272:202,1,100
180,164,21205,2,0,B|199:65,2,100
196,264,21887,1,0
136,344,22114,6,0,B|252:360,1,100
112,248,22569,2,0,B|12:234,1,100
52,336,23023,1,0
88,144,23251,2,0,B|96:96,2,50
88,144,23705,1,0
188,164,23933,6,0,B|288:156,1,100
432,256,24387,2,0,B|332:264,1,100,0|0
400,164,24842,2,0,B|500:156,2,100
232,288,25523,5,0
232,288,25751,1,0
356,336,25978,2,0,B|284:256|328:148,1,200
412,96,26660,1,0
512,108,26887,1,0
456,192,27114,1,0
356,180,27342,1,0
256,160,27569,6,0,B|236:264,1,100
316,376,28023,2,0,B|334:277,1,100
152,196,28478,2,0,B|52:180,2,100
152,196,29160,1,0
356,180,29387,5,0
232,24,29842,1,0
280,360,30296,1,0
280,360,30523,1,0
264,260,30751,1,0
264,260,30978,1,0
188,324,31205,6,0,B|40:340,2,150
356,296,32114,2,0,B|504:280,2,150
344,196,33023,5,4
412,124,33251,1,0
512,132,33478,1,8
216,340,33933,1,0
120,312,34160,1,0
24,284,34387,1,8
24,284,34614,1,0
100,220,34842,6,0,B|200:252,1,100
432,264,35296,1,8
356,328,35523,2,0,B|256:360,1,100
184,160,35978,1,0
216,64,36205,1,8
308,104,36432,1,0
272,200,36660,5,0
236,292,36887,1,0
280,384,37114,1,8
460,208,37569,5,0
496,116,37796,1,0
452,24,38023,1,8
452,24,38251,1,0
356,48,38478,6,0,B|316:160,1,100
256,336,38932,1,8
344,316,39160,2,0,B|384:204,1,100
176,288,39614,2,0,B|136:400,1,100,0|8
52,336,40069,6,0,B|32:392,2,50,0|0|4
16,244,40523,1,0
76,164,40751,2,0,B|126:274|239:229,1,200,8|0
304,304,41432,5,0
376,232,41660,1,8
476,236,41887,2,0,B|456:344,1,100
424,152,42342,2,0,B|444:44,2,100,0|8|0
344,216,43023,2,0,B|324:324,2,100,0|0|8
284,136,43705,6,0,B|292:84,2,50
208,204,44160,1,0
244,296,44387,1,8
244,296,44842,5,0
184,376,45069,1,0
84,372,45296,1,8
20,296,45523,1,0
32,196,45751,6,0,B|48:48,2,150
200,232,46660,2,0,B|216:380,2,150
188,128,47569,5,12
128,48,48023,1,8
28,48,48478,1,8
80,136,48932,1,0
280,168,49387,5,8
340,248,49842,1,8
440,248,50296,1,8
380,160,50751,6,0,B|424:64,2,100,8|0|8
272,212,51546,2,0,B|320:356,2,150,0|2|0
284,92,52569,1,8
204,292,53023,6,0,B|136:340|64:292,2,150,8|0|2
272,212,53932,2,0,B|304:308,1,100,8|0
184,200,54387,2,0,B|152:105,1,100,8|0
292,116,54842,6,0,B|360:64|432:116,1,150,12|0
430,115,55296,1,8
368,208,55523,2,0,B|404:316,1,100,0|8
412,332,55864,1,0
488,200,56205,1,8
264,236,56660,6,0,B|232:320|144:304,1,150,8|0
120,292,57114,1,8
16,236,57342,2,0,B|28:340,1,100,0|8
27,335,57682,1,0
148,192,58023,5,8
148,192,58251,1,0
148,192,58478,2,0,B|132:36,2,150,8|0|2
232,248,59387,1,8
232,248,59501,1,0
388,96,59842,5,8
476,148,60069,1,0
400,212,60296,2,0,B|416:368,2,150,8|0|2
308,172,61205,1,8
308,172,61319,1,0
92,352,61660,6,0,B|200:340,1,100,8|0
288,324,62114,5,0
288,324,62342,1,0
272,224,62569,5,0
272,224,62796,1,0
176,244,63023,5,0
176,244,63251,1,0
80,264,63478,5,0
80,264,63705,1,0
142,64,63932,5,0
240,48,64160,1,0
305,127,64387,5,0
208,144,64614,1,0
336,24,64842,5,0
432,8,65069,1,0
504,80,65296,5,0
408,104,65523,1,0
208,144,65751,5,0
209,159,65864,1,0
211,174,65978,1,0
213,189,66092,1,0
215,204,66205,1,0
217,219,66319,1,0
219,234,66432,1,0
221,249,66546,1,0
224,264,66660,6,0,B|230:312,8,50
224,264,71205,6,0,B|159:326|93:263,1,150,4|2
72,240,71660,1,8
52,24,71887,2,0,B|-1:201,1,150,2|0
2,194,72342,1,2
108,120,72569,2,0,B|127:69|183:53,1,100,8|2
288,300,73023,6,0,B|354:362|420:299,1,150,0|2
440,276,73478,1,8
304,96,73705,1,2
208,128,73932,5,0
160,216,74160,1,2
208,304,74387,2,0,B|308:276,1,100,8|2
496,304,74842,6,0,B|319:356,1,150,0|2
326,354,75296,1,8
224,352,75523,2,0,B|208:256|304:224,1,150,2|0
312,224,75978,2,0,B|336:152|272:96,1,100,2|8
128,192,76432,2,0,B|104:264|168:320,1,100,2|0
16,168,77001,5,2
16,168,77114,1,8
40,72,77342,1,2
120,16,77569,1,0
216,24,77796,1,2
288,96,78023,2,0,B|312:224,1,100,8|2
464,376,78478,6,0,B|546:338|512:253,1,150,4|2
498,225,78932,1,8
336,312,79160,2,0,B|158:364,1,150,2|0
166,362,79614,1,2
144,368,79728,1,0
120,376,79842,1,8
32,328,80069,1,2
56,232,80296,6,0,B|93:149|178:183,1,150,0|2
205,198,80751,1,8
256,280,80978,1,2
448,120,81205,1,0
400,32,81432,1,2
304,32,81660,2,0,B|280:160,1,100,8|2
352,336,82114,6,0,B|428:384|481:309,1,150,0|2
495,282,82569,1,8
328,232,82796,2,0,B|176:272,1,150,2|0
160,288,83251,2,0,B|120:328|128:392,1,100,2|8
256,336,83705,1,2
176,200,83932,6,0,B|24:240,2,150
336,288,84842,2,0,B|488:328,2,150
488,240,85751,6,0,B|529:159|450:113,1,150,4|2
424,101,86205,1,8
272,192,86432,2,0,B|208:248|219:369,1,150,2|0
224,352,86887,1,2
176,184,87114,2,0,B|160:128|112:104,1,100,8|2
32,56,87569,1,0
400,376,88023,5,8
408,368,88251,1,0
256,376,88478,1,0
264,368,88705,1,0
112,376,88932,1,8
120,368,89160,1,0
0,288,89387,6,0,B|36:204|122:237,1,150,0|2
148,252,89842,1,8
232,192,90069,2,0,B|323:226|372:137,1,150,2|0
384,144,90523,2,0,B|424:184|412:252,1,100,2|8
256,376,90978,2,0,B|216:336|228:268,1,100,2|0
296,24,91546,5,2
296,24,91660,1,8
392,16,91887,1,2
472,72,92114,1,0
496,168,92342,1,2
440,248,92569,2,0,B|376:240|344:288,1,100,8|2
144,328,93023,6,0,B|181:410|266:376,1,150,4|2
295,362,93478,1,8
216,256,93705,2,0,B|38:203,1,150,2|0
46,206,94160,1,2
24,200,94273,1,0
0,192,94387,1,8
80,128,94614,1,2
256,176,94842,2,0,B|338:138|304:53,1,150,0|2
290,27,95296,5,8
200,72,95523,1,2
168,168,95751,1,2
208,264,95978,1,2
304,296,96205,2,0,B|432:272,1,100,8|2
496,320,96660,5,0
256,384,97342,1,2
16,320,97796,1,2
256,384,98251,1,2
168,336,98478,6,0,B|120:264|144:176,2,150,4|0|0
80,384,99387,1,4
0,256,99728,1,0
64,120,100069,1,0
160,136,100296,5,4
324,324,113023,6,0,B|472:340,2,150
156,296,113933,2,0,B|8:280,2,150
240,360,114842,5,4
312,296,115069,1,0
408,288,115296,1,8
440,40,115751,1,0
376,112,115978,1,0
368,208,116205,6,0,B|392:304,1,100,8|0
144,208,116660,2,0,B|120:304,1,100
16,368,117114,2,0,B|40:272,1,100,8|0
184,208,117569,5,0
152,128,117796,1,0
328,288,118023,5,8
360,208,118251,1,0
224,360,118478,6,0,B|168:384|120:360,1,100
296,304,118933,2,0,B|352:280|400:304,1,100,8|0
496,240,119387,2,0,B|472:336,1,100
440,176,119842,2,0,B|464:80,1,100,8|0
336,24,120296,6,0,B|256:-16|184:24,1,150
168,32,120751,1,8
112,120,120978,1,0
176,184,121205,6,0,B|136:220|120:276,1,100
336,184,121660,2,0,B|376:220|392:276,1,100,8|0
256,328,122114,5,4
256,224,122342,1,0
256,128,122569,1,8
104,336,123023,6,0,B|0:344,1,100,0|0
104,336,123478,1,8
128,240,123705,2,0,B|240:234,2,100
160,144,124387,2,0,B|48:152,2,100,8|0|0
160,144,125069,1,0
256,124,125296,1,8
224,28,125523,1,0
256,260,125751,5,0
288,356,125978,1,0
384,376,126205,1,8
384,376,126660,5,0
472,328,126887,1,0
468,228,127114,1,8
404,152,127342,1,0
304,164,127569,6,0,B|148:172,2,150
348,72,128478,2,0,B|504:64,2,150
248,76,129387,5,12
148,80,129842,1,8
112,172,130296,1,8
212,168,130751,1,0
296,348,131205,5,8
196,248,131660,1,8
296,152,132114,1,8
388,260,132569,6,0,B|480:300,2,100,8|0|8
144,368,133364,2,0,B|228:376|280:304,2,150,0|2|0
8,304,134387,1,8
188,212,134842,6,0,B|224:64,2,150,8|0|2
268,272,135751,2,0,B|328:280|364:240,1,100,8|0
128,140,136205,2,0,B|68:132|32:172,1,100,8|0
0,320,136660,6,0,B|68:372|140:320,1,150,12|0
138,321,137114,1,8
220,376,137342,2,0,B|328:340,1,100,0|8
344,332,137683,1,0
436,212,138023,2,0,B|460:264|452:320,1,100
332,180,138478,6,0,B|364:96|452:112,1,150,8|0
476,124,138933,1,8
312,264,139160,2,0,B|208:276,1,100,0|8
213,275,139501,1,0
76,212,139842,5,8
76,212,140069,1,0
76,212,140296,2,0,B|60:368,2,150,8|0|2
4,140,141205,1,8
4,140,141319,1,0
160,296,141660,5,8
252,260,141887,1,0
300,172,142114,2,0,B|316:16,2,150,8|0|2
376,240,143023,1,8
376,240,143137,1,0
504,116,143478,6,0,B|492:224,1,100,8|0
312,368,143933,5,0
312,368,144160,1,0
216,268,144387,5,0
216,268,144614,1,0
256,136,144842,5,0
256,136,145069,1,0
384,80,145296,5,0
384,80,145523,1,0
468,132,145751,5,0
512,224,145978,1,0
456,360,146205,5,0
412,268,146432,1,0
128,176,146660,5,0
220,132,146887,1,0
392,172,147114,5,0
300,216,147342,1,0
307,84,147569,5,0
320,79,147682,1,0
334,73,147796,1,0
348,67,147910,1,0
362,61,148023,1,0
376,55,148137,1,0
390,50,148251,1,0
404,44,148364,1,0
418,37,148478,6,0,B|462:18,8,50
420,36,153023,6,0,B|473:213,1,150,4|2
470,206,153478,1,8
200,200,153705,2,0,B|266:263|331:201,1,150,2|0
352,180,154160,1,2
276,116,154387,2,0,B|244:80|264:16,1,100,8|2
228,308,154842,6,0,B|64:332,1,150,0|2
80,330,155296,1,8
64,232,155523,1,2
116,40,155751,1,0
132,138,155978,1,2
240,304,156205,1,8
224,206,156432,1,2
276,120,156660,6,0,B|453:68,1,150,0|2
446,70,157114,1,8
456,168,157342,2,0,B|476:264|384:284,1,150,2|0
360,280,157796,1,2
276,228,158023,2,0,B|244:271|264:323,1,100,8|2
160,336,158478,6,0,B|84:384|31:309,1,150,0|2
17,282,158932,1,8
184,232,159160,1,2
280,252,159387,2,0,B|300:360,1,100,0|2
184,232,159842,2,0,B|165:133,1,100,8|2
340,72,160296,6,0,B|422:110|388:195,1,150,4|2
374,223,160751,1,8
292,168,160978,2,0,B|114:116,1,150,2|0
122,118,161432,1,2
100,112,161546,1,0
76,104,161660,1,8
148,36,161887,1,2
80,212,162114,6,0,B|163:249|129:334,1,150,0|2
114,361,162569,1,8
28,312,162796,1,2
240,268,163023,1,0
288,356,163251,1,2
384,356,163478,2,0,B|408:228,1,100,8|2
160,340,163932,6,0,B|84:384|28:312,1,150,0|2
17,286,164387,1,8
56,180,164614,2,0,B|132:136|188:208,1,150,2|0
199,234,165069,1,2
292,272,165296,1,8
392,256,165523,1,2
456,180,165751,6,0,B|488:28,2,150
320,192,166660,2,0,B|352:344,2,150
80,108,167569,6,0,B|161:149|207:70,1,150,4|2
219,44,168023,1,8
200,192,168251,2,0,B|264:248|253:369,1,150,2|0
248,352,168705,1,2
148,332,168932,2,0,B|36:352,1,100,8|2
0,264,169387,1,0
364,332,169842,5,8
464,320,170069,1,0
500,228,170296,1,0
400,232,170523,1,0
340,152,170751,1,8
440,140,170978,1,0
268,292,171205,6,0,B|184:256|217:170,1,150,0|2
217,171,171660,1,8
296,96,171887,2,0,B|387:130|436:41,1,150,2|0
426,55,172342,1,2
492,132,172569,1,8
492,132,172796,1,2
492,132,173023,1,0
216,156,173364,5,2
216,156,173478,1,8
296,212,173705,1,2
296,212,173932,1,0
232,292,174160,1,2
328,332,174387,2,0,B|392:324|424:372,1,100,8|2
232,292,174842,6,0,B|195:374|110:340,1,150,4|2
81,326,175296,1,8
20,248,175523,2,0,B|198:195,1,150,2|0
190,198,175978,1,2
212,192,176092,1,0
236,184,176205,1,8
236,84,176432,2,0,B|140:113,1,100,2|0
328,152,177001,5,0
328,152,177114,1,8
400,220,177342,1,2
392,320,177569,1,2
300,352,177796,1,2
224,284,178023,2,0,B|132:244,1,100,8|2
16,320,178478,5,0
256,384,179160,1,2
496,320,179614,1,2
256,384,180069,1,2
344,336,180296,6,0,B|392:264|368:176,2,150,4|0|0
168,336,181205,2,0,B|120:264|144:176,2,150,4|0|0
256,288,182114,5,0
256,288,189387,5,4
356,300,189614,1,0
452,316,189842,2,0,B|476:156,1,150.000005722046
492,80,190523,1,2
380,212,190751,5,0
380,212,190978,1,0
380,212,191205,2,0,B|272:224,1,75.0000028610231,0|2
84,180,191660,2,0,B|144:116|228:164,1,150.000005722046
176,348,192569,5,0
80,372,192796,1,0
0,320,193023,1,0
24,224,193251,1,2
112,268,193478,1,0
140,176,193705,1,0
244,304,193932,6,0,B|296:368|396:340,1,150.000005722046
256,40,194842,2,0,B|224:72|232:128,1,75.0000028610231,0|2
320,148,195296,6,0,B|436:180,1,100,4|2
156,248,195751,2,0,B|40:280,1,100,0|2
40,356,196205,1,0
380,272,196660,5,4
380,272,198478,6,0,B|472:272|520:360,2,150
128,344,199387,2,0,B|36:344|-12:256,2,150
236,252,200296,6,0,B|413:199,1,150,4|2
406,202,200751,1,8
292,8,200978,2,0,B|355:74|293:139,1,150,2|0
272,160,201432,1,2
172,148,201660,2,0,B|68:132,1,100,8|2
236,252,202114,6,0,B|400:276,1,150,0|2
384,274,202569,1,8
468,220,202796,1,2
464,120,203023,1,0
400,40,203251,1,2
300,52,203478,2,0,B|316:152,1,100,8|2
260,352,203932,6,0,B|236:200,1,150,0|2
228,176,204387,1,8
56,168,204614,2,0,B|36:264|128:284,1,150,2|0
152,280,205069,1,2
328,208,205296,2,0,B|371:176|423:196,1,100,8|2
460,304,205751,6,0,B|406:379|330:331,1,150,0|2
331,332,206205,1,8
252,272,206432,1,2
240,172,206660,1,0
304,96,206887,1,2
404,108,207114,2,0,B|388:176|385:207,1,100,8|2
452,380,207569,6,0,B|534:343|500:258,1,150,4|2
486,229,208023,1,8
312,136,208251,2,0,B|259:314,1,150,2|0
262,306,208705,1,2
256,328,208819,1,0
248,352,208932,1,8
148,384,209160,1,2
60,336,209387,2,0,B|-22:298|12:213,1,150,0|2
26,187,209842,5,8
112,236,210069,1,2
152,316,210296,2,0,B|192:352|244:352,1,100,0|2
476,240,210751,2,0,B|440:192|384:204,1,100,8|2
336,120,211205,6,0,B|270:179|304:275,1,150,0|2
313,278,211660,1,8
456,180,211887,2,0,B|472:84|403:2,1,150,2|0
408,20,212342,2,0,B|292:44,1,100,2|8
240,108,212796,1,2
164,52,213023,6,0,B|92:4|4:28,2,150,0|0|0
336,176,213932,2,0,B|408:224|496:200,2,150,0|0|0
420,120,214842,1,0
52,336,216660,5,6
