osu file format v9

[General]
AudioFilename: 03 .mp3
AudioLeadIn: 0
PreviewTime: 69846
Countdown: 0
SampleSet: Normal
StackLeniency: 0.7
Mode: 0
LetterboxInBreaks: 0

[Editor]
Bookmarks: 18482,33027,47573,100300,114846,122108,129391,153027,182118,189381,200290,207563,214836
DistanceSpacing: 1
BeatDivisor: 4
GridSize: 4

[Metadata]
Title:GANGNAM STYLE
Artist:PSY
Creator:yeahyeahyeahhh
Version:NORMAL STYLE
Source:
Tags:kpop happy30 collab lepidopodus lepi

[Difficulty]
HPDrainRate:3
CircleSize:3
OverallDifficulty:3
ApproachRate:5
SliderMultiplier:1.4
SliderTickRate:1

[Events]
//Background and Video events
0,0,"Background.jpg"
Video,-200,"Gangnam Style.avi"
//Break Periods
2,67769,69836
2,100496,111823
2,149588,151654
2,182314,188187
2,196859,197114
2,215042,215296
//Storyboard Layer 0 (Background)
//Storyboard Layer 1 (Fail)
//Storyboard Layer 2 (Pass)
//Storyboard Layer 3 (Foreground)
//Storyboard Sound Samples
//Background Colour Transformations
3,100,163,162,255

[TimingPoints]
3933,454.545454545455,4,1,0,70,1,0
71205,-100,4,1,0,70,0,1
100296,-100,4,1,0,70,0,0
153023,-100,4,1,0,70,0,1
182114,-100,4,1,0,70,0,0
189386,-133.333333333333,4,1,0,50,0,0
190409,-133.333333333333,4,2,0,50,0,0
190636,-133.333333333333,4,1,0,50,0,0
191318,-133.333333333333,4,2,0,50,0,0
191545,-133.333333333333,4,1,0,50,0,0
193136,-133.333333333333,4,2,0,50,0,0
193363,-133.333333333333,4,1,0,50,0,0
194954,-133.333333333333,4,2,0,50,0,0
195182,-100,4,1,0,70,0,0
200296,-100,4,1,0,70,0,1
214842,-100,4,1,0,70,0,0
216660,-100,4,1,0,70,0,1
216773,-100,4,1,0,70,0,0

[Colours]
Combo1 : 17,254,176
Combo2 : 173,255,95
Combo3 : 255,88,100
Combo4 : 255,94,55

[HitObjects]
460,176,18478,2,0,B|436:328,1,140,4|0
300,340,19387,2,0,B|321:201,1,140,0|0
296,64,20296,2,0,B|370:90|422:30,2,140
36,188,22114,6,0,B|208:164|208:356,1,280
348,352,23478,1,0
296,220,23933,2,0,B|312:64|476:28,1,280
192,60,25751,5,0
140,188,26205,2,0,B|0:168,2,140
272,144,27569,2,0,B|312:224|252:272,1,140
356,368,28478,2,0,B|494:348,1,140
512,208,29387,5,0
444,84,29842,1,0
304,64,30296,1,0
216,176,30751,1,0
312,280,31205,6,0,B|436:260,2,105
224,316,32114,2,0,B|120:332,2,105
300,368,33023,5,4
436,332,33478,1,8
184,212,34387,5,8
44,176,34842,2,0,B|72:36,1,140,0|8
200,96,35751,2,0,B|260:144|332:108,1,140,0|8
452,40,36660,1,0
484,176,37114,1,8
276,364,38023,6,0,B|264:220,1,140,8|0
248,84,38933,1,8
112,48,39387,1,0
20,152,39842,1,8
100,268,40296,5,4
232,224,40751,2,0,B|340:104|484:188,1,280,8|8
456,324,42114,2,0,B|317:300,1,140,0|8
180,308,43023,2,0,B|236:248|192:180,1,140,0|8
80,96,43933,6,0,B|24:156|68:224,2,140,0|8|0
212,48,45296,1,8
328,128,45751,6,0,B|456:144,2,105
248,172,46660,2,0,B|120:156,2,105
328,216,47569,5,12
316,356,48023,1,8
176,372,48478,1,8
116,244,48932,1,0
208,140,49387,5,8
328,216,49842,1,8
440,132,50296,1,8
384,4,50751,1,8
244,12,51205,6,0,B|128:24,2,105,8|0|2
184,216,52569,1,8
320,256,53023,6,0,B|304:152,2,105,8|0|2
400,328,53933,2,8,B|256:348,1,140
196,236,54842,5,12
264,116,55296,1,8
168,16,55751,2,8,B|144:80|144:156,1,140,8|0
360,88,56660,6,8,B|384:152|384:228,1,140
296,336,57569,1,8
156,340,58023,5,8
104,212,58478,2,8,B|0:228,2,105,8|0|2
308,156,59842,5,8
444,184,60296,2,0,B|472:308,2,105,8|0|2
260,84,61660,5,0
144,164,62114,1,0
148,304,62569,1,0
280,356,63023,1,0
404,292,63478,1,0
412,152,63933,6,0,B|360:200|280:176,1,140
172,88,64842,2,0,B|92:64|40:112,1,140
128,220,65751,6,0,B|112:264,16,35
128,220,71205,6,0,B|188:276|260:220,1,140,4|8
336,180,71887,2,0,B|376:340,1,140,2|2
460,328,72569,1,8
464,188,73023,6,0,B|404:136|448:60,1,140,0|8
360,40,73705,1,2
272,64,73932,1,0
300,200,74387,1,8
192,292,74842,6,0,B|56:324,1,140,0|8
48,232,75524,2,0,B|104:176|72:104,1,140,2|2
152,64,76205,1,8
196,196,76660,6,0,B|232:332,1,140,0|8
324,328,77342,1,2
324,328,77569,2,0,B|460:292,1,140,0|8
472,152,78478,6,0,B|336:188,1,140,4|8
248,216,79160,2,0,B|196:268|222:345,1,140,2|2
136,376,79842,1,8
4,252,80296,6,0,B|144:216,1,140,0|8
200,148,80978,1,2
176,60,81205,1,0
312,24,81660,1,8
428,100,82114,6,0,B|372:160|300:112,1,140,0|8
252,192,82796,2,0,B|200:256|244:324,1,140,2|2
328,348,83478,1,8
404,232,83932,6,0,B|480:216|524:264,2,105
316,256,84842,2,0,B|240:272|196:220,2,105
340,168,85751,6,0,B|304:104|340:28,1,140,4|8
416,80,86433,2,0,B|449:150|413:214,1,140,2|2
404,304,87114,1,8
268,344,87569,1,0
132,316,88023,6,0,B|116:232,1,70,8|2
160,168,88478,2,0,B|244:184|272:100,1,140,2|10
152,32,89387,6,0,B|68:16|40:100,1,140,0|8
64,184,90069,2,0,B|92:264|32:312,2,140,2|2|2
64,184,91205,1,0
188,120,91660,5,8
272,152,91887,1,2
360,176,92114,2,0,B|444:184|480:120,1,140,0|8
504,260,93023,6,0,B|428:288|440:372,1,140,4|8
352,344,93705,2,0,B|208:332,1,140,2|2
120,328,94387,1,8
20,228,94842,1,0
144,164,95296,6,0,B|156:88,2,70,8|2|2
248,256,96205,1,10
248,116,96660,5,0
60,24,97342,1,2
112,156,97796,1,2
56,284,98251,1,2
28,196,98478,6,0,B|0:96,2,105,4|0|0
112,156,99387,2,0,B|84:56,2,105,4|0|0
204,148,100296,5,4
224,280,113023,6,0,B|104:248,2,105
300,332,113933,2,0,B|420:364,2,105
212,368,114842,5,4
76,332,115297,1,8
336,228,116206,5,8
472,188,116661,2,0,B|452:48,1,140,0|8
324,36,117570,2,0,B|256:4|188:36,1,140,0|8
59,49,118478,2,0,B|40:188,1,140,0|8
372,344,119842,6,0,B|511:332,1,140,8|0
456,160,120752,1,8
348,16,121206,1,0
164,16,121661,1,8
56,160,122115,5,4
0,336,122570,2,0,B|92:216|252:256,1,280,8|8
428,280,123933,2,0,B|484:228|460:152,1,140,0|8
328,28,124842,2,0,B|272:80|296:156,1,140,0|8
268,292,125752,6,0,B|120:324,1,140,0|8
20,236,126660,2,0,B|168:204,1,140,0|8
272,128,127570,6,0,B|260:20,2,105
308,212,128478,2,0,B|320:320,2,105
360,136,129388,5,12
476,212,129842,1,8
452,352,130297,1,8
312,368,130751,1,0
248,244,131206,5,8
244,104,131661,1,8
116,44,132115,1,8
20,144,132570,1,8
80,268,133024,6,0,B|124:232|204:240,2,105,8|0|2
292,264,134387,1,8
360,104,134842,6,0,B|414:110|458:74,2,105,8|0|2
284,52,135751,1,8
240,184,136205,1,8
380,196,136660,6,0,B|380:269|356:333,1,140,12|8
156,352,137570,2,8,B|132:288|132:212,1,140,8|0
180,84,138479,6,8,B|116:108|40:108,2,140
316,112,139842,5,8
452,148,140297,2,8,B|468:252,2,105,8|0|2
256,224,141661,5,8
144,308,142115,2,0,B|20:336,2,105,8|0|2
352,336,143479,5,0
452,240,143933,1,0
400,108,144388,1,0
260,104,144842,1,0
220,240,145297,1,0
80,252,145752,6,0,B|32:200|56:120,1,140
148,16,146660,2,0,B|196:68|172:148,1,140
240,272,147570,6,0,B|284:288,16,35
244,272,153023,6,0,B|184:328|112:272,1,140,4|8
28,268,153705,2,0,B|61:132,1,140,2|2
36,44,154387,1,8
176,52,154841,6,0,B|148:192,1,140,0|8
200,264,155523,1,2
284,296,155751,2,0,B|352:332|420:288,1,140,0|8
468,160,156660,6,0,B|332:128,1,140,0|8
244,108,157342,2,0,B|188:164|220:236,1,140,2|2
180,320,158023,1,8
48,276,158478,6,0,B|12:140,1,140,0|8
40,52,159160,1,2
128,36,159387,1,0
260,84,159842,1,8
384,144,160296,6,0,B|248:180,1,140,4|8
160,204,160978,2,0,B|133:281|185:333,1,140,2|2
276,348,161660,1,8
316,216,162114,6,0,B|352:76,1,140,0|8
412,12,162796,1,2
496,40,163023,1,0
452,172,163478,1,8
316,216,163932,6,0,B|260:156|188:204,1,140,0|8
116,268,164614,2,0,B|180:320|248:276,1,140,2|2
340,308,165296,1,8
404,184,165750,6,0,B|528:220,2,105
384,92,166660,2,0,B|508:128,2,105
292,76,167569,6,0,B|256:140|292:216,1,140,4|8
380,220,168251,2,0,B|413:290|377:354,1,140,2|2
288,376,168932,1,8
152,336,169387,1,0
240,228,169841,6,0,B|256:144,1,70,8|2
168,120,170296,2,0,B|84:136|56:52,1,140,2|10
16,192,171205,6,0,B|156:216,1,140,0|8
240,228,171887,2,0,B|268:308|208:356,2,140,2|2|2
256,140,173023,1,0
372,64,173478,5,8
388,152,173705,1,2
404,240,173932,2,0,B|320:232|284:296,1,140,0|8
152,252,174841,6,0,B|68:264|40:188,1,140,4|8
20,100,175523,2,0,B|104:88|132:164,1,140,2|2
220,188,176205,1,8
364,160,176660,1,0
480,240,177114,6,0,B|492:316,2,70,8|2|2
508,104,178023,1,10
400,16,178478,5,0
192,32,179160,1,2
304,116,179614,1,2
324,256,180069,1,2
408,288,180296,6,0,B|508:316,2,105,4|0|0
336,344,181205,2,0,B|236:372,2,105,4|0|0
324,256,182114,5,0
48,60,189387,5,4
152,84,189842,2,0,B|172:192,1,105.000004005432
184,292,190751,5,0
96,352,191205,1,0
44,260,191660,2,0,B|72:208|128:204,1,105.000004005432
232,192,192569,5,0
332,228,193023,1,0
424,180,193478,1,0
452,80,193932,2,0,B|420:24|344:44,1,105.000004005432
272,96,194842,6,0,B|300:116|300:148,1,52.5000020027161,0|2
332,228,195296,6,0,B|256:344,3,140,4|0|0|4
256,344,198478,6,0,B|132:356,2,105
348,344,199387,2,0,B|472:332,2,105
300,264,200296,6,0,B|247:197|303:137,1,140,4|8
388,104,200978,2,0,B|416:244,1,140,2|2
436,332,201660,1,8
512,216,202114,5,0
472,68,202569,1,8
388,104,202796,1,2
296,96,203023,1,0
184,180,203478,1,8
320,204,203933,6,0,B|352:340,1,140,0|8
260,348,204615,2,0,B|204:292|132:324,1,140,2|2
48,284,205296,1,8
100,96,205751,6,0,B|136:232,1,140,0|8
228,232,206433,1,2
228,232,206660,2,0,B|304:260|356:200,1,140,0|8
440,92,207569,6,0,B|304:128,1,140,4|8
216,160,208251,2,0,B|164:108|87:134,1,140,2|2
12,188,208933,1,8
68,48,209387,6,0,B|208:12,1,140,0|8
292,28,210069,1,2
320,116,210296,1,2
264,244,210751,1,10
384,312,211205,6,0,B|440:372|512:324,1,140,0|8
452,252,211887,2,0,B|409:186|461:122,1,140,2|2
416,44,212569,1,8
328,172,213023,6,0,B|268:156|224:192,2,105
404,224,213933,2,0,B|464:240|508:204,2,105
408,132,214842,1,0
56,344,216660,5,6
