osu file format v9

[General]
AudioFilename: 03 .mp3
AudioLeadIn: 0
PreviewTime: 69846
Countdown: 0
SampleSet: Normal
StackLeniency: 0.7
Mode: 0
LetterboxInBreaks: 0

[Editor]
Bookmarks: 18482,33027,47573,100300,114846,122108,129391,153027,182118,189381,200290,207563,214836
DistanceSpacing: 1
BeatDivisor: 4
GridSize: 8

[Metadata]
Title:GANGNAM STYLE
Artist:PSY
Creator:yeahyeahyeahhh
Version:EASY STYLE
Source:
Tags:kpop happy30 collab lepidopodus lepi

[Difficulty]
HPDrainRate:2
CircleSize:3
OverallDifficulty:1
ApproachRate:1
SliderMultiplier:0.9
SliderTickRate:1

[Events]
//Background and Video events
0,0,"Background.jpg"
Video,-200,"Gangnam Style.avi"
//Break Periods
2,67769,69525
2,100496,113162
2,149588,151343
2,182314,187707
//Storyboard Layer 0 (Background)
//Storyboard Layer 1 (Fail)
//Storyboard Layer 2 (Pass)
//Storyboard Layer 3 (Foreground)
//Storyboard Sound Samples
//Background Colour Transformations
3,100,163,162,255

[TimingPoints]
3933,454.545454545455,4,1,0,70,1,0
71205,-100,4,1,0,70,0,1
100296,-100,4,1,0,70,0,0
153023,-100,4,1,0,70,0,1
182114,-100,4,1,0,70,0,0
189386,-133.333333333333,4,1,0,50,0,0
195182,-100,4,1,0,70,0,0
200296,-100,4,1,0,70,0,1
214842,-100,4,1,0,70,0,0
216660,-100,4,1,0,70,0,1
216773,-100,4,1,0,70,0,0

[Colours]
Combo1 : 17,254,176
Combo2 : 173,255,95
Combo3 : 255,88,100
Combo4 : 255,94,55

[HitObjects]
32,312,18478,2,0,B|88:360|160:328,1,135,4|0
272,256,19842,1,0
320,328,20296,2,0,B|504:280,1,180
360,160,22114,6,0,B|288:88|192:120,1,180
120,64,23478,1,0
48,112,23932,2,0,B|16:216,2,90
200,208,25751,5,0
296,360,26660,1,0
448,264,27569,1,0
376,208,28023,1,0
288,208,28478,1,0
216,264,28933,1,0
208,352,29387,5,0
72,232,30296,1,0
200,104,31205,2,0,B|352:136,1,135
352,120,32114,2,0,B|424:192|400:288,1,180,0|4
368,368,33478,6,0,B|472:368,2,90,8|0|8
304,304,34842,1,0
208,152,35751,1,0
160,232,36205,1,8
208,304,36660,5,0
144,368,37114,2,0,B|40:368,2,90,8|0|8
208,304,38478,1,0
288,344,38933,1,8
376,328,39387,1,0
416,248,39842,1,8
376,168,40296,5,4
296,136,40751,2,0,B|328:48,2,90,8|0|8
256,216,42114,1,0
160,368,43023,1,0
128,288,43478,1,8
152,200,43933,5,0
216,136,44387,2,0,B|184:48,2,90,8|0|8
248,224,45751,2,0,B|400:251,1,135
394,266,46660,2,0,B|487:226|501:128,1,180,0|12
432,72,48023,6,0,B|336:24,2,90,8|8|0
360,128,49387,2,0,B|264:80,3,90,8|8|8|8
192,120,51205,6,0,B|168:184|184:264,1,135,8|2
304,192,52569,1,0
392,224,53023,6,0,B|416:288|400:368,1,135,8|2
264,376,54387,1,8
176,376,54842,6,0,B|72:352,3,90,12|8|8|0
72,264,56660,2,0,B|176:288,3,90,8|8|8|8
152,192,58478,6,0,B|216:152|296:184,1,135,8|2
392,256,59842,1,8
472,208,60296,2,0,B|512:72,1,135,8|2
384,32,61660,1,8
328,104,62114,6,0,B|360:200,1,90,0|0
280,240,63023,2,0,B|248:144,1,90
168,120,63933,1,0
88,152,64387,1,0
64,240,64842,1,0
120,312,65296,1,0
208,320,65751,6,0,B|232:312,16,22.5
208,320,71205,6,0,B|128:344|72:280,1,135,4|2
32,168,72569,1,8
112,136,73023,2,0,B|80:-8,2,135,0|2|8
200,120,74842,6,0,B|336:144,1,135,0|2
384,216,75978,1,2
328,288,76433,2,0,B|256:280|192:336,1,135,0|8
120,376,77569,1,0
48,320,78023,1,8
72,232,78478,6,0,B|120:168|200:192,1,135,4|2
296,272,79842,1,8
376,240,80296,2,0,B|408:96,2,135,0|2|8
408,328,82115,6,0,B|368:392|272:360,1,135,0|2
192,344,83251,1,2
232,264,83705,1,2
232,264,83933,2,0,B|223:174|156:144,1,135
152,168,84842,2,0,B|112:360,1,180,0|4
40,288,86205,5,8
64,200,86660,1,0
88,112,87114,2,0,B|40:16,2,90,8|0|8
160,56,88478,2,0,B|200:80|256:64,1,90,0|8
320,112,89387,6,0,B|328:113|256:144|232:232,1,135,0|2
160,176,90523,1,2
80,216,90978,2,0,B|40:352,1,135,2|8
128,376,92114,1,0
152,288,92569,1,8
240,312,93023,6,0,B|320:368|424:344,1,180,4|0
472,280,94387,2,0,B|496:176,2,90,8|0|8
400,224,95751,2,0,B|352:200|304:216,1,90,0|8
224,208,96660,6,0,B|176:352,1,135,0|2
96,376,97796,1,2
32,312,98251,1,2
32,312,98478,2,0,B|64:160,1,135
80,168,99387,2,0,B|112:272|208:296,1,180,0|4
128,232,114842,5,4
48,184,115296,2,0,B|40:96,2,90,8|0|8
0,264,116660,2,0,B|16:360,1,90,0|8
104,376,117569,1,0
184,344,118023,1,8
272,368,118478,5,0
352,336,118932,2,0,B|456:336,1,90,8|0
504,272,119842,1,8
496,184,120296,2,0,B|392:168|320:256,1,180
264,296,121660,1,8
192,344,122114,5,4
120,288,122569,2,0,B|96:192,1,90,8|0
160,136,123478,1,8
192,224,123932,1,0
216,312,124387,1,8
288,368,124841,1,0
376,360,125296,1,8
440,296,125751,5,0
456,208,126205,2,0,B|424:112,2,90,8|0|8
368,224,127569,2,0,B|216:192,1,135
216,192,128478,2,0,B|128:264|168:368,1,180,0|4
256,352,129842,6,0,B|352:312,2,90,8|8|0
192,288,131206,2,0,B|96:248,3,90,8|8|8|8
24,216,133024,6,0,B|16:144|56:72,1,135,8|2
176,24,134388,1,0
144,112,134842,6,0,B|184:176|176:256,1,135,8|2
144,368,136206,1,8
224,320,136661,6,0,B|328:296,3,90,12|8|8|0
392,344,138478,2,0,B|496:368,3,90,8|8|8|8
472,272,140297,6,0,B|496:200|480:128,1,135,8|2
368,208,141661,1,8
328,288,142114,6,0,B|200:344,1,135,8|2
112,240,143479,1,8
184,192,143933,6,0,B|280:224,1,90
320,144,144842,2,0,B|224:112,1,90
288,40,145752,1,0
376,32,146206,1,0
448,88,146661,1,0
480,176,147115,1,0
456,264,147570,6,0,B|448:296,16,22.5
456,264,153023,6,0,B|496:120,1,135,4|2
384,208,154387,1,8
304,240,154841,2,0,B|336:384,2,135,0|2|8
224,280,156660,6,0,B|168:224|88:256,1,135,0|2
32,192,157796,1,2
72,112,158251,2,0,B|208:64,1,135,2|8
264,128,159387,1,0
184,168,159841,1,8
96,200,160296,6,0,B|40:248|48:328,1,135,4|2
168,376,161660,1,8
240,328,162114,2,0,B|384:360,2,135,0|2|8
280,248,163933,6,0,B|320:184|416:216,1,135,0|2
480,168,165069,1,2
432,96,165523,1,2
432,96,165751,2,0,B|280:64,1,135
280,64,166660,2,0,B|216:144|240:240,1,180,0|4
320,192,168023,5,8
400,144,168478,1,0
464,216,168932,2,0,B|512:120,2,90,8|0|8
416,288,170296,2,0,B|376:264|320:280,1,90,0|8
280,200,171205,6,0,B|209:181|178:109|177:117,1,135,0|2
104,72,172341,1,2
32,128,172796,2,0,B|8:264,1,135,2|8
88,304,173932,1,0
104,216,174387,1,8
120,128,174841,6,0,B|200:72|304:96,1,180,4|0
352,160,176205,2,0,B|456:184,2,90,8|0|8
328,248,177569,2,0,B|336:352,1,90,0|8
248,368,178478,6,0,B|168:384|112:328,1,135,0|2
48,280,179614,1,2
104,216,180069,1,2
104,216,180296,2,0,B|136:64,1,135
152,72,181205,2,0,B|240:104|256:216,1,180,0|0
8,232,189387,5,4
64,168,189842,2,0,B|136:144|200:192,1,135.000005149842
232,264,191205,5,0
296,328,191660,2,0,B|376:352|432:304,1,135.000005149842
480,248,193023,5,0
416,192,193478,1,0
336,224,193933,1,0
336,312,194387,1,0
408,360,194842,2,0,B|456:224,1,135.000005149842,0|2
480,144,196205,1,2
512,56,196660,5,4
208,112,198478,2,0,B|248:176|208:240,1,135,0|0
192,248,199387,2,0,B|120:176|24:216,1,180,0|4
56,304,200751,6,0,B|128:376|224:336,1,180,8|8
304,296,202114,1,0
376,352,202569,2,0,B|464:312,2,90,8|0|8
304,296,203933,5,0
424,232,204614,1,2
456,144,205069,1,2
488,64,205523,1,2
368,128,206205,2,0,B|336:224,2,90,8|0|8
320,48,207569,5,4
248,104,208023,2,0,B|216:168|280:216|248:280,1,180,8|8
184,344,209386,1,0
96,320,209841,2,0,B|8:360,2,90,8|0|8
24,264,211205,5,0
152,216,211886,1,2
120,128,212341,1,2
32,160,212795,1,2
32,160,213023,2,0,B|83:301,1,135,0|0
91,301,213933,2,0,B|192:333|249:234,1,180,0|0
0,360,216660,5,6
