osu file format v9

[General]
AudioFilename: PSY - GANGNAM STYLE () M_V - YouTube.MP3
AudioLeadIn: 0
PreviewTime: 69999
Countdown: 0
SampleSet: Soft
StackLeniency: 0.5
Mode: 0
LetterboxInBreaks: 0

[Editor]
Bookmarks: 4090,5454,18636,33181,35681,47727,67727,76477,85909,100454,114999,129545,144090,145909,147727,148181,148636,149090,153181,167727,182272,189183,189545,196818,200454,207727,214999,223234,230615,237999
DistanceSpacing: 1.4
BeatDivisor: 4
GridSize: 4

[Metadata]
Title:GANGNAM STYLE
Artist:PSY
Creator:m4w11
Version:Gyuw11 tag test
Source:
Tags:

[Difficulty]
HPDrainRate:6
CircleSize:4
OverallDifficulty:8
ApproachRate:8
SliderMultiplier:1.8
SliderTickRate:1

[Events]
//Background and Video events
Video,0,"Vidasdf.avi"
//Break Periods
2,113133,114229
2,216997,222484
//Storyboard Layer 0 (Background)
//Storyboard Layer 1 (Fail)
//Storyboard Layer 2 (Pass)
//Storyboard Layer 3 (Foreground)
//Storyboard Sound Samples
//Background Colour Transformations
3,100,163,162,255

[TimingPoints]
4070,454.545454545455,4,1,0,70,1,0
7670,-83.3333333333333,4,1,0,70,0,0
18636,-100,4,1,0,70,0,0
33181,-100,4,1,0,70,0,0
34943,-62.5,4,1,0,70,0,0
36818,-83.3333333333333,4,1,0,70,0,0
37443,-100,4,1,0,70,0,0
38579,-62.5,4,1,0,70,0,0
40397,-83.3333333333333,4,1,0,70,0,0
40852,-100,4,1,0,70,0,0
42215,-62.5,4,1,0,70,0,0
42897,-100,4,1,0,70,0,0
47727,-133.333333333333,4,2,0,60,0,0
62272,-100,4,2,0,70,0,0
67727,-100,4,1,0,70,0,0
71363,-100,4,1,0,80,0,1
85681,-100,4,1,0,80,0,0
85880,-100,4,1,0,80,0,1
86022,-100,4,1,0,80,0,0
86136,-100,4,1,0,80,0,1
100454,-100,4,1,0,70,0,0
114999,-100,4,1,0,70,0,0
129520,-133.333333333333,4,1,0,60,0,1
129659,-133.333333333333,4,2,0,60,0,0
144090,-100,4,1,0,65,0,0
144545,-100,4,1,0,70,0,0
144999,-100,4,1,0,75,0,0
145454,-100,4,1,0,80,0,0
147613,-100,4,1,0,70,0,0
153181,-100,4,1,0,80,0,1
167499,-100,4,1,0,80,0,0
167707,-100,4,1,0,80,0,1
167840,-100,4,1,0,80,0,0
167954,-100,4,1,0,80,0,1
182272,-133.333333333333,4,2,0,65,0,0
196818,-100,4,1,0,70,0,0
200227,-50,4,1,0,70,0,0
200454,-100,4,1,0,80,0,1
214659,-50,4,1,0,80,0,1
214999,-100,4,1,0,80,0,1
216590,-100,4,1,0,80,0,0
216795,-100,4,1,0,90,0,1
216931,-100,4,1,0,70,0,0
221850,461.538461538462,4,1,0,70,1,0
226922.87969291,461.538461538462,4,1,0,70,1,0

[HitObjects]
48,192,4070,2,0,B|48:108|132:108,1,135
196,108,4524,1,0
292,192,4751,1,0
176,244,4979,2,0,B|120:244|120:188,1,90
248,192,5433,2,0,B|336:192,1,90
464,192,5888,6,0,B|464:276|380:276,1,135,0|0
316,276,6342,1,0
196,244,6570,1,0
312,192,6797,1,0
196,140,7024,1,0
316,108,7251,1,0
220,192,7479,1,0
68,192,7706,6,0,B|68:92|168:92,1,161.999995056153
244,92,8160,1,0
244,244,8388,1,0
396,244,8615,2,0,B|396:136,1,107.999996704102
244,136,9070,2,0,B|244:244,1,107.999996704102
92,244,9524,1,0
332,60,9979,5,0
180,60,10206,1,0
176,212,10433,1,0
328,212,10660,1,0
256,80,10888,1,0
112,192,14070,5,0
256,140,14297,1,0
400,192,14524,1,0
256,192,14979,12,0,16342
256,44,16797,5,0
144,240,17138,1,0
368,240,17479,1,0
256,340,17706,1,0
368,144,18047,1,0
144,144,18388,1,0
400,48,18615,5,0
512,92,18842,1,0
476,212,19069,1,0
408,316,19297,1,0
284,316,19524,2,0,B|340:308|336:212,1,90,0|0
224,315,19979,2,0,B|172:308|177:250,1,90
76,324,20433,2,0,B|112:280|112:280|76:200|172:176,1,180
44,120,21115,1,0
168,96,21342,1,0
184,120,21456,1,0
200,144,21569,1,0
156,264,21797,5,0
276,192,22024,1,0
288,56,22251,2,0,B|404:44|412:180,1,180
308,152,22933,1,0
232,60,23160,2,0,B|226:173|110:161,1,180
160,92,23842,2,0,B|252:188|252:188,1,90
352,92,24297,2,0,B|260:188|260:188,1,90
160,292,24751,2,0,B|252:196|252:196,1,90
352,292,25206,2,0,B|260:196|260:196,1,90
256,104,25660,5,0
364,36,25888,1,0
432,140,26115,1,0
328,208,26342,1,0
444,260,26569,1,0
332,320,26797,1,0
212,316,27024,6,0,B|152:296|116:232,1,90
136,236,27365,1,0
136,208,27479,2,0,B|136:112,2,90
264,118,28160,2,0,B|264:208,2,90
392,118,28842,2,0,B|392:208,1,90
392,240,29183,1,0
392,272,29297,6,0,B|378:302|318:322,1,90
256,212,29751,2,0,B|256:304,1,90
256,172,30206,2,0,B|256:80,1,90
152,156,30660,1,0
256,84,30888,1,0
360,156,31115,1,0
256,44,31342,5,0
368,240,31683,1,0
184,288,32024,1,0
256,340,32251,1,0
144,144,32592,1,0
368,144,32933,1,0
256,200,33160,5,0
68,32,33615,2,0,B|36:64,1,45
68,120,33842,2,0,B|36:152,1,45
80,200,34069,2,0,B|112:168,1,45
176,168,34297,2,0,B|208:136,1,45
256,176,34524,2,0,B|224:208,1,45
224,272,34751,2,0,B|192:304,1,45
184,204,34979,2,0,B|228:196|216:124|216:124|256:172|296:124|296:124|284:196|328:204,1,288
472,344,35660,5,0
328,204,35888,1,0
304,44,36115,1,0
256,240,36342,1,0
304,44,36569,1,0
184,204,36797,2,0,B|200:268|256:304|312:268|328:204,1,215.999993408203
204,200,37479,2,0,B|236:168,1,45
268,224,37706,2,0,B|300:256,1,45
324,196,37933,2,0,B|356:164,1,45
388,220,38160,2,0,B|420:252,1,45
448,196,38388,2,0,B|480:164,1,45
508,220,38615,6,0,B|448:280|448:280|424:256|400:280|400:280|376:256|352:280|352:280|328:256|304:280|304:280|280:256|256:280,1,288
80,192,39297,5,0
256,92,39524,1,0
432,192,39751,1,0
256,292,39979,1,0
256,92,40206,1,0
432,192,40433,6,0,B|400:224|400:224|368:192|368:192|336:224|336:224,1,107.999996704102
232,228,40888,2,0,B|255:191,1,45
192,192,41115,2,0,B|257:191,1,45
204,140,41342,2,0,B|256:192,1,45
256,112,41569,2,0,B|256:192,1,45
316,140,41797,2,0,B|316:192|316:192|352:192,1,90
152,192,42251,6,0,B|272:192|272:192|224:240|320:240|320:240|272:288|368:288,1,288
212,332,42933,2,0,B|168:316,1,45
116,284,43160,2,0,B|92:248,1,45
76,184,43388,2,0,B|76:136,1,45
92,76,43615,1,0
204,20,43842,1,0
204,144,44069,5,0
308,76,44297,1,0
308,200,44524,1,0
92,76,44979,5,0
104,200,45206,1,0
204,144,45433,1,0
208,268,45660,1,0
308,200,45888,1,0
288,344,47706,6,0,B|304:272|372:252,1,101.250003862381
340,120,48388,2,0,B|324:192|256:212,1,101.250003862381
256,60,49070,1,0
184,196,49524,2,0,B|184:256|248:284,1,101.250003862381
328,188,50206,2,0,B|328:128|264:100,1,101.250003862381
320,48,50888,1,0
388,116,51115,1,0
400,208,51342,2,0,B|464:264|464:264|416:284|416:284|416:352,2,202.500007724762
256,156,52933,1,0
112,208,53160,2,0,B|48:264|48:264|96:284|96:284|96:352,2,202.500007724762
280,296,54979,2,0,B|344:240|328:168,1,135.000005149842
200,40,55888,2,0,B|112:32|96:120,1,135.000005149842
312,40,56797,2,0,B|400:32|416:120,1,135.000005149842
420,296,57706,2,0,B|420:228,1,67.5000025749208
328,216,58160,1,0
256,280,58388,1,0
228,192,58615,1,0
328,60,59297,2,0,B|392:84|392:84|392:156,1,135.000005149842
308,192,59979,2,0,B|332:256|332:256|404:256,1,135.000005149842
256,128,61115,1,0
72,92,61570,2,0,B|72:180,1,67.5000025749208
164,136,62024,2,0,B|164:224,1,67.5000025749208
256,288,62479,2,0,B|256:164,1,90
376,240,62933,2,0,B|376:136,1,90
500,172,63388,2,0,B|500:72,1,90
380,48,63842,1,0
256,52,64070,2,0,B|204:92|192:136,1,90
188,144,64410,1,0
184,172,64524,2,0,B|190:199|242:239,1,90
268,240,64865,1,0
296,240,64979,2,0,B|332:188|328:136,1,90
428,80,65433,1,0
484,192,65660,1,0
396,284,65888,2,0,B|320:300,3,45
328,296,66342,2,0,B|256:296,3,45
260,296,66797,2,0,B|180:284,3,45
188,280,67251,1,0
164,268,67365,1,0
160,236,67479,1,0
160,204,67592,1,0
160,176,67706,1,0
192,212,69979,5,0
320,212,70206,1,0
220,136,70433,1,0
256,256,70660,1,0
292,136,70888,1,0
48,192,71342,6,0,B|48:136|104:136,1,90
228,136,71797,1,0
228,260,72024,1,0
352,260,72251,2,0,B|408:260|408:204,1,90
408,80,72706,2,0,B|352:80|352:136,1,90
352,260,73160,2,0,B|288:224|224:260,1,135
160,260,73615,1,0
52,196,73842,1,0
52,68,74069,1,0
160,132,74297,1,0
268,196,74524,1,0
428,92,74979,6,0,B|400:92|400:120,1,45
84,92,75660,2,0,B|112:92|112:120,1,45
176,296,76115,2,0,B|148:296|148:324,1,45
336,296,76569,2,0,B|364:296|364:324,1,45
220,136,77251,5,0
256,256,77479,1,0
292,136,77706,1,0
192,212,77933,1,0
320,212,78160,1,0
256,192,78615,1,0
140,192,81342,5,0
256,140,81569,1,0
372,192,81797,1,0
152,72,82251,2,0,B|124:72|124:100,1,45
360,312,82933,2,0,B|388:312|388:284,1,45
200,264,83388,2,0,B|200:292|228:292,1,45
312,120,83842,2,0,B|312:92|284:92,1,45
192,192,84524,1,0
320,192,84751,1,0
256,300,84979,1,0
256,172,85206,1,0
256,48,85433,1,0
256,192,85888,5,0
256,192,86001,12,0,87706
256,56,88047,5,0
256,56,88160,5,0
376,24,88388,2,0,B|316:24|316:24|348:92|308:148,1,180
136,24,89069,2,0,B|196:24|196:24|164:92|204:148,1,180
84,192,89751,2,0,B|156:248,1,90
276,208,90206,2,0,B|192:144,1,90
324,112,90660,2,0,B|388:35|411:175|492:85,1,180
408,196,91342,2,0,B|472:208|488:256|440:312,1,135
453,294,91797,1,0
340,348,92024,1,0
260,252,92251,1,0
340,156,92479,1,0
256,60,92706,1,0
256,192,93160,12,0,94979
256,288,95319,5,0
256,288,95433,1,0
136,324,95660,2,0,B|116:192|256:192,1,180
376,324,96342,2,0,B|396:192|256:192,1,180
400,132,97024,1,0
276,116,97251,1,0
380,48,97479,1,0
468,140,97706,2,0,B|468:200|424:248,1,90
416,224,98047,1,0
384,224,98160,2,0,B|312:224|284:180,1,90
128,48,98615,2,0,B|64:72|108:152,1,90
96,120,98956,1,0
96,120,99069,1,0
224,112,99297,1,0
100,288,99524,1,0
120,288,99638,1,0
412,96,99865,1,0
392,96,99979,1,0
256,276,100206,2,0,B|256:148,1,90
256,60,100660,6,0,B|200:32|112:48|88:80,1,180
64,204,101342,1,0
132,308,101569,1,0
256,324,101797,2,0,B|324:316|336:292,1,90
384,176,102251,5,0
272,116,102479,1,0
384,176,102706,1,0
272,116,102933,1,0
384,176,103160,1,0
384,176,103388,1,0
152,276,103842,5,0
212,164,104069,2,0,B|256:152|300:164,2,90
324,224,104751,1,0
368,108,104979,1,0
256,48,105206,1,0
144,108,105433,2,0,B|100:140|124:188,1,90
192,292,105888,1,0
320,292,106115,1,0
364,172,106342,2,0,B|320:92,1,90
192,92,106797,2,0,B|148:170,1,90
320,316,107479,5,0
432,256,107706,1,0
432,132,107933,1,0
320,192,108160,1,0
192,192,108388,5,0
80,132,108615,1,0
80,256,108842,1,0
192,316,109069,1,0
300,252,109297,5,0
192,192,109524,1,0
136,80,109751,1,0
256,40,109979,1,0
376,80,110206,1,0
320,192,110433,1,0
256,300,110660,1,0
384,300,110888,6,0,B|296:300,1,90
420,300,111342,1,0
168,300,111797,1,0
168,48,112251,6,0,B|288:48,1,90
384,48,112706,1,0
128,48,112933,1,0
304,100,114979,5,0
420,144,115206,2,0,B|372:68,2,90
420,172,115774,1,0
420,200,115888,2,0,B|420:300,1,90
344,188,116342,2,0,B|436:128,1,90
312,80,116797,2,0,B|224:20,1,90
164,132,117251,1,0
180,256,117479,1,0
276,176,117706,1,0
304,300,117933,1,0
420,192,118160,5,0
256,192,118388,5,0
256,356,118615,5,0
92,192,118842,5,0
256,28,119069,5,0
256,192,119297,1,0
256,356,119524,5,0
420,192,119751,5,0
256,28,119979,5,0
140,80,120206,2,0,B|228:164,2,90
256,192,120888,1,0
256,192,121001,1,0
256,192,121115,1,0
324,84,121342,1,0
444,120,121569,1,0
444,120,121683,1,0
392,236,121910,1,0
392,236,122024,1,0
444,120,122251,1,0
416,120,122365,1,0
384,120,122479,1,0
356,120,122592,1,0
328,120,122706,1,0
256,212,122933,2,0,B|256:320,1,90
168,212,123388,2,0,B|168:88,1,90
80,212,123842,2,0,B|80:320,1,90
204,332,124297,1,0
384,272,124524,1,0
376,64,124751,1,0
132,40,124979,1,0
124,168,125206,1,0
124,168,125433,1,0
256,56,125660,1,0
256,56,125888,1,0
256,208,126115,1,0
256,236,126229,1,0
256,264,126342,2,0,B|256:356,2,90
360,192,127024,1,0
256,120,127251,1,0
152,192,127479,1,0
404,192,127706,5,0
208,304,128047,1,0
160,120,128388,1,0
108,192,128615,5,0
304,80,128956,1,0
304,304,129297,1,0
212,280,129524,2,0,B|120:192|212:104,1,202.500007724762
380,192,130660,1,0
380,192,130888,5,0
380,192,131115,1,0
380,192,131342,2,0,B|344:192|348:156|380:152|380:152|416:148|452:192|440:228|416:264|380:264|344:264,1,270.000010299683
204,140,132706,5,0
188,48,132933,1,0
116,108,133160,1,0
308,244,134296,5,0
308,292,134410,1,0
348,268,134523,1,0
268,220,134751,1,0
268,316,134979,1,0
44,192,136342,5,0
72,100,136570,1,0
160,64,136797,2,0,B|256:8|352:64,1,202.500007724762
392,248,137933,1,0
468,192,138161,1,0
440,284,138388,1,0
352,319,138615,2,0,B|256:376|160:320,1,202.500007724762
256,52,139979,5,0
208,136,140206,1,0
304,136,140433,1,0
216,316,141570,5,0
256,340,141683,1,0
296,316,141797,1,0
208,280,142024,1,0
304,280,142251,1,0
304,200,143615,5,0
208,200,143842,1,0
156,280,144070,6,0,B|244:205,1,90
224,222,144410,1,0
224,222,144524,1,0
256,68,144751,6,0,B|256:184,1,90
256,156,145092,1,0
256,156,145206,1,0
356,280,145433,6,0,B|267:205,1,90
288,222,145774,1,0
288,222,145888,1,0
256,100,146115,5,0
148,40,146342,1,0
92,64,146456,1,0
80,124,146569,1,0
140,236,146797,1,0
256,284,147024,1,0
364,344,147251,1,0
420,320,147365,1,0
432,260,147478,1,0
132,196,147706,6,0,B|192:140,3,45
224,140,148160,1,0
288,140,148274,1,0
328,188,148388,1,0
316,248,148501,1,0
256,264,148615,2,0,B|256:204,3,45
196,248,149070,1,0
184,188,149183,1,0
224,140,149297,1,0
288,140,149410,1,0
328,188,149524,1,0
144,144,153160,5,0
268,124,153388,2,0,B|312:168,1,45
404,228,153729,2,0,B|364:276,1,45
256,300,154069,1,0
148,236,154297,1,0
168,212,154410,1,0
144,176,154524,1,0
172,152,154638,1,0
140,116,154751,1,0
256,64,154979,1,0
372,112,155206,1,0
372,112,155319,1,0
372,112,155433,2,0,B|420:188|408:232,1,90
408,216,155774,1,0
404,248,155888,2,0,B|332:256|292:220,1,90
220,156,156342,2,0,B|292:164|332:128,1,90
192,44,156797,2,0,B|288:44|288:44|320:92|320:144|288:176|236:204,1,270
255,192,157706,1,0
320,340,157933,2,0,B|224:340|224:340|192:292|192:240|224:208|256:192,1,270
128,192,158842,2,0,B|208:112,1,90
384,192,159297,2,0,B|320:255,1,90
256,148,159751,1,0
192,40,159979,1,0
192,40,160092,1,0
192,40,160206,2,0,B|156:72|156:136,1,90
180,244,160660,1,0
156,120,160888,1,0
276,152,161115,1,0
380,80,161342,2,0,B|380:176,2,90
380,170,162024,1,0
308,302,162251,2,0,B|308:212,1,90
180,212,162706,2,0,B|180:92,1,90
56,100,163160,2,0,B|56:0,1,90
56,196,163615,1,0
180,212,163842,1,0
256,312,164069,1,0
276,292,164183,1,0
296,268,164297,1,0
396,192,164524,1,0
296,116,164751,1,0
276,92,164865,1,0
256,72,164979,1,0
296,192,165206,2,0,B|200:192,1,90
176,192,165547,1,0
148,192,165660,1,0
108,192,165888,5,0
304,80,166229,1,0
352,264,166569,1,0
404,192,166797,5,0
208,304,167138,5,0
208,80,167479,1,0
256,192,167706,5,0
256,192,167820,12,0,169524
232,212,169865,1,0
272,164,169979,1,0
380,224,170206,1,0
292,312,170433,1,0
256,192,170660,1,0
164,108,170888,1,0
416,96,171342,2,0,B|480:160,1,90
480,288,171797,1,0
352,288,172024,2,0,B|288:226,1,90
292,100,172479,2,0,B|356:36,1,90
480,36,172933,1,0
480,164,173160,2,0,B|416:228,1,90
352,228,173501,1,0
308,184,173615,1,0
220,96,173842,1,0
220,224,174070,2,0,B|263:265,1,45
316,252,174297,2,0,B|352:216,1,45
348,156,174524,2,0,B|284:92,1,90
256,192,174979,12,0,176797
224,344,177024,5,0
288,348,177138,1,0
288,224,177365,1,0
224,220,177479,1,0
192,96,177706,1,0
320,96,177933,1,0
460,224,178274,1,0
436,284,178388,1,0
380,308,178501,1,0
252,308,178729,2,0,B|208:308,1,45
256,192,179070,1,0
256,68,179297,1,0
380,76,179524,1,0
436,100,179637,1,0
460,160,179751,1,0
436,284,179979,1,0
312,308,180206,1,0
188,308,180433,2,0,B|144:280,1,45
148,220,180660,1,0
224,120,180888,1,0
256,240,181115,1,0
324,132,181342,2,0,B|368:160,1,45
364,220,181569,1,0
288,320,181797,1,0
256,200,182024,1,0
120,64,182251,6,0,B|200:68|196:160,1,135.000005149842
100,156,182933,1,0
148,236,183160,1,0
196,156,183388,1,0
256,84,183615,2,0,B|316:32,1,67.5000025749208
307,39,184069,2,0,B|376:40,1,67.5000025749208
374,39,184524,2,0,B|424:96,1,67.5000025749208
419,90,184979,2,0,B|420:160,1,67.5000025749208
340,212,185433,1,0
292,132,185660,1,0
292,132,185774,1,0
292,132,185888,2,0,B|276:68|408:64|300:8,1,135.000005149842
256,32,186569,1,0
220,132,186797,2,0,B|236:68|104:64|212:8,1,135.000005149842
92,40,187479,1,0
92,72,187592,1,0
92,112,187706,1,0
140,192,187933,1,0
160,220,188047,1,0
180,244,188160,1,0
256,184,188388,1,0
256,152,188501,1,0
256,116,188615,1,0
256,80,188729,1,0
256,44,188842,1,0
352,44,189070,2,0,B|400:52|396:104,1,67.5000025749208
404,180,189524,1,0
348,256,189751,1,0
256,272,189979,1,0
256,36,190547,1,0
328,160,190888,2,0,B|272:220,1,67.5000025749208
188,208,191342,1,0
140,204,191456,1,0
164,244,191570,1,0
120,160,191797,1,0
176,260,192024,1,0
208,240,192251,1,0
208,240,192479,1,0
268,212,192706,1,0
68,200,192933,2,0,B|144:180,1,67.5000025749208
104,112,193388,1,0
204,140,193615,1,0
204,140,193729,1,0
204,140,193842,1,0
124,232,194070,2,0,B|204:232,1,67.5000025749208
124,164,194524,1,0
124,164,194638,1,0
124,164,194751,1,0
96,84,194979,2,0,B|148:68,1,33.7500012874604
276,88,195206,2,0,B|228:112,1,33.7500012874604
60,264,195433,2,0,B|116:260,1,33.7500012874604
436,300,195660,2,0,B|388:288,1,33.7500012874604
344,176,195888,2,0,B|288:184,1,33.7500012874604
168,248,196115,2,0,B|228:252,1,33.7500012874604
328,288,196342,2,0,B|276:304,1,33.7500012874604
256,188,196797,5,0
92,320,198615,6,0,B|180:245,1,90
160,262,198956,1,0
160,262,199069,1,0
52,196,199297,1,0
180,48,199524,1,0
180,48,199638,1,0
320,208,199865,1,0
320,208,199979,1,0
456,52,200206,2,0,B|456:288,1,180
432,288,200888,1,0
432,288,201001,1,0
432,288,201115,1,0
304,292,201342,1,0
220,232,201570,1,0
156,168,201797,1,0
156,168,201910,1,0
156,168,202024,1,0
156,168,202138,1,0
156,168,202251,1,0
244,164,202479,1,0
268,200,202706,1,0
268,200,202820,1,0
268,200,202933,1,0
268,200,203047,1,0
268,200,203160,1,0
268,200,203388,1,0
268,200,203615,1,0
268,200,203729,1,0
268,200,203842,1,0
268,200,204070,1,0
80,236,204297,2,0,B|176:172,1,90
108,116,204751,1,0
196,116,204979,1,0
196,116,205092,1,0
196,116,205206,1,0
220,200,205433,2,0,B|320:196,1,90
152,196,205888,1,0
244,272,206115,1,0
244,272,206342,1,0
244,272,206456,1,0
244,272,206570,1,0
56,120,206797,2,0,B|124:120,1,45
400,148,207024,2,0,B|336:156,1,45
120,276,207251,2,0,B|184:272,1,45
256,84,207479,1,0
256,192,207706,5,0
256,192,207819,12,0,209524
256,80,209751,5,0
256,112,209865,1,0
256,148,209979,1,0
148,312,210206,1,0
148,312,210433,2,0,B|88:268|96:216,1,90
364,312,210888,2,0,B|424:268|416:216,1,90
368,64,211342,1,0
456,156,211569,2,0,B|416:200|420:268,1,90
416,268,211910,1,0
416,304,212024,1,0
292,312,212251,1,0
292,280,212365,1,0
292,244,212479,1,0
292,208,212592,1,0
292,176,212706,1,0
392,96,212933,1,0
196,96,213160,2,0,B|128:124|124:172,1,90
128,184,213501,1,0
128,216,213615,2,0,B|132:292|152:308,1,90
352,96,214069,2,0,B|352:160,1,45
160,288,214410,2,0,B|160:224,1,45
184,48,214751,2,0,B|76:40|64:160,1,180
292,208,215433,1,0
260,208,215660,1,0
260,208,215888,1,0
260,208,216115,1,0
260,208,216342,1,0
256,192,216797,5,0
256,192,223234,5,0
320,96,223580,1,0
320,96,223696,2,0,B|416:96|416:96|448:176,1,180
480,320,224388,1,0
352,320,224619,2,0,B|296:292|352:224,1,90
160,320,225080,2,0,B|224:288|160:224,1,90
96,128,225542,1,0
256,32,225773,1,0
256,160,226003,1,0
256,288,226234,1,0
372,236,226465,2,0,B|372:140,2,90
308,344,227153,1,0
308,344,227269,2,0,B|200:328|240:244|176:308,1,135
256,204,227845,1,0
256,168,227961,1,0
256,132,228076,1,0
148,116,228307,2,0,B|148:224|148:224,1,90
32,260,228769,2,0,B|32:356,1,90
148,296,229230,1,0
56,168,229461,1,0
240,64,229692,1,0
448,184,229922,1,0
256,336,230153,1,0
156,260,230384,2,0,B|188:212|148:164,1,90
64,92,230845,2,0,B|188:92,1,90
