osu file format v11

[General]
AudioFilename: 03 .mp3
AudioLeadIn: 0
PreviewTime: 69846
Countdown: 0
SampleSet: Normal
StackLeniency: 0.7
Mode: 0
LetterboxInBreaks: 0

[Editor]
Bookmarks: 17569
DistanceSpacing: 2
BeatDivisor: 4
GridSize: 4

[Metadata]
Title:GANGNAM STYLE
TitleUnicode:GANGNAM STYLE
Artist:PSY
ArtistUnicode:PSY
Creator:DaRRi MIx
Version:Relaxing
Source:
Tags:kpop
BeatmapID:187249
BeatmapSetID:61963

[Difficulty]
HPDrainRate:5
CircleSize:4
OverallDifficulty:7
ApproachRate:7
SliderMultiplier:1.4
SliderTickRate:1

[Events]
//Background and Video events
0,0,"Background.jpg"
Video,-200,"Gangnam Style.avi"
//Break Periods
2,67769,68935
2,149587,150753
2,182314,188480
//Storyboard Layer 0 (Background)
//Storyboard Layer 1 (Fail)
//Storyboard Layer 2 (Pass)
//Storyboard Layer 3 (Foreground)
//Storyboard Sound Samples
//Background Colour Transformations
3,100,0,0,0

[TimingPoints]
3926,454.545454545455,4,1,0,70,1,0
69380,-100,4,2,0,20,0,0
70971,-100,4,1,0,70,0,0
71198,-100,4,1,0,70,0,1
100289,-200,4,1,0,70,0,0
111198,-100,4,1,0,70,0,0
151198,-100,4,2,0,20,0,0
152789,-100,4,1,0,70,0,0
153016,-100,4,1,0,70,0,1
182107,-100,4,1,0,70,0,0
200289,-100,4,1,0,70,0,1
214835,-100,4,2,0,20,0,0
216426,-100,4,1,0,70,0,0
216653,-100,4,1,0,70,0,1
216766,-100,4,1,0,70,0,0

[Colours]
Combo1 : 213,255,43
Combo2 : 255,236,0
Combo3 : 255,255,255
Combo4 : 255,191,0

[HitObjects]
128,96,18471,2,0,B|96:32,2,70,4|0|0,0:0|0:0|0:0,0:0:0
192,64,19153,2,0,B|224:32|288:32|320:64,1,140
384,32,19835,2,0,B|416:96,1,70
480,64,20289,6,0,B|512:128,1,70
480,192,20744,2,0,B|416:224,1,70
384,288,21198,2,0,B|416:352,1,70
32,288,21880,1,0,0:0:0
96,320,22107,6,0,B|128:256,1,70
192,288,22562,2,0,B|224:352,1,70
288,320,23016,2,0,B|320:256,1,70
384,288,23471,2,0,B|416:352,1,70
480,320,23926,6,0,B|480:224,3,70
480,176,24835,2,0,B|480:80,1,70
256,144,25516,1,0,0:0:0
256,64,25744,6,0,B|224:32|160:32|128:64,3,140
256,64,27562,2,0,B|288:32|352:32|384:64,2,140
256,336,28926,2,0,B|256:240,1,70
256,192,29380,5,0,0:0:0
320,96,29835,1,0,0:0:0
192,96,30289,1,0,0:0:0
256,192,30744,1,0,0:0:0
336,192,30971,1,0,0:0:0
416,192,31198,5,2,0:0:0
416,192,31653,1,2,0:0:0
96,192,32107,1,2,0:0:0
96,192,32562,1,2,0:0:0
0,320,33016,6,0,B|64:352,1,70,4|0,0:0|0:0,0:0:0
144,352,33471,2,0,B|196:272|332:272|384:352,1,280,8|8,0:0|0:0,0:0:0
448,320,34607,1,0,0:0:0
416,254,34835,6,0,B|448:192,1,70,0|0,0:0|0:0,0:0:0
510,223,35289,2,0,B|448:192,1,70,8|0,0:0|0:0,0:0:0
385,160,35744,2,0,B|448:192,1,70
479,129,36198,2,0,B|448:192,1,70,8|0,0:0|0:0,0:0:0
512,64,36653,6,0,B|448:32,1,70
368,32,37107,2,0,B|316:112|180:112|128:32,1,280,8|8,0:0|0:0,0:0:0
96,96,38244,1,0,0:0:0
64,160,38471,6,0,B|16:128|0:64,2,105
96,224,39380,2,0,B|32:256,3,70,0|0|8|0,0:0|0:0|0:0|0:0,0:0:0
0,320,40289,6,0,B|64:352,1,70,4|0,0:0|0:0,0:0:0
128,320,40744,2,0,B|192:256|320:256|384:320,1,280,8|8,0:0|0:0,0:0:0
448,352,41880,1,0,0:0:0
480,288,42107,6,0,B|416:256,1,70
384,192,42562,2,0,B|448:160,1,70,8|0,0:0|0:0,0:0:0
480,96,43016,2,0,B|416:64,1,70
352,32,43471,2,0,B|320:96,1,70,8|0,0:0|0:0,0:0:0
256,128,43926,6,0,B|192:96,2,70,0|0|8,0:0|0:0|0:0,0:0:0
256,272,44835,2,0,B|256:176,1,70
256,128,45289,2,0,B|320:96,2,70,8|0|2,0:0|0:0|0:0,0:0:0
256,128,46198,5,10,0:0:0
256,361,46653,2,0,B|188:320|256:288,1,105,2|8,0:0|0:0,0:0:0
320,288,47107,2,0,B|384:320,1,70,10|0,0:0|0:0,0:0:0
448,352,47562,2,0,B|496:304|496:208|448:160,1,210,4|0,0:0|0:0,0:0:0
448,32,48698,5,0,0:0:0
384,64,48926,1,0,0:0:0
320,96,49153,1,0,0:0:0
256,64,49380,2,0,B|208:16|112:16|64:64,1,210
192,288,50744,6,0,B|96:288,1,70
64,352,51198,2,0,B|16:304|16:208|64:160,1,210,0|2,0:0|0:0,0:0:0
390,288,52335,6,0,B|320:288,2,70
448,352,53016,2,0,B|496:304|496:208|448:160,1,210,0|2,0:0|0:0,0:0:0
192,288,54380,6,0,B|128:320,1,70
64,352,54835,2,0,B|16:304|16:208|64:160,1,210,4|0,0:0|0:0,0:0:0
64,32,55971,5,0,0:0:0
128,64,56198,1,0,0:0:0
192,96,56426,1,0,0:0:0
256,64,56653,2,0,B|304:16|400:16|448:64,1,210
320,288,58016,6,0,B|416:288,1,70
448,352,58471,2,0,B|496:304|496:208|448:160,1,210,0|2,0:0|0:0,0:0:0
122,160,59607,6,0,B|192:160,2,70
64,224,60289,2,0,B|16:176|16:80|64:32,1,210,0|2,0:0|0:0,0:0:0
256,192,61653,12,0,67562,0:0:0
181,235,69835,5,0,0:0:0
256,192,70062,1,0,0:0:0
256,105,70289,1,2,0:0:0
256,192,70516,1,0,0:0:0
331,235,70744,1,0,0:0:0
32,352,71198,6,0,B|160:352,1,105,4|0,0:0|0:0,0:0:0
160,288,71653,2,0,B|64:288,1,70,8|0,0:0|0:0,0:0:0
32,224,72107,2,0,B|128:224,1,70
32,160,72562,2,0,B|128:160,1,70,8|0,0:0|0:0,0:0:0
160,96,73016,6,0,B|32:96,1,105
32,32,73471,2,0,B|128:32,1,70,8|0,0:0|0:0,0:0:0
160,32,73925,1,0,0:0:0
224,64,74153,1,0,0:0:0
288,32,74380,1,8,0:0:0
352,64,74607,1,0,0:0:0
416,32,74835,6,0,B|512:32|512:128,1,140,0|8,0:0|0:0,0:0:0
480,192,75516,2,0,B|384:192|384:96,2,140
512,272,76653,6,0,B|464:264|416:304|416:352,1,140,0|8,0:0|0:0,0:0:0
346,301,77335,1,0,0:0:0
261,311,77562,1,0,0:0:0
192,259,77789,1,0,0:0:0
106,270,78016,1,8,0:0:0
480,352,78471,6,0,B|352:352,1,105,4|0,0:0|0:0,0:0:0
352,288,78925,2,0,B|448:288,1,70,8|0,0:0|0:0,0:0:0
480,224,79380,2,0,B|384:224,1,70
480,160,79835,2,0,B|384:160,1,70,8|0,0:0|0:0,0:0:0
352,96,80289,6,0,B|480:96,1,105
480,32,80744,2,0,B|384:32,1,70,8|0,0:0|0:0,0:0:0
352,32,81198,1,0,0:0:0
288,64,81425,1,0,0:0:0
224,32,81653,1,8,0:0:0
160,64,81880,1,0,0:0:0
96,32,82107,6,0,B|0:32|0:128,1,140,0|8,0:0|0:0,0:0:0
32,192,82789,2,0,B|128:192|128:96,2,140
0,272,83925,6,0,B|48:368,2,105,2|2|2,0:0|0:0|0:0,0:0:0
96,288,84835,2,0,B|224:288,2,105,2|2|2,0:0|0:0|0:0,0:0:0
256,192,85744,12,0,87562,0:0:0
256,160,88016,5,8,0:0:0
256,80,88244,1,0,0:0:0
256,160,88471,2,2,B|240:192|272:272|256:304,1,140,0|8,0:0|0:0,0:0:0
400,320,89380,6,0,B|480:304|496:224,1,140,0|8,0:0|0:0,0:0:0
494,154,90062,2,0,B|479:79|399:63,2,140
432,192,91198,6,0,B|272:192,1,140,0|8,0:0|0:0,0:0:0
220,192,91880,1,0,0:0:0
156,160,92107,1,0,0:0:0
92,192,92335,1,0,0:0:0
20,192,92562,1,8,0:0:0
256,192,93016,12,0,94835,0:0:0
256,224,95289,5,8,0:0:0
256,304,95516,1,0,0:0:0
256,224,95744,2,2,B|272:192|240:112|256:80,1,140,0|8,0:0|0:0,0:0:0
112,64,96653,6,0,B|32:80|16:160,1,140,0|8,0:0|0:0,0:0:0
18,230,97335,2,0,B|32:304|112:320,2,140
96,192,98471,5,2,0:0:0
192,224,98812,1,2,0:0:0
288,256,99153,1,2,0:0:0
352,288,99380,1,2,0:0:0
384,192,99721,1,2,0:0:0
416,96,100062,1,2,0:0:0
480,64,100289,6,0,B|496:128,2,52.5,4|0|0,0:0|0:0|0:0,0:0:0
416,32,101198,2,0,B|368:32,1,35
320,64,101653,2,0,B|272:64,1,35
224,32,102107,6,0,B|176:32,1,35
128,64,102562,2,0,B|80:64,1,35
32,96,103016,2,0,B|16:64,2,35
64,160,103698,1,0,0:0:0
96,224,103925,6,0,B|160:224,1,35
160,160,104380,2,0,B|224:160,1,35
224,224,104835,2,0,B|288:224,1,35
288,160,105289,2,0,B|352:160,1,35
360,224,105744,6,0,B|392:192,1,35
448,160,106198,2,0,B|480:192,1,35
496,256,106653,2,0,B|512:320,2,52.5
416,256,107562,6,0,B|416:320,1,35
352,320,108016,2,0,B|352:256,1,35,0|0,0:0|0:0,0:0:0
288,256,108471,2,0,B|288:320,1,35
224,320,108925,2,0,B|224:256,1,35,0|0,0:0|0:0,0:0:0
160,256,109380,6,0,B|160:320,1,35
96,288,109835,2,0,B|96:352,1,35
32,288,110289,2,0,B|32:224,1,35,0|0,0:0|0:0,0:0:0
32,160,110744,2,0,B|96:160,1,35
160,160,111198,5,0,0:0:0
256,160,111653,1,0,0:0:0
352,128,112107,2,0,B|380:192,1,70
452,192,112562,2,0,B|480:128,1,70
480,32,113016,5,2,0:0:0
368,32,113471,1,2,0:0:0
256,32,113925,2,0,B|192:64|128:32,1,105,2|8,0:0|0:0,0:0:0
96,32,114380,2,0,B|64:96,1,70,10|0,0:0|0:0,0:0:0
32,160,114835,6,0,B|96:192,1,70,4|0,0:0|0:0,0:0:0
128,256,115289,2,0,B|56:280|32:352,2,140,8|0|8,0:0|0:0|0:0,0:0:0
192,288,116425,1,0,0:0:0
256,256,116653,6,0,B|224:192,1,70
256,128,117107,2,0,B|320:96,1,70,8|0,0:0|0:0,0:0:0
352,160,117562,2,0,B|320:224,1,70
384,256,118016,2,0,B|448:288,1,70,8|0,0:0|0:0,0:0:0
480,224,118471,6,0,B|416:192,1,70
384,128,118925,2,0,B|456:104|480:32,2,140,8|0|8,0:0|0:0|0:0,0:0:0
320,96,120062,1,0,0:0:0
288,32,120289,6,0,B|224:32|160:0,2,105
256,96,121198,2,0,B|160:96,1,70
120,64,121653,2,0,B|56:96,1,70,8|0,0:0|0:0,0:0:0
32,160,122107,6,0,B|96:192,1,70,4|0,0:0|0:0,0:0:0
128,256,122562,2,0,B|56:280|32:352,2,140,8|0|8,0:0|0:0|0:0,0:0:0
192,224,123698,1,0,0:0:0
224,288,123925,6,0,B|288:320,1,70
320,256,124380,2,0,B|384:224,1,70,8|0,0:0|0:0,0:0:0
448,192,124835,2,0,B|416:128,1,70
352,96,125289,2,0,B|320:160,1,70,8|0,0:0|0:0,0:0:0
256,192,125744,6,0,B|192:224,2,70,0|0|8,0:0|0:0|0:0,0:0:0
256,48,126653,2,0,B|256:128,1,70
256,192,127107,2,0,B|320:224,2,70,8|0|2,0:0|0:0|0:0,0:0:0
256,192,128016,5,10,0:0:0
256,320,128471,2,0,B|360:344,1,105,2|8,0:0|0:0,0:0:0
384,288,128925,2,0,B|448:320,1,70,10|0,0:0|0:0,0:0:0
512,352,129380,5,2,0:0:0
496,272,129721,1,2,0:0:0
480,192,130062,1,2,0:0:0
464,112,130403,1,2,0:0:0
448,32,130744,1,0,0:0:0
320,96,131198,5,2,0:0:0
240,80,131539,1,2,0:0:0
160,64,131880,1,2,0:0:0
80,48,132221,1,2,0:0:0
0,32,132562,1,2,0:0:0
0,96,132789,1,2,0:0:0
0,160,133016,5,2,0:0:0
80,176,133357,1,2,0:0:0
64,256,133698,1,2,0:0:0
144,272,134039,1,2,0:0:0
128,352,134380,1,0,0:0:0
384,352,134835,5,2,0:0:0
368,272,135176,1,2,0:0:0
448,256,135516,1,2,0:0:0
416,192,135744,1,2,0:0:0
416,192,135971,1,2,0:0:0
448,128,136198,1,2,0:0:0
448,128,136425,1,2,0:0:0
416,64,136653,5,6,0:0:0
336,128,136994,1,2,0:0:0
256,192,137335,1,2,0:0:0
176,256,137676,1,2,0:0:0
96,320,138016,1,0,0:0:0
96,64,138471,5,2,0:0:0
176,128,138812,1,2,0:0:0
256,192,139153,1,2,0:0:0
336,256,139494,1,2,0:0:0
416,320,139835,5,2,0:0:0
416,240,140062,1,0,0:0:0
416,160,140289,2,0,B|320:144|320:48|416:32,1,210,4|0,0:0|0:0,0:0:0
96,64,141425,5,0,0:0:0
96,64,141653,1,0,0:0:0
96,144,141880,1,0,0:0:0
96,224,142107,2,0,B|192:240|192:336|96:352,1,210,4|0,0:0|0:0,0:0:0
256,192,143471,12,0,149380,0:0:0
180,148,151653,5,0,0:0:0
256,192,151880,1,0,0:0:0
330,148,152107,1,2,0:0:0
256,192,152335,1,0,0:0:0
256,278,152562,1,0,0:0:0
416,352,153016,6,0,B|340:320|416:288,1,105,4|0,0:0|0:0,0:0:0
480,320,153471,2,0,B|512:256,1,70,8|0,0:0|0:0,0:0:0
416,288,153925,2,0,B|384:224,1,70
385,226,154380,2,0,B|353:162,1,70,8|0,0:0|0:0,0:0:0
448,192,154835,6,0,B|524:160|448:128,1,105
384,160,155289,2,0,B|352:96,1,70,8|0,0:0|0:0,0:0:0
320,32,155744,1,0,0:0:0
256,80,155971,1,0,0:0:0
192,32,156198,1,8,0:0:0
128,80,156425,1,0,0:0:0
64,32,156653,6,0,B|8:40|8:120|64:128,1,140,0|8,0:0|0:0,0:0:0
0,160,157335,2,0,B|64:192,1,70
0,224,157789,2,0,B|64:256,1,70,0|8,0:0|0:0,0:0:0
32,320,158244,1,0,0:0:0
96,352,158471,6,0,B|172:320|96:288,1,105
95,287,158925,1,8,0:0:0
160,240,159153,1,0,0:0:0
224,288,159380,1,0,0:0:0
288,240,159607,1,0,0:0:0
352,288,159835,1,8,0:0:0
96,352,160289,6,0,B|172:320|96:288,1,105,4|0,0:0|0:0,0:0:0
32,320,160744,2,0,B|0:256,1,70,8|0,0:0|0:0,0:0:0
96,288,161198,2,0,B|128:224,1,70
127,226,161653,2,0,B|159:162,1,70,8|0,0:0|0:0,0:0:0
64,192,162107,6,0,B|-12:160|64:128,1,105
128,160,162562,2,0,B|160:96,1,70,8|0,0:0|0:0,0:0:0
192,32,163016,1,0,0:0:0
256,80,163244,1,0,0:0:0
320,32,163471,1,8,0:0:0
384,80,163698,1,0,0:0:0
448,32,163925,6,0,B|504:40|504:120|448:128,1,140,0|8,0:0|0:0,0:0:0
512,160,164607,2,0,B|448:192,1,70
512,224,165062,2,0,B|448:256,1,70,0|8,0:0|0:0,0:0:0
480,320,165516,1,0,0:0:0
416,352,165744,6,0,B|288:352,2,105,2|2|2,0:0|0:0|0:0,0:0:0
384,288,166653,2,0,B|336:176,2,105,2|2|2,0:0|0:0|0:0,0:0:0
256,192,167562,12,0,169380,0:0:0
256,352,169835,5,8,0:0:0
256,272,170062,1,0,0:0:0
320,312,170289,2,2,B|352:328|432:296|464:312,1,140,0|8,0:0|0:0,0:0:0
432,32,171198,6,0,B|272:64,1,140,0|8,0:0|0:0,0:0:0
217,59,171880,2,0,B|80:32,2,140
192,128,173016,2,0,B|89:107,1,105
89,107,173471,1,8,0:0:0
57,171,173698,1,0,0:0:0
89,235,173925,1,0,0:0:0
57,299,174153,1,0,0:0:0
89,363,174380,1,8,0:0:0
256,192,174835,12,0,176653,0:0:0
256,352,177107,5,8,0:0:0
256,272,177335,1,0,0:0:0
192,312,177562,2,2,B|160:328|80:296|48:312,1,140,0|8,0:0|0:0,0:0:0
80,32,178471,6,0,B|240:64,1,140,0|8,0:0|0:0,0:0:0
294,59,179153,2,0,B|432:32,2,140
320,128,180289,5,2,0:0:0
224,160,180630,1,2,0:0:0
128,192,180971,1,2,0:0:0
64,224,181198,1,2,0:0:0
160,256,181539,1,2,0:0:0
256,288,181880,1,2,0:0:0
288,352,182107,1,4,0:0:0
480,64,189380,6,0,B|416:96,1,70
320,32,189835,2,0,B|288:64|288:128|320:160,1,140
256,256,190516,2,0,B|224:320,2,70
192,160,191198,6,0,B|128:128,1,70
32,192,191653,2,0,B|0:160|0:96|32:64,1,140
32,352,192562,1,0,0:0:0
64,288,192789,1,0,0:0:0
96,224,193016,5,0,0:0:0
128,288,193244,1,0,0:0:0
160,352,193471,1,0,0:0:0
192,288,193698,1,0,0:0:0
224,224,193926,2,0,B|256:288,1,70
288,352,194380,2,0,B|320:288,1,70
352,224,194835,5,0,0:0:0
384,288,195062,1,0,0:0:0
416,352,195289,5,0,0:0:0
480,288,195516,1,0,0:0:0
416,224,195744,1,0,0:0:0
480,160,195971,1,0,0:0:0
416,96,196198,2,0,B|476:60|476:60|416:24,1,140,4|0,0:0|0:0,0:0:0
112,368,198471,5,2,0:0:0
112,368,198812,1,2,0:0:0
112,368,199153,1,2,0:0:0
176,336,199380,1,2,0:0:0
176,336,199721,1,2,0:0:0
176,336,200062,1,2,0:0:0
112,368,200289,6,0,B|36:336|112:304,1,105,4|0,0:0|0:0,0:0:0
176,336,200744,2,0,B|208:272,1,70,8|0,0:0|0:0,0:0:0
112,304,201198,2,0,B|80:240,1,70
81,241,201653,2,0,B|49:177,1,70,8|0,0:0|0:0,0:0:0
144,208,202107,6,0,B|220:176|144:144,1,105
80,176,202562,2,0,B|48:112,1,70,8|0,0:0|0:0,0:0:0
144,144,203016,2,0,B|176:80,1,70
175,81,203471,2,0,B|207:17,1,70,8|0,0:0|0:0,0:0:0
304,16,203926,6,0,B|432:16,1,105
464,64,204380,2,0,B|368:64,1,70,8|0,0:0|0:0,0:0:0
304,112,204835,2,0,B|400:112,1,70
304,160,205289,2,0,B|400:160,1,70,8|0,0:0|0:0,0:0:0
464,208,205744,6,0,B|336:208,1,105
304,256,206198,2,0,B|400:256,1,70,8|0,0:0|0:0,0:0:0
464,304,206653,2,0,B|368:304,1,70
464,352,207107,2,0,B|368:352,1,70,8|0,0:0|0:0,0:0:0
288,352,207562,2,0,P|100:192|288:32,1,560,4|0,0:0|0:0,0:0:0
480,32,209835,5,8,0:0:0
480,120,210062,1,0,0:0:0
480,208,210289,2,2,B|464:240|496:320|480:352,1,140,0|8,0:0|0:0,0:0:0
304,240,211198,6,0,B|352:216|352:152|304:128,1,140,0|8,0:0|0:0,0:0:0
208,128,211880,2,0,B|160:152|160:216|208:240,2,140
304,128,213016,5,2,0:0:0
304,128,213357,1,2,0:0:0
304,128,213698,1,2,0:0:0
208,128,213926,1,2,0:0:0
208,128,214266,1,2,0:0:0
208,128,214607,1,2,0:0:0
256,48,214835,5,0,0:0:0
256,352,215289,5,0,0:0:0
256,272,215516,1,0,0:0:0
256,192,215744,1,2,0:0:0
256,272,215971,1,0,0:0:0
256,352,216198,1,0,0:0:0
256,192,216653,5,6,0:0:0
