osu file format v11

[General]
AudioFilename: 03 .mp3
AudioLeadIn: 0
PreviewTime: 69846
Countdown: 0
SampleSet: Normal
StackLeniency: 0.7
Mode: 0
LetterboxInBreaks: 0

[Editor]
Bookmarks: 17569
DistanceSpacing: 1.8
BeatDivisor: 4
GridSize: 16

[Metadata]
Title:GANGNAM STYLE
TitleUnicode:GANGNAM STYLE
Artist:PSY
ArtistUnicode:PSY
Creator:DaRRi MIx
Version:DaRRi sTyLE
Source:
Tags:kpop
BeatmapID:186665
BeatmapSetID:61963

[Difficulty]
HPDrainRate:6
CircleSize:5
OverallDifficulty:8
ApproachRate:9
SliderMultiplier:1.9
SliderTickRate:1

[Events]
//Background and Video events
0,0,"Background.jpg"
Video,-200,"Gangnam Style.avi"
//Break Periods
2,67762,69235
2,149580,151053
2,182307,188780
//Storyboard Layer 0 (Background)
//Storyboard Layer 1 (Fail)
//Storyboard Layer 2 (Pass)
//Storyboard Layer 3 (Foreground)
//Storyboard Sound Samples
//Background Colour Transformations
3,100,0,0,0

[TimingPoints]
3926,454.545454545455,4,1,0,70,1,0
69380,-100,4,2,0,20,0,0
70971,-100,4,1,0,70,0,0
71198,-100,4,1,0,70,0,1
100289,-200,4,1,0,70,0,0
111198,-100,4,1,0,70,0,0
151198,-100,4,2,0,20,0,0
152789,-100,4,1,0,70,0,0
153016,-100,4,1,0,70,0,1
182107,-100,4,1,0,70,0,0
188926,-66.6666666666667,4,1,0,70,0,0
200289,-100,4,1,0,70,0,1
214835,-100,4,2,0,20,0,0
216426,-100,4,1,0,70,0,0
216653,-100,4,1,0,70,0,1
216766,-100,4,1,0,70,0,0

[Colours]
Combo1 : 213,255,43
Combo2 : 255,236,0
Combo3 : 255,255,255
Combo4 : 255,191,0

[HitObjects]
32,352,17562,1,0,0:0:0
224,240,17903,1,8,0:0:0
224,240,18016,1,8,0:0:0
32,176,18244,1,0,0:0:0
32,48,18471,5,4,0:0:0
160,32,18698,1,0,0:0:0
192,144,18926,1,0,0:0:0
320,32,19153,2,0,B|432:16|512:80,1,190
352,224,19835,2,0,B|240:208,1,95
32,176,20289,5,0,0:0:0
0,304,20516,1,0,0:0:0
128,224,20744,1,0,0:0:0
176,336,20971,1,0,0:0:0
320,288,21198,1,0,0:0:0
496,368,21426,1,0,0:0:0
496,304,21880,1,0,0:0:0
256,272,22107,6,0,B|256:176,1,95
496,240,22562,2,0,B|496:144,1,95
256,208,23016,2,0,B|256:112,1,95
332,136,23357,1,0,0:0:0
332,136,23471,2,0,B|448:120,1,95
256,144,23926,5,0,0:0:0
496,112,24153,1,0,0:0:0
302,32,24380,1,0,0:0:0
449,223,24607,1,0,0:0:0
422,16,24835,1,0,0:0:0
329,239,25062,1,0,0:0:0
224,208,25516,1,0,0:0:0
176,368,25744,5,0,0:0:0
48,320,25971,2,0,B|-8:288|-8:192|48:160,1,190
48,32,26653,1,0,0:0:0
144,128,26880,1,0,0:0:0
160,256,27107,1,0,0:0:0
144,128,27335,1,0,0:0:0
288,160,27562,5,0,0:0:0
144,128,27789,1,0,0:0:0
208,16,28016,1,0,0:0:0
144,128,28244,1,0,0:0:0
16,176,28471,1,0,0:0:0
144,128,28698,1,0,0:0:0
352,256,28926,2,0,B|376:160,1,95
464,360,29380,5,0,0:0:0
48,360,29835,1,0,0:0:0
352,256,30289,1,0,0:0:0
256,176,30516,1,0,0:0:0
160,256,30744,1,0,0:0:0
352,256,30971,1,0,0:0:0
368,48,31198,6,0,B|448:32|512:32,2,142.5,2|2|2,0:0|0:0|0:0,0:0:0
144,48,32107,2,0,B|64:32|0:32,2,142.5,2|2|2,0:0|0:0|0:0,0:0:0
256,352,33016,6,0,B|256:240,1,95,4|0,0:0|0:0,0:0:0
304,32,33471,2,0,B|344:80|344:160|304:208,1,190,8|0,0:0|0:0,0:0:0
96,352,34153,1,0,0:0:0
128,208,34380,1,8,0:0:0
16,112,34607,1,0,0:0:0
176,16,34835,6,0,B|192:112,1,95
368,128,35289,2,0,B|464:112,1,95,8|0,0:0|0:0,0:0:0
160,224,35744,2,0,B|64:240,1,95
352,336,36198,2,0,B|336:240,1,95,8|0,0:0|0:0,0:0:0
256,32,36653,6,0,B|256:144,1,95,4|0,0:0|0:0,0:0:0
208,352,37107,2,0,B|168:304|168:224|208:176,1,190,8|0,0:0|0:0,0:0:0
448,320,37789,1,0,0:0:0
256,256,38016,1,8,0:0:0
448,320,38244,1,0,0:0:0
432,160,38471,6,0,B|433:75|480:0,2,142.5
448,320,39380,1,0,0:0:0
256,256,39607,1,0,0:0:0
64,320,39835,1,8,0:0:0
256,256,40062,1,0,0:0:0
256,352,40289,6,0,B|256:240,1,95,4|0,0:0|0:0,0:0:0
304,32,40744,2,0,B|344:80|344:160|304:208,1,190,8|0,0:0|0:0,0:0:0
208,32,41425,1,0,0:0:0
0,64,41653,1,8,0:0:0
144,224,41880,2,0,B|112:128,1,95
336,128,42335,5,0,0:0:0
224,272,42562,2,0,B|192:368,1,95,8|0,0:0|0:0,0:0:0
384,320,43016,2,0,B|480:320,1,95
480,64,43471,2,0,B|384:64,1,95,8|0,0:0|0:0,0:0:0
416,192,43812,1,0,0:0:0
416,192,43925,6,0,B|528:192,1,95,4|0,0:0|0:0,0:0:0
511,192,44380,1,8,0:0:0
96,192,44835,2,0,B|-16:192,1,95,0|0,0:0|0:0,0:0:0
416,192,45289,2,0,B|528:192,1,95,8|0,0:0|0:0,0:0:0
512,192,45744,5,4,0:0:0
512,32,46198,1,8,0:0:0
0,192,46653,2,0,B|0:32,1,142.5,0|8,0:0|0:0,0:0:0
176,24,47107,2,0,B|80:56,1,95,8|0,0:0|0:0,0:0:0
192,192,47562,5,6,0:0:0
512,128,47903,1,2,0:0:0
192,96,48244,1,2,0:0:0
512,32,48585,1,2,0:0:0
512,352,48925,2,0,B|512:256,1,95
320,32,49380,5,2,0:0:0
0,96,49721,1,2,0:0:0
320,128,50062,1,2,0:0:0
0,192,50403,2,0,B|0:288,1,95,2|0,0:0|0:0,0:0:0
96,320,50744,2,0,B|96:224,1,95,2|2,0:0|0:0,0:0:0
0,96,51198,5,2,0:0:0
320,32,51539,1,2,0:0:0
512,288,51880,1,2,0:0:0
192,352,52221,1,2,0:0:0
0,96,52562,1,0,0:0:0
512,128,53016,5,2,0:0:0
192,32,53357,1,2,0:0:0
0,256,53698,1,2,0:0:0
128,320,53925,1,2,0:0:0
128,320,54153,1,2,0:0:0
128,192,54380,1,2,0:0:0
128,192,54607,1,2,0:0:0
256,256,54835,6,0,B|416:224,1,142.5,6|2,0:0|0:0,0:0:0
496,352,55289,2,0,B|496:240,1,95,0|2,0:0|0:0,0:0:0
496,80,55744,1,0,0:0:0
496,80,55857,2,0,B|368:104,1,95,2|0,0:0|0:0,0:0:0
304,32,56198,2,0,B|304:144,1,95,0|0,0:3|0:3,0:0:0
304,368,56653,5,2,0:0:0
0,304,56994,1,2,0:0:0
304,272,57335,1,2,0:0:0
0,208,57675,2,0,B|0:112,1,95,2|0,0:0|0:0,0:0:0
0,32,58016,1,2,0:0:0
128,112,58244,1,0,0:0:0
256,192,58471,1,4,0:0:0
256,192,58585,12,0,59153,0:0:0
512,32,59607,5,0,0:0:0
512,32,59721,1,0,0:0:0
512,32,59835,1,0,0:0:0
384,112,60062,1,0,0:0:0
256,192,60289,1,4,0:0:0
256,192,60403,12,0,60971,0:0:0
394,272,61653,5,4,0:0:0
256,352,61880,1,4,0:0:0
256,192,62107,1,4,0:0:0
117,272,62335,1,4,0:0:0
256,352,62562,1,4,0:0:0
256,192,62789,1,4,0:0:0
117,112,63016,1,4,0:0:0
256,192,63244,1,4,0:0:0
394,112,63471,1,4,0:0:0
256,192,63698,1,4,0:0:0
256,32,63925,5,4,0:0:0
256,192,64153,1,0,0:0:0
256,352,64380,1,4,0:0:0
256,192,64607,1,0,0:0:0
32,192,64835,1,4,0:0:0
256,192,65062,1,0,0:0:0
480,192,65289,1,4,0:0:0
256,192,65516,1,0,0:0:0
256,192,65744,12,0,67562,0:0:0
159,248,69835,5,0,0:0:0
256,192,70062,1,0,0:0:0
256,80,70289,1,2,0:0:0
256,192,70516,1,0,0:0:0
352,248,70744,1,0,0:0:0
32,352,71198,6,0,B|192:352,1,142.5,4|0,0:0|0:0,0:0:0
480,288,71653,2,0,B|384:288,1,95,8|0,0:0|0:0,0:0:0
32,256,72107,2,0,B|128:256,1,95
32,128,72562,2,0,B|128:128,1,95,8|0,0:0|0:0,0:0:0
480,96,73016,6,0,B|320:96,1,142.5
32,32,73471,2,0,B|128:32,1,95,8|0,0:0|0:0,0:0:0
352,32,73925,1,0,0:0:0
160,96,74153,1,0,0:0:0
288,192,74380,1,8,0:0:0
160,288,74607,1,0,0:0:0
352,352,74835,6,0,B|388:320|388:256|352:224,1,142.5
352,224,75289,1,8,0:0:0
96,287,75516,2,0,B|96:192,1,95
416,192,75971,2,0,B|416:96,1,95,0|8,0:0|0:0,0:0:0
256,192,76425,1,0,0:0:0
160,32,76653,6,0,B|124:64|124:128|160:160,1,142.5
159,159,77107,1,8,0:0:0
304,44,77335,1,0,0:0:0
160,160,77562,1,0,0:0:0
352,224,77789,1,0,0:0:0
208,340,78016,1,8,0:0:0
480,352,78471,6,0,B|320:352,1,142.5,4|0,0:0|0:0,0:0:0
32,288,78925,2,0,B|128:288,1,95,8|0,0:0|0:0,0:0:0
480,256,79380,2,0,B|384:256,1,95
480,128,79835,2,0,B|384:128,1,95,8|0,0:0|0:0,0:0:0
32,96,80289,6,0,B|192:96,1,142.5
480,32,80744,2,0,B|384:32,1,95,8|0,0:0|0:0,0:0:0
160,32,81198,1,0,0:0:0
352,96,81425,1,0,0:0:0
224,192,81653,1,8,0:0:0
352,288,81880,1,0,0:0:0
160,352,82107,6,0,B|124:320|124:256|160:224,1,142.5
159,224,82562,1,8,0:0:0
416,287,82789,2,0,B|416:192,1,95
96,192,83244,2,0,B|96:96,1,95,0|8,0:0|0:0,0:0:0
256,192,83698,1,0,0:0:0
352,32,83925,6,0,B|480:96,1,142.5,2|2,0:0|0:0,0:0:0
480,288,84380,2,0,B|480:176,1,95,8|2,0:0|0:0,0:0:0
160,32,84835,2,0,B|32:96,1,142.5,2|2,0:0|0:0,0:0:0
32,288,85289,2,0,B|32:176,1,95,8|2,0:0|0:0,0:0:0
256,192,85744,5,4,0:0:0
256,192,85857,12,0,87562,0:0:0
256,144,88016,5,8,0:0:0
256,48,88244,1,0,0:0:0
256,144,88471,2,2,B|240:224|272:256|256:336,1,190,0|8,0:0|0:0,0:0:0
352,32,89380,6,0,B|388:64|388:128|352:160,1,142.5
352,159,89835,1,8,0:0:0
96,97,90062,2,0,B|96:192,1,95
416,192,90516,2,0,B|416:288,1,95,0|8,0:0|0:0,0:0:0
256,192,90971,1,0,0:0:0
160,352,91198,6,0,B|124:320|124:256|160:224,1,142.5
159,224,91653,1,8,0:0:0
304,340,91880,1,0,0:0:0
160,224,92107,1,0,0:0:0
352,160,92335,1,0,0:0:0
208,44,92562,2,0,B|256:192,1,95,8|0,0:0|0:0,0:0:0
256,192,93016,5,4,0:0:0
256,192,93130,12,0,94835,0:0:0
256,240,95289,5,8,0:0:0
256,336,95516,1,0,0:0:0
256,240,95744,2,2,B|272:160|240:128|256:48,1,190,0|8,0:0|0:0,0:0:0
160,352,96653,6,0,B|124:320|124:256|160:224,1,142.5
159,224,97107,1,8,0:0:0
416,287,97335,2,0,B|416:192,1,95
96,192,97789,2,0,B|96:96,1,95,0|8,0:0|0:0,0:0:0
256,192,98244,1,0,0:0:0
384,32,98471,5,2,0:0:0
512,96,98812,1,2,0:0:0
384,32,99153,1,2,0:0:0
128,32,99380,1,2,0:0:0
0,96,99721,1,2,0:0:0
128,32,100062,1,2,0:0:0
288,96,100289,6,0,B|368:64,2,71.25,4|0|0,0:0|0:0|0:0,0:0:0
96,128,101198,2,0,B|112:192,1,47.5
256,256,101653,2,0,B|320:264,1,47.5
512,176,102107,6,0,B|496:224,1,47.5
352,192,102562,2,0,B|368:256,1,47.5
464,352,103016,2,0,B|528:336,2,47.5
320,288,103698,1,0,0:0:0
160,352,103926,6,0,B|152:288,1,47.5
192,160,104380,1,0,0:0:0
64,320,104607,2,0,B|8:344,2,47.5
16,184,105289,2,0,B|0:120,1,47.5
96,32,105744,6,0,B|144:0,1,47.5
168,176,106198,2,0,B|112:152,1,47.5
240,40,106653,2,0,B|320:32,2,71.25
216,128,107562,5,0,0:0:0
304,112,107789,1,0,0:0:0
352,48,108016,1,0,0:0:0
304,112,108244,1,0,0:0:0
440,144,108471,1,0,0:0:0
424,224,108698,1,0,0:0:0
488,288,108926,1,0,0:0:0
512,208,109153,1,0,0:0:0
488,288,109380,5,0,0:0:0
424,224,109607,1,0,0:0:0
304,320,109835,1,0,0:0:0
272,240,110062,1,0,0:0:0
184,232,110289,1,0,0:0:0
272,240,110516,1,0,0:0:0
216,320,110744,2,0,B|152:332,1,47.5
48,352,111198,5,0,0:0:0
464,352,111653,1,0,0:0:0
336,128,112107,1,0,0:0:0
368,32,112335,1,0,0:0:0
176,128,112562,1,0,0:0:0
144,32,112789,1,0,0:0:0
124,288,113016,6,0,B|48:304|0:352,2,142.5,2|2|2,0:0|0:0|0:0,0:0:0
388,288,113926,2,0,B|464:304|512:352,2,142.5,2|2|2,0:0|0:0|0:0,0:0:0
512,352,114835,6,0,B|512:256,1,95,4|0,0:0|0:0,0:0:0
448,32,115289,2,0,B|488:80|488:160|448:208,1,190,8|0,0:0|0:0,0:0:0
448,32,115971,1,0,0:0:0
447,208,116198,1,8,0:0:0
448,32,116426,1,0,0:0:0
256,112,116653,6,0,B|352:112,1,95
160,112,117107,1,8,0:0:0
352,112,117335,1,0,0:0:0
160,112,117562,1,0,0:0:0
256,272,117789,1,0,0:0:0
160,112,118016,2,0,B|232:232,1,95,8|0,0:0|0:0,0:0:0
0,32,118471,6,0,B|0:128,1,95
64,352,118926,2,0,B|24:304|24:224|64:176,1,190,8|0,0:0|0:0,0:0:0
256,272,119607,1,0,0:0:0
256,112,119835,1,8,0:0:0
256,272,120062,1,0,0:0:0
448,32,120289,6,8,B|488:80|488:160|448:208,1,190,0|8,0:0|0:0,0:0:0
448,32,120971,1,0,0:0:0
256,112,121198,2,0,B|160:80,2,95,0|0|8,0:0|0:0|0:0,0:0:0
256,272,121880,1,0,0:0:0
512,352,122107,6,0,B|512:256,1,95,4|0,0:0|0:0,0:0:0
448,32,122562,2,0,B|488:80|488:160|448:208,1,190,8|0,0:0|0:0,0:0:0
312,192,123244,1,0,0:0:0
256,56,123471,2,0,B|152:40,1,95,8|0,0:0|0:0,0:0:0
32,128,123926,5,0,0:0:0
8,272,124153,1,0,0:0:0
32,128,124380,1,8,0:0:0
152,208,124607,1,0,0:0:0
248,112,124835,1,0,0:0:0
152,208,125062,1,0,0:0:0
296,328,125289,2,0,B|272:224,1,95,8|0,0:0|0:0,0:0:0
512,192,125744,6,0,B|416:192,1,95
417,192,126198,1,8,0:0:0
0,192,126653,2,0,B|96:192,1,95
512,192,127107,2,0,B|416:192,1,95,8|0,0:0|0:0,0:0:0
417,192,127562,5,0,0:0:0
448,32,128016,1,8,0:0:0
96,192,128471,2,0,B|64:32,1,142.5,0|8,0:0|0:0,0:0:0
0,192,128926,2,0,B|24:312,1,95,8|0,0:0|0:0,0:0:0
32,352,129380,5,2,0:0:0
352,352,129721,1,2,0:0:0
96,192,130062,1,2,0:0:0
416,192,130403,1,2,0:0:0
32,32,130744,2,0,B|72:132,1,95
128,272,131198,5,2,0:0:0
256,32,131539,1,2,0:0:0
352,272,131880,1,2,0:0:0
480,32,132221,2,2,B|352:32,1,95,2|0,0:0|0:0,0:0:0
385,32,132562,1,2,0:0:0
448,192,132789,1,2,0:0:0
512,352,133016,5,2,0:0:0
256,272,133357,1,2,0:0:0
0,192,133698,1,2,0:0:0
256,112,134039,1,2,0:0:0
512,32,134380,1,0,0:0:0
0,352,134835,5,2,0:0:0
256,272,135176,1,2,0:0:0
512,192,135516,1,2,0:0:0
448,352,135744,1,2,0:0:0
448,352,135971,1,2,0:0:0
384,192,136198,1,2,0:0:0
384,192,136426,1,2,0:0:0
320,352,136653,6,0,B|160:352,1,142.5,6|2,0:0|0:0,0:0:0
64,352,137107,2,0,B|96:256,1,95,0|2,0:0|0:0,0:0:0
0,96,137562,1,0,0:0:0
0,96,137676,2,0,B|96:96,1,95,2|0,0:0|0:0,0:0:0
223,123,138016,2,0,B|191:27,1,95
192,32,138471,5,2,0:0:0
512,32,138812,1,2,0:0:0
128,192,139153,1,2,0:0:0
448,192,139494,2,0,B|496:312,1,95,2|0,0:0|0:0,0:0:0
512,352,139835,5,2,0:0:0
384,336,140062,1,0,0:0:0
256,352,140289,2,0,P|160:272|256:192,1,285,4|0,0:0|0:0,0:0:0
0,32,141426,5,0,0:0:0
0,32,141539,1,0,0:0:0
0,32,141653,1,0,0:0:0
128,48,141880,1,0,0:0:0
256,32,142107,2,0,P|352:112|256:192,1,285,4|0,0:0|0:0,0:0:0
118,272,143471,5,4,0:0:0
256,352,143698,1,4,0:0:0
395,272,143926,1,4,0:0:0
395,112,144153,1,4,0:0:0
256,192,144380,1,4,0:0:0
118,112,144607,1,4,0:0:0
256,32,144835,1,4,0:0:0
256,192,145062,1,4,0:0:0
256,352,145289,1,4,0:0:0
256,192,145516,1,4,0:0:0
480,192,145744,5,4,0:0:0
464,192,145971,1,0,0:0:0
32,192,146198,1,4,0:0:0
48,192,146425,1,0,0:0:0
256,32,146653,1,4,0:0:0
256,48,146880,1,0,0:0:0
256,352,147107,1,4,0:0:0
256,336,147335,1,0,0:0:0
256,128,147562,5,0,0:0:0
232,132,147675,1,0,0:0:0
210,146,147789,1,0,0:0:0
197,166,147903,1,0,0:0:0
192,192,148016,5,0,0:0:0
196,215,148130,1,0,0:0:0
210,237,148244,1,0,0:0:0
230,250,148357,1,0,0:0:0
256,256,148471,5,0,0:0:0
279,251,148585,1,0,0:0:0
301,237,148698,1,0,0:0:0
314,217,148812,1,0,0:0:0
320,192,148925,5,0,0:0:0
315,168,149039,1,0,0:0:0
301,146,149153,1,0,0:0:0
281,133,149266,1,0,0:0:0
256,128,149380,1,0,0:0:0
159,135,151653,5,0,0:0:0
256,192,151880,1,0,0:0:0
352,136,152107,1,2,0:0:0
256,192,152335,1,0,0:0:0
256,304,152562,1,0,0:0:0
32,160,153016,6,0,B|32:16,1,142.5,4|0,0:0|0:0,0:0:0
480,111,153471,2,4,B|480:16,1,95,8|0,0:0|0:0,0:0:0
96,192,153925,2,0,B|96:96,1,95
96,352,154380,2,0,B|96:256,1,95,8|0,0:0|0:0,0:0:0
416,352,154835,6,0,B|416:208,1,142.5
160,304,155289,2,0,B|160:208,1,95,8|0,0:0|0:0,0:0:0
352,32,155744,1,0,0:0:0
160,32,155971,1,0,0:0:0
256,198,156198,2,0,B|208:114,1,95,8|0,0:0|0:0,0:0:0
256,352,156653,6,0,B|368:368|368:368|352:320,1,142.5
358,340,157107,1,8,0:0:0
416,64,157335,2,0,B|448:160,1,95
96,320,157789,2,0,B|64:224,1,95,0|8,0:0|0:0,0:0:0
256,192,158244,1,0,0:0:0
256,32,158471,6,0,B|144:16|144:16|160:64,1,142.5
192,160,158925,1,8,0:0:0
336,128,159153,1,0,0:0:0
336,256,159380,1,0,0:0:0
480,224,159607,1,0,0:0:0
480,352,159835,1,8,0:0:0
480,160,160289,6,0,B|480:16,1,142.5,4|0,0:0|0:0,0:0:0
32,111,160744,2,4,B|32:16,1,95,8|0,0:0|0:0,0:0:0
416,192,161198,2,0,B|416:96,1,95
416,352,161653,2,0,B|416:256,1,95,8|0,0:0|0:0,0:0:0
96,352,162107,6,0,B|96:208,1,142.5
352,304,162562,2,0,B|352:208,1,95,8|0,0:0|0:0,0:0:0
160,32,163016,1,0,0:0:0
352,32,163244,1,0,0:0:0
256,198,163471,2,0,B|304:114,1,95,8|0,0:0|0:0,0:0:0
256,352,163925,6,0,B|144:368|144:368|160:320,1,142.5
154,340,164380,1,8,0:0:0
96,64,164607,2,0,B|64:160,1,95
416,320,165062,2,0,B|448:224,1,95,0|8,0:0|0:0,0:0:0
256,192,165516,1,0,0:0:0
256,32,165744,6,0,B|312:44|328:100|304:144,2,142.5,2|2|2,0:0|0:0|0:0,0:0:0
256,352,166653,2,0,B|200:340|184:284|208:240,2,142.5,2|2|2,0:0|0:0|0:0,0:0:0
256,192,167562,5,4,0:0:0
256,192,167675,12,0,169380,0:0:0
512,288,169835,5,8,0:0:0
512,96,170062,1,0,0:0:0
448,192,170289,2,2,B|368:208|336:176|256:192,1,190,0|8,0:0|0:0,0:0:0
32,32,171198,6,0,B|64:192,1,142.5
59,171,171653,1,8,0:0:0
192,32,171880,2,0,B|192:128,1,95
32,257,172335,2,0,B|32:352,1,95,0|8,0:0|0:0,0:0:0
164,212,172789,1,0,0:0:0
192,352,173016,2,0,B|160:192,1,142.5
352,352,173471,5,8,0:0:0
256,192,173698,1,0,0:0:0
352,32,173925,1,0,0:0:0
256,192,174153,1,0,0:0:0
448,192,174380,2,0,B|352:192,1,95,8|0,0:0|0:0,0:0:0
256,192,174835,5,4,0:0:0
256,192,174948,12,0,176653,0:0:0
0,96,177107,5,8,0:0:0
0,288,177335,1,0,0:0:0
64,192,177562,2,2,B|144:176|176:208|256:192,1,190,0|8,0:0|0:0,0:0:0
480,352,178471,6,0,B|448:192,1,142.5
453,213,178925,1,8,0:0:0
320,352,179153,2,0,B|320:256,1,95
480,127,179607,2,0,B|480:32,1,95,0|8,0:0|0:0,0:0:0
348,172,180062,1,0,0:0:0
320,32,180289,5,2,0:0:0
192,352,180630,1,2,0:0:0
320,32,180971,1,2,0:0:0
388,244,181198,1,2,0:0:0
124,140,181539,1,2,0:0:0
388,244,181880,1,2,0:0:0
256,192,182107,1,4,0:0:0
128,32,189380,6,0,B|140:92|212:92|224:32,1,142.500005435944
64,96,189835,2,0,B|20:128|20:192|64:224|108:256|108:320|64:352,1,285.000010871888
188,192,190516,2,0,B|224:168|288:168|324:192,2,142.500005435944
384,32,191198,6,0,B|372:92|300:92|288:32,1,142.500005435944
448,96,191653,2,0,B|492:128|492:192|448:224|404:256|404:320|448:352,1,285.000010871888
64,352,192562,1,0,0:0:0
96,256,192789,1,0,0:0:0
448,352,193016,5,0,0:0:0
416,256,193244,1,0,0:0:0
96,256,193471,1,0,0:0:0
68,116,193698,1,0,0:0:0
416,256,193925,2,0,B|448:96,1,142.500005435944
96,256,194380,2,0,B|64:96,1,142.500005435944
384,32,194835,5,0,0:0:0
128,32,195062,1,0,0:0:0
256,272,195289,5,0,0:0:0
256,112,195516,1,0,0:0:0
256,336,195744,1,0,0:0:0
256,48,195971,1,0,0:0:0
112,192,196198,2,0,B|397:192,1,285.000010871888,4|0,0:0|0:0,0:0:0
64,192,198471,5,2,0:0:0
256,64,198812,1,2,0:0:0
448,192,199153,1,2,0:0:0
448,96,199380,5,2,0:0:0
256,320,199721,1,2,0:0:0
64,96,200062,1,2,0:0:0
32,352,200289,6,0,B|192:352,1,142.5,4|0,0:0|0:0,0:0:0
480,320,200744,2,0,B|384:320,1,95,8|0,0:0|0:0,0:0:0
32,256,201198,2,0,B|128:256,1,95
32,128,201653,2,0,B|128:128,1,95,8|0,0:0|0:0,0:0:0
480,32,202107,6,0,B|320:32,1,142.5
32,64,202562,2,0,B|128:64,1,95,8|0,0:0|0:0,0:0:0
480,128,203016,2,0,B|384:128,1,95
480,256,203471,2,0,B|384:256,1,95,8|0,0:0|0:0,0:0:0
448,174,203925,6,0,B|448:32,1,142.5,0|0,0:0|0:0,0:0:0
128,127,204380,2,0,B|128:32,1,95,8|0,0:0|0:0,0:0:0
384,160,204835,2,0,B|384:64,1,95
384,320,205289,2,0,B|384:224,1,95,8|0,0:0|0:0,0:0:0
64,352,205744,6,0,B|64:208,1,142.5
384,352,206198,2,0,B|384:256,1,95,8|0,0:0|0:0,0:0:0
128,224,206653,2,0,B|128:320,1,95
128,64,207107,2,0,B|128:160,1,95,8|0,0:0|0:0,0:0:0
256,192,207562,5,0,0:0:0
256,192,207675,12,0,209380,0:0:0
256,144,209835,5,8,0:0:0
256,48,210062,1,0,0:0:0
256,144,210289,2,2,B|240:224|272:256|256:336,1,190,0|8,0:0|0:0,0:0:0
352,32,211198,6,0,B|388:64|388:128|352:160,1,142.5
353,160,211653,1,8,0:0:0
96,96,211880,2,0,B|192:128,1,95
416,288,212335,2,0,B|320:256,1,95,0|8,0:0|0:0,0:0:0
256,192,212789,1,0,0:0:0
160,352,213016,6,0,B|320:320,2,142.5,2|2|2,0:0|0:0|0:0,0:0:0
352,32,213925,2,0,B|192:64,2,142.5,2|2|2,0:0|0:0|0:0,0:0:0
256,192,214835,5,0,0:0:0
180,295,215289,5,0,0:0:0
377,152,215516,1,0,0:0:0
134,152,215744,1,2,0:0:0
331,295,215971,1,0,0:0:0
256,64,216198,1,0,0:0:0
256,192,216653,5,6,0:0:0
