osu file format v11

[General]
AudioFilename: 03 .mp3
AudioLeadIn: 0
PreviewTime: 69846
Countdown: 0
SampleSet: Normal
StackLeniency: 0.7
Mode: 0
LetterboxInBreaks: 0

[Editor]
Bookmarks: 17569
DistanceSpacing: 1.8
BeatDivisor: 4
GridSize: 8

[Metadata]
Title:GANGNAM STYLE
TitleUnicode:GANGNAM STYLE
Artist:PSY
ArtistUnicode:PSY
Creator:DaRRi MIx
Version:Boring
Source:
Tags:kpop
BeatmapID:186666
BeatmapSetID:61963

[Difficulty]
HPDrainRate:0
CircleSize:3
OverallDifficulty:5
ApproachRate:5
SliderMultiplier:1.3
SliderTickRate:1

[Events]
//Background and Video events
0,0,"Background.jpg"
Video,-200,"Gangnam Style.avi"
//Break Periods
2,67762,68635
2,100489,113180
2,182307,195453
//Storyboard Layer 0 (Background)
//Storyboard Layer 1 (Fail)
//Storyboard Layer 2 (Pass)
//Storyboard Layer 3 (Foreground)
//Storyboard Sound Samples
//Background Colour Transformations
3,100,0,0,0

[TimingPoints]
3926,454.545454545455,4,1,0,70,1,0
69380,-100,4,2,0,20,0,0
70971,-100,4,1,0,70,0,0
71198,-100,4,1,0,70,0,1
100289,-200,4,1,0,70,0,0
111198,-100,4,1,0,70,0,0
151198,-100,4,2,0,20,0,0
152789,-100,4,1,0,70,0,0
153016,-100,4,1,0,70,0,1
182107,-100,4,1,0,70,0,0
200289,-100,4,1,0,70,0,1
214835,-100,4,2,0,20,0,0
216426,-100,4,1,0,70,0,0
216653,-100,4,1,0,70,0,1
216766,-100,4,1,0,70,0,0

[Colours]
Combo1 : 213,255,43
Combo2 : 255,236,0
Combo3 : 255,255,255
Combo4 : 255,191,0

[HitObjects]
256,288,18471,1,4,0:0:0
256,160,18926,1,0,0:0:0
256,160,19153,2,0,B|128:192,1,130
128,128,19835,2,0,B|128:64,1,65
128,64,20289,5,0,0:0:0
256,64,20744,1,0,0:0:0
384,64,21198,1,0,0:0:0
256,64,21653,1,0,0:0:0
256,192,22107,6,0,B|256:256,3,65
320,256,23016,2,0,B|384:256,3,65
384,320,23926,5,0,0:0:0
256,320,24380,1,0,0:0:0
128,320,24835,1,0,0:0:0
256,320,25289,1,0,0:0:0
256,192,25744,6,0,B|384:160,3,130
384,32,27562,6,0,B|256:64,2,130
512,32,28926,2,0,B|512:96,1,65
512,97,29380,5,0,0:0:0
512,224,29835,1,0,0:0:0
384,224,30289,1,0,0:0:0
384,352,30744,1,0,0:0:0
320,352,30971,1,0,0:0:0
256,352,31198,5,2,0:0:0
256,352,31653,1,2,0:0:0
256,224,32107,1,2,0:0:0
256,96,32562,1,2,0:0:0
256,96,32789,1,0,0:0:0
256,96,33016,6,0,B|128:64,2,130,4|8|0,0:0|0:0|0:0,0:0:0
384,96,34380,2,0,B|448:96,1,65,8|0,0:0|0:0,0:0:0
448,160,34835,6,0,B|448:224,1,65
384,224,35289,2,0,B|320:224,1,65,8|0,0:0|0:0,0:0:0
320,160,35744,2,0,B|320:96,1,65
384,96,36198,2,0,B|448:96,1,65,8|0,0:0|0:0,0:0:0
448,160,36653,6,0,B|480:288,2,130,0|8|0,0:0|0:0|0:0,0:0:0
320,160,38016,2,0,B|320:224,1,65,8|0,0:0|0:0,0:0:0
320,288,38471,6,0,B|256:288,1,65
192,288,38925,2,0,B|192:352,1,65,8|0,0:0|0:0,0:0:0
128,352,39380,2,0,B|64:352,1,65
64,288,39835,2,0,B|64:224,1,65,8|0,0:0|0:0,0:0:0
64,160,40289,6,0,B|192:192,2,130,4|8|0,0:0|0:0|0:0,0:0:0
64,32,41653,2,0,B|128:32,1,65,8|0,0:0|0:0,0:0:0
128,96,42107,6,0,B|192:96,1,65
192,32,42562,2,0,B|256:32,1,65,8|0,0:0|0:0,0:0:0
256,96,43016,2,0,B|320:96,1,65
320,32,43471,2,0,B|384:32,1,65,8|0,0:0|0:0,0:0:0
448,32,43925,6,0,B|480:160,1,130,0|8,0:0|0:0,0:0:0
352,160,44835,2,0,B|288:160,1,65
224,160,45289,2,0,B|256:288,1,130,8|2,0:0|0:0,0:0:0
128,288,46198,5,10,0:0:0
256,288,46653,1,2,0:0:0
384,288,47107,1,10,0:0:0
496,192,47562,6,0,B|432:160|432:64|496:32,1,195,4|0,0:0|0:0,0:0:0
304,32,48925,1,0,0:0:0
176,32,49380,6,0,B|144:96|48:96|16:32,1,195
16,224,50744,1,0,0:0:0
16,352,51198,6,0,B|48:288|144:288|176:352,1,195,0|2,0:0|0:0,0:0:0
368,352,52562,1,0,0:0:0
496,352,53016,6,0,B|432:320|432:224|496:192,1,195,0|2,0:0|0:0,0:0:0
494,192,53925,2,0,B|495:127,3,65,2|2|2|2,0:0|0:0|0:0|0:0,0:0:0
496,64,54835,6,0,B|400:32,4,97.5,6|2|2|2|0,0:0|0:0|0:0|0:0|0:0,0:0:0
336,32,56653,6,0,B|304:128,4,97.5,2|2|2|2|2,0:0|0:0|0:0|0:0|0:0,0:0:0
256,192,58471,5,4,0:0:0
256,192,60289,5,4,0:0:0
256,104,62107,5,4,0:0:0
168,192,62562,1,4,0:0:0
256,280,63016,1,4,0:0:0
344,192,63471,1,4,0:0:0
256,192,63925,5,4,0:0:0
256,192,64153,1,0,0:0:0
256,192,64380,1,4,0:0:0
256,192,64607,1,0,0:0:0
256,192,64835,1,4,0:0:0
256,192,65062,1,0,0:0:0
256,192,65289,1,4,0:0:0
256,192,65516,1,0,0:0:0
256,192,65744,12,0,67562,0:0:0
256,224,69835,6,0,B|256:159,4,65,0|0|2|0|0,0:0|0:0|0:0|0:0|0:0,0:0:0
96,128,71198,6,0,B|128:32,1,97.5,4|0,0:0|0:0,0:0:0
126,35,71653,2,0,B|192:32,1,65,8|0,0:0|0:0,0:0:0
192,96,72107,2,0,B|258:95,1,65
254,32,72562,2,0,B|320:32,1,65,8|0,0:0|0:0,0:0:0
384,32,73016,6,0,B|480:64,1,97.5
476,62,73471,2,0,B|480:128,1,65,8|0,0:0|0:0,0:0:0
416,128,73925,2,0,B|416:192,1,65
480,192,74380,2,0,B|480:288,1,65,8|0,0:0|0:0,0:0:0
480,320,74835,6,0,B|352:352,1,130,0|8,0:0|0:0,0:0:0
352,288,75516,2,0,B|320:160,2,130
288,288,76653,6,0,B|160:320,1,130,0|8,0:0|0:0,0:0:0
160,192,77562,2,0,B|160:128,2,65,0|0|8,0:0|0:0|0:0,0:0:0
416,128,78471,6,0,B|384:32,1,97.5,4|0,0:0|0:0,0:0:0
385,35,78925,2,0,B|320:32,1,65,8|0,0:0|0:0,0:0:0
320,96,79380,2,0,B|253:95,1,65
257,32,79835,2,0,B|192:32,1,65,8|0,0:0|0:0,0:0:0
128,32,80289,6,0,B|32:64,1,97.5
35,62,80744,2,0,B|32:128,1,65,8|0,0:0|0:0,0:0:0
96,128,81198,2,0,B|95:192,1,65
31,192,81653,2,0,B|32:288,1,65,8|0,0:0|0:0,0:0:0
32,320,82107,6,0,B|160:352,1,130,0|8,0:0|0:0,0:0:0
224,352,82789,2,0,B|192:224,2,130
224,352,83925,5,2,0:0:0
288,248,84380,1,10,0:0:0
224,144,84835,1,2,0:0:0
288,40,85289,1,10,0:0:0
256,192,85744,12,0,87562,0:0:0
448,48,88471,6,2,B|448:208,1,130,0|8,0:0|0:0,0:0:0
448,304,89380,6,0,B|320:336,1,130,0|8,0:0|0:0,0:0:0
256,336,90062,2,0,B|256:176,2,130
190,335,91198,6,0,B|63:303,1,130,0|8,0:0|0:0,0:0:0
64,176,92107,2,0,B|64:112,2,65,0|0|8,0:0|0:0|0:0,0:0:0
256,192,93016,12,0,94835,0:0:0
64,48,95744,6,2,B|64:208,1,130,0|8,0:0|0:0,0:0:0
64,304,96653,6,0,B|192:336,1,130,0|8,0:0|0:0,0:0:0
256,336,97335,2,0,B|256:176,2,130
256,336,98471,5,0,0:0:0
256,240,98926,1,8,0:0:0
256,144,99380,1,0,0:0:0
256,48,99835,1,8,0:0:0
256,48,100289,5,4,0:0:0
256,160,114380,5,8,0:0:0
256,288,114835,6,0,B|384:320,2,130,4|8|0,0:0|0:0|0:0,0:0:0
128,288,116198,2,0,B|64:288,1,65,8|0,0:0|0:0,0:0:0
64,224,116653,6,0,B|64:160,1,65
128,160,117107,2,0,B|192:160,1,65,8|0,0:0|0:0,0:0:0
192,224,117562,2,0,B|192:288,1,65
128,288,118016,2,0,B|64:288,1,65,8|0,0:0|0:0,0:0:0
64,224,118471,6,0,B|32:96,2,130,0|8|0,0:0|0:0|0:0,0:0:0
128,224,119607,1,0,0:0:0
192,224,119835,2,0,B|192:160,1,65,8|0,0:0|0:0,0:0:0
192,96,120289,6,0,B|320:128,1,130,0|8,0:0|0:0,0:0:0
384,32,121198,2,0,B|448:32,1,65
448,96,121653,2,0,B|448:160,1,65,8|0,0:0|0:0,0:0:0
448,224,122107,6,0,B|320:192,2,130,4|8|0,0:0|0:0|0:0,0:0:0
448,288,123244,1,0,0:0:0
448,352,123471,2,0,B|384:352,1,65,8|0,0:0|0:0,0:0:0
384,288,123926,6,0,B|320:288,1,65
320,352,124380,2,0,B|256:352,1,65,8|0,0:0|0:0,0:0:0
256,288,124835,2,0,B|192:288,1,65
192,352,125289,2,0,B|128:352,1,65,8|0,0:0|0:0,0:0:0
64,352,125744,6,0,B|32:224,1,130,0|8,0:0|0:0,0:0:0
160,224,126653,2,0,B|224:224,1,65
288,224,127107,2,0,B|256:96,1,130,8|2,0:0|0:0,0:0:0
384,96,128016,5,10,0:0:0
256,96,128471,1,2,0:0:0
128,96,128926,1,10,0:0:0
16,192,129380,6,0,B|80:224|80:320|16:352,1,195,4|0,0:0|0:0,0:0:0
208,352,130744,1,0,0:0:0
336,352,131198,6,0,B|368:288|464:288|496:352,1,195
496,160,132562,1,0,0:0:0
496,32,133016,6,0,B|464:96|368:96|336:32,1,195,0|2,0:0|0:0,0:0:0
144,32,134380,1,0,0:0:0
16,32,134835,6,0,B|80:64|80:160|16:192,1,195,0|2,0:0|0:0,0:0:0
18,192,135744,2,0,B|17:257,3,65,2|2|2|2,0:0|0:0|0:0|0:0,0:0:0
16,320,136653,6,0,B|112:352,4,97.5,6|2|2|2|0,0:0|0:0|0:0|0:0|0:0,0:0:0
176,352,138471,6,0,B|208:256,4,97.5,2|2|2|2|2,0:0|0:0|0:0|0:0|0:0,0:0:0
256,192,140289,5,4,0:0:0
256,192,141426,5,0,0:0:0
256,192,141653,1,0,0:0:0
256,192,141880,1,0,0:0:0
256,192,142107,1,4,0:0:0
256,130,143471,6,0,P|256:64,1,65
314,173,143926,2,0,P|377:152,1,65
291,241,144380,2,0,P|331:295,1,65
220,241,144835,2,0,P|180:295,1,65
197,173,145289,2,0,P|134:152,1,65
256,192,145744,5,4,0:0:0
256,192,146198,5,4,0:0:0
256,192,146653,5,4,0:0:0
256,192,147107,5,4,0:0:0
256,192,147562,12,0,149380,0:0:0
256,224,151653,6,0,B|256:159,4,65,0|0|2|0|0,0:0|0:0|0:0|0:0|0:0,0:0:0
416,128,153016,6,0,B|384:32,1,97.5,4|0,0:0|0:0,0:0:0
386,35,153471,2,0,B|320:32,1,65,8|0,0:0|0:0,0:0:0
320,96,153925,2,0,B|254:95,1,65
258,32,154380,2,0,B|192:32,1,65,8|0,0:0|0:0,0:0:0
128,32,154835,6,0,B|32:64,1,97.5
36,62,155289,2,0,B|32:128,1,65,8|0,0:0|0:0,0:0:0
96,128,155744,2,0,B|96:192,1,65
32,192,156198,2,0,B|32:288,1,65,8|0,0:0|0:0,0:0:0
32,320,156653,6,0,B|160:352,1,130,0|8,0:0|0:0,0:0:0
160,288,157335,2,0,B|192:160,2,130
224,288,158471,6,0,B|352:320,1,130,0|8,0:0|0:0,0:0:0
352,192,159380,2,0,B|352:128,2,65,0|0|8,0:0|0:0|0:0,0:0:0
96,128,160289,6,0,B|128:32,1,97.5,4|0,0:0|0:0,0:0:0
127,35,160744,2,0,B|192:32,1,65,8|0,0:0|0:0,0:0:0
192,96,161198,2,0,B|259:95,1,65
255,32,161653,2,0,B|320:32,1,65,8|0,0:0|0:0,0:0:0
384,32,162107,6,0,B|480:64,1,97.5
477,62,162562,2,0,B|480:128,1,65,8|0,0:0|0:0,0:0:0
416,128,163016,2,0,B|417:192,1,65
481,192,163471,2,0,B|480:288,1,65,8|0,0:0|0:0,0:0:0
480,320,163925,6,0,B|352:352,1,130,0|8,0:0|0:0,0:0:0
288,352,164607,2,0,B|320:224,2,130
288,352,165744,5,2,0:0:0
224,248,166198,1,10,0:0:0
288,144,166653,1,2,0:0:0
224,40,167107,1,10,0:0:0
256,192,167562,12,0,169380,0:0:0
64,64,170289,6,2,B|64:224,1,130,0|8,0:0|0:0,0:0:0
64,320,171198,6,0,B|192:272,1,130,0|8,0:0|0:0,0:0:0
256,272,171880,2,0,B|256:112,2,130,0|0|0,0:0|0:0|0:0,0:0:0
320,272,173016,6,0,B|449:319,1,130,0|8,0:0|0:0,0:0:0
448,192,173925,2,0,B|448:128,2,65,0|0|8,0:0|0:0|0:0,0:0:0
256,192,174835,12,0,176653,0:0:0
448,64,177562,6,2,B|448:224,1,130,0|8,0:0|0:0,0:0:0
448,320,178471,6,0,B|320:272,1,130,0|8,0:0|0:0,0:0:0
256,272,179153,2,0,B|256:112,2,130
256,336,180289,5,0,0:0:0
154,293,180744,1,8,0:0:0
112,192,181198,1,0,0:0:0
154,90,181653,1,8,0:0:0
256,48,182107,5,4,0:0:0
256,192,196653,5,0,0:0:0
128,320,198471,6,0,P|232:320,2,97.5
64,352,199380,2,0,P|176:352,2,97.5
64,352,200289,6,0,B|32:256,1,97.5,4|0,0:0|0:0,0:0:0
33,259,200744,2,0,B|96:224,1,65,8|0,0:0|0:0,0:0:0
89,227,201198,2,0,B|32:192,1,65
34,193,201653,2,0,B|96:160,1,65,8|0,0:0|0:0,0:0:0
152,64,202107,6,0,B|248:32,1,97.5
244,33,202562,2,0,B|279:95,1,65,8|0,0:0|0:0,0:0:0
276,89,203016,2,0,B|311:31,1,65
310,34,203471,2,0,B|343:95,1,65,8|0,0:0|0:0,0:0:0
448,32,203925,6,0,B|480:128,1,97.5
478,124,204380,2,0,B|416:160,1,65,8|0,0:0|0:0,0:0:0
422,156,204835,2,0,B|480:192,1,65
477,190,205289,2,0,B|416:224,1,65,8|0,0:0|0:0,0:0:0
360,320,205744,6,0,B|264:352,1,97.5
268,351,206198,2,0,B|232:288,1,65,8|0,0:0|0:0,0:0:0
236,295,206653,2,0,B|200:352,1,65
202,350,207107,2,0,B|168:288,1,65,8|0,0:0|0:0,0:0:0
160,224,207562,6,0,B|80:32|256:-28|432:32|352:224,1,520,4|0,0:0|0:0,0:0:0
192,352,210289,6,0,B|352:352,1,130,0|8,0:0|0:0,0:0:0
448,352,211198,5,0,0:0:0
448,160,211880,1,0,0:0:0
320,160,212335,1,0,0:0:0
192,160,212789,1,0,0:0:0
192,96,213016,6,0,B|64:64,1,130,0|8,0:0|0:0,0:0:0
64,192,213925,2,0,B|32:288,2,97.5,0|0|0,0:0|0:0|0:0,0:0:0
64,192,214835,5,0,0:0:0
192,192,215289,6,0,B|256:192,4,65,0|0|2|0|0,0:0|0:0|0:0|0:0|0:0,0:0:0
320,192,216653,5,6,0:0:0
